This file was generated by Ched 2.7.0.0.
#TITLE ""
#ARTIST ""
#DESIGNER ""
#DIFFICULTY 0
#PLAYLEVEL
#SONGID ""
#WAVE ""
#WAVEOFFSET 0
#JACKET ""
#REQUEST "ticks_per_beat 480"
#00002: 4
#BPM01: 138
#00008: 01
#TIL00: ""
#HISPEED 00
#MEASUREHS 00
#0011a:14
#00112:00140000
#00118:00001414
#00114:0000000000140000
#00212:14
#0021a:00140000
#00214:00001414
#00218:0000000000140000
#0031a:14
#00314:00140000
#00318:0014
#00312:00000014
#0051a:00140000
#00514:00001414
#00518:0000000000140000
#00510:41
#0061a:14
#00612:00140000
#00618:00001414
#00614:0000000000140000
#00712:14
#00718:00140000
#00714:0014
#0071a:00000014
#00912:14
#00918:00140000
#00914:0014
#0091a:00000014
#01012:14
#01018:00140000
#01014:0014
#0101a:00000014
#01112:14
#01118:00140000
#01114:0014
#0111a:00000014
#01110:0041
#01212:14
#01712:1414
#01718:00140014
#01814:1414
#0181a:00140014
#01810:41
#01912:14
#0201a:14
#02112:1414
#02118:00140000
#0221a:1414
#02214:00140014
#02318:1414
#02312:00140014
#0241a:14
#0241f:11
#02512:14
#02514:00000014
#02612:0014
#02714:00140000
#02818:00140000
#02814:0014
#0281a:00000014
#02912:14
#02914:00343434
#0311a:00140000
#03114:0014
#03118:00000014
#03212:14
#03218:00140000
#03214:0014
#0321a:00000014
#03210:41
#03312:14
#03318:00140000
#03314:0014
#0331a:00000014
#03514:14
#03518:00140000
#03512:0014
#0351a:00000014
#03612:14
#03618:0000140000140000
#03614:0000000014000014
#03718:00000014
#03712:0034343400000014
#03912:00140000
#03918:0014
#03914:00000014
#0391a:24
#0401a:14
#04014:00140000
#04018:0014
#04012:00000014
#0411a:14
#04114:00140000
#04118:0014
#04112:00000014
#04110:41
#04318:14
#04314:00140000
#0431a:0014
#04312:00000014
#0441a:14
#04414:0000140000140000
#04418:0014
#04518:0000000000000014
#04812:14
#04818:00140000
#04814:0024
#0481a:00000024
#04810:41
#04912:14140000
#04918:00001414
#05212:14
#05218:00140000
#05214:0024
#0521a:00000024
#05312:14140000
#05318:00001414
#05614:14
#03018:00002424
#03014:3400000000240024
#0301f:0000000000000021
#04712:24
#04718:00240000
#04714:0024
#0471a:00000024
#05014:24
#0501a:00240000
#05012:0000000000343434
#05118:00240000
#05114:0024
#0511a:00000024
#05414:24
#0541a:00240000
#05412:0024
#05418:00000024
#05514:2424
#05518:00240024
#00414:0000000000343434
#01318:00343400
#01412:00343400
#01514:00343400
#0161a:00343400
#03814:0034343400000000
#01252:54
#01952:54
#0205a:64
#0245a:54
#02552:54
#02554:00000024
#02652:0054
#02754:00240000
#02952:54
#03054:0000000000000014
#0045a:00140000
#00852:00140000
#00858:00000014
#02152:0014
#03654:0000000000000054
#03752:0000000000000054
#04254:00000014
#03458:00000014
#04558:0000000000000054
#0475a:00000014
#0485a:00000014
#0505a:00140000
#0515a:00000014
#0525a:00000014
#0545a:00140000
#05458:00000014
#05654:54
#0043a0:14240000
#004340:0000000014343434
#005320:24
#008320:14240000
#008380:00001424
#012320:14
#012340:0024
#0133a0:14
#013380:00343424
#014340:14
#014320:00343424
#015320:14
#015340:00343424
#016380:14
#0163a0:00343424
#019320:14
#019340:00000024
#0203a0:14
#020380:00000024
#0243a0:14
#024380:00000024
#025320:14
#025340:00000054
#026320:0034
#027340:00540000
#028320:24
#029320:14
#029340:00343434
#030340:34240000
#034320:14240000
#034380:00001424
#036340:0000000000000014
#037320:0034343424000000
#037320:0000000000000014
#038340:0034343400002400
#0423a0:14240000
#042340:00001424
#044380:0000000000000014
#045380:0034343434343434
#0463a0:00000024
#050340:0014
#050320:0000000000343434
#051320:24
#056340:14
#057320:3434343434343424
