This file was generated by Ched 2.7.0.0.
#TITLE ""
#ARTIST ""
#DESIGNER ""
#DIFFICULTY 0
#PLAYLEVEL
#SONGID ""
#WAVE ""
#WAVEOFFSET 0
#JACKET ""
#REQUEST "ticks_per_beat 480"
#00002: 4
#BPM01: 144
#00008: 01
#TIL00: ""
#HISPEED 00
#MEASUREHS 00
#0001a:14
#00114:14
#00218:14
#00312:14
#0041a:14
#00514:14
#00618:14
#00712:14
#0081a:14
#00810:41
#0091a:14
#01014:14
#01114:14
#01218:14
#01318:14
#01412:14
#01512:14
#02412:0016
#02418:26
#02410:41
#02518:16
#02512:0016
#02812:0016
#02818:26
#02918:16
#02912:0016
#03218:16
#03210:41
#03314:14
#03418:14
#03512:14
#0361a:14
#0371a:14
#03814:14
#03914:14
#04018:14
#04118:14
#04212:14
#04312:14
#05612:0016
#05618:26
#0561f:21
#05610:0000000000000041
#05718:16
#05712:0016
#06012:0016
#06018:26
#06118:16
#06112:0016
#0641a:14
#06514:14
#06618:14
#06712:14
#0681a:14
#06914:14
#07018:14
#07112:14
#0481f:11
#0721a:24
#07212:0024
#01810:41
#04410:41
#0163a0:14
#0173a0:24
#018340:14
#019340:24
#020380:14
#021380:24
#022320:14
#023320:24
#026380:1626
#027320:1626
#030380:1626
#031320:1626
#044390:14
#045390:24
#046330:14
#047330:24
#0483a0:14
#049380:34
#0503a0:34
#051380:24
#052320:14
#053340:34
#054320:34
#055340:24
#058380:1626
#059320:1626
#062380:1626
#063320:1626
