This file was generated by Ched 2.7.0.0.
#TITLE ""
#ARTIST ""
#DESIGNER ""
#DIFFICULTY 0
#PLAYLEVEL
#SONGID ""
#WAVE ""
#WAVEOFFSET 0
#JACKET ""
#REQUEST "ticks_per_beat 480"
#00002: 4
#BPM01: 144
#00008: 01
#TIL00: ""
#HISPEED 00
#MEASUREHS 00
#00012:1300001300001300
#0001b:13
#00018:0013130000000000
#00015:00000013000000000000000000000000
#00017:0013
#0011b:1313000013000000
#00116:00130000000000001300000000000000
#00112:00130000
#00118:0000001300000013
#00115:00000000000000000000000000000013
#00218:0000130000131300
#0021b:1313
#00215:0000001313000013
#00212:00000013
#0031b:13000013
#00318:00130000
#00317:0013
#00315:0000001300000000
#00312:0013
#00314:0000000000130000
#00316:00000013
#00319:0000000000130000
#0041b:1300001300001300
#00412:13
#00415:0013130000000000
#00418:00000013000000000000000000000000
#00416:0013
#00615:0000130000131300
#00612:1313
#00618:0000001313000013
#0061b:00000013
#00712:1324
#00715:00130000
#00718:0000001300000000
#00716:0000000000240000
#0071a:00000024
#0091b:1313
#00919:0013000000000013
#00917:00130013
#00914:0000001300000000
#00912:00130000
#00916:1313
#00817:1313
#00819:0013000000000000
#0081b:00130000
#00814:0000001300000000
#00812:1313
#00816:00130013
#00810:41
#0101b:1313
#01016:13
#01015:0000001300130000
#01018:00000013
#01012:0000000000000013
#01312:1313
#01314:0013000000000013
#01316:00130013
#01319:0000001300000000
#0131b:00130000
#01317:1313
#01216:1313
#01214:0013000000000000
#01212:0000130000000013
#01219:0000001300000000
#0121b:1313
#01217:00130013
#01412:1313
#01417:13
#01418:0000001300130000
#01415:00000013
#0141b:0000000000000013
#01117:13
#01116:0000000013130000
#0111a:00000014
#01112:23000014
#01114:00130000
#01518:0000000000001313
#01515:00000000000000000000000000130000
#01516:13
#0151b:13
#01519:00130000
#01517:0013
#0161b:1313000000000000
#01612:0000131300000000
#01616:2323000000000014
#01617:0000232300000000
#0171b:13130000
#01716:0000002400001400
#01712:23230000
#01715:0023000000000000
#0201b:0000131300000000
#02016:0000001300000000
#02012:1300000000000013
#02014:0000000000240000
#02018:00000024
#02112:0000131300140000
#02118:0000001300001313
#02115:00000000000000000000000000130013
#0211b:13
#0211a:0000000000140000
#02212:00130000
#0221b:0000000000130000
#02218:23000013
#02215:0000002300000013
#0241b:00130000
#02412:1300001300000000
#02416:0000000000130000
#02417:2300001300000013
#02410:41
#0251b:00130000000000000000000000000000
#02512:0000131300000000
#02517:0000001300000000
#02518:00000013
#02515:0000000000000013
#0261b:1313
#02612:1313
#02615:0000130000000013
#02618:0000001300001300
#02712:1300000000242400
#0271b:13
#02718:0000001300000000
#02715:0023
#0271a:0000000000242400
#02816:1300001300000000
#02817:00130000
#0281b:2300001300000013
#02812:0000000000130000
#02917:00130000000013000000000000000000
#02916:00130000
#02912:0000001300000000
#02915:0000000000000013
#02918:00000013
#03015:1300000013000013
#03018:1300001313000000
#0301b:00130000
#03012:00000013
#03118:13000013
#03115:1300000000000013
#0311b:0000002300130000
#03112:0000002300000000
#03212:13130013
#0321b:1300130000130000
#03215:0000000000130000
#03218:00000013
#03210:41
#03418:00000013000000000000000013000000
#03415:00000013000000000000130000000000
#03412:13
#0341b:00130000000000000000000000000000
#0351b:0000132300001300
#03518:0000000000000013
#03515:00000000000000000000000000130000
#03512:23000000000000000000130000000013
#03517:23
#03516:0000002300000000
#03615:1600001300130013
#03612:00131313
#0361b:00000000000000130013001300000000
#03618:00000000001300000000000000130013
#03712:13000013000000000000000000001300
#0371b:00130000001300000000000000001300
#03718:00000013000000000000001300000000
#03715:00000000001300000000000013000000
#03818:13000000000000000000001300000000
#03815:0013000000001300
#04016:00000000133333000000000000000000
#04012:0013
#0401b:00000000133333000000000000000000
#04017:0013
#0401a:14
#04118:0013000000130013
#04119:00130000
#0411a:0000001300000000
#04112:00000013000000000000001300000013
#04113:00000000001300000000000000000000
#04114:00000000000000130000000000000000
#0411b:00001313
#04115:00000000000000000013000000130000
#0421b:13001300000000130000130000001300
#04215:00130000000000000000000000130000
#04212:00000000130000000000001300000013
#04214:0000001300000000
#04216:0013
#04219:00000000001300000000000000000000
#04218:00000013
#04318:13
#04316:0000130000240000
#0431b:00000000001300000000000000000000
#04319:00000000000000130000000000000000
#04314:0000001300000000
#04312:0024
#0431a:00000024
#04419:0013000000000000
#04417:00130000
#04414:0013000000000000
#04412:0000132400000000
#04416:2300002400001300
#04410:41
#04516:0000132400000000
#04517:23000013
#04512:23
#0451a:0000002400000000
#0461b:1300001300000000
#04615:0013000000001300
#04618:0000130000000013
#04612:0000000000130000
#04616:0000001300000000
#04818:12120000
#0481c:0000000000120012
#04816:0000000000120000
#0481f:11
#04912:00120000
#0491c:0000000000120000
#0491a:00000012
#04918:0000000000000012
#05018:0012
#05016:12
#05015:0000001200000000
#05019:0000000000000012
#0511c:12
#05112:12
#05118:0000001200000000
#05116:0012
#05114:0000000000121200
#0511a:0000000000121200
#05216:12120000
#05218:0000000000120000
#05212:0000000000120000
#0531c:00120000
#05312:1200000000120000
#05314:00000012
#05316:0000000000000012
#05418:12
#05416:0000000000000014
#05612:00130000
#05617:0000000000130000
#05616:2300001300000013
#0561b:1300001300000000
#0561f:21
#05610:0000000000000041
#05712:00130000000000000000000000000000
#0571b:0000131300000000
#05716:0000001300000000
#05718:00000013
#05715:0000000000000013
#05812:1313
#0581b:1313
#05818:0000130000000013
#05815:0000001300001300
#0591b:13
#05912:1300000000242400
#05915:0000001300000000
#05918:0023
#0591a:0000000000242400
#06017:1300001300000000
#06016:00130000
#06012:2300001300000013
#0601b:0000000000130000
#06116:00130000000013000000000000000000
#06117:00130000
#0611b:0000001300000000
#06118:0000000000000013
#06115:00000013
#06218:1300000013000013
#06215:1300001313000000
#06212:00130000
#0621b:00000013
#06315:1300000000130000
#06318:13000013
#0631b:0000002300000013
#06312:0000002300000000
#06415:16000013
#0641b:0013130013000000
#06412:00000013000013000000000000000000
#06416:0013
#00512:1313000013000000
#00517:00130000000000001300000000000000
#0051b:00130000
#00515:0000001300000013
#00518:00000000000000000000000000000013
#06517:1313000000130000
#06512:00130000000000000000130000000000
#06515:00000000130000000000000000000013
#06518:0000001300000013
#06516:0013
#0651b:0013
#0661b:0000130000130000
#06615:0000001300000013
#06612:000000003333000000000000130000000000130000000000
#06618:13001313
#06617:0013000000000000
#06718:13
#06717:00130013
#06712:000000003333000000130000000000000000130000000000
#06716:0013
#06714:0000000000130000
#0671b:0013000013000000
#06719:0000000000130000
#0711b:000000003333000000130000000000000000000000000000
#07112:0013000000001313
#07117:00000000000000000000000000130000
#07118:0000000000130000
#07115:13
#07116:00130000
#03912:130000000000003333333333000000000000000000000000
#03918:003333333333000000000000000000000000000000000000
#03916:000000000000000000000000003434343434003434343434
#06815:16
#06812:0013130013000000
#0681b:00000013000013000000000000000000
#06818:00000013
#06817:0013
#06916:1313000000130000
#0691b:00130000000000000000130000000000
#06918:00000000130000000000000000000013
#06915:0000001300000013
#06917:0013
#06912:0013
#07012:0000130000130000
#07018:0000001300000013
#0701b:000000003333000000000000130000000000130000000000
#07015:13001313
#07016:0013000000000000
#01812:1313000000000000
#0181b:0000131300000000
#01816:0000232300000014
#01817:2323000000000000
#01810:41
#01912:13130000
#0191b:23230000
#01916:00000000000024000000003434343434
#01918:0023000000000000
#02312:2424242400000000
#0231a:2424242400000000
#04712:2424242400000000
#0471a:2424242400000000
#05512:24240000
#0551a:0024002400000000
#07218:26
#07212:0026
#0331b:23
#03315:00230000000000000000000000000000
#03318:00002300000000000024000000000000
#03312:00000023000000000024000000000000
#0331a:00000000002400000000000000000000
#03314:00000000002400000000000000000000
#03319:00000000000000240000000000000000
#03313:00000000000000240000000000000000
#00052:00000053
#00057:0053
#0015b:0053
#00156:0053
#00857:0053
#00956:0063
#0105b:63
#01056:63
#01256:0063
#01357:0053
#01452:53
#01457:53
#01157:53
#02052:53
#01756:00000014
#02258:53
#02255:0000005300000000
#02452:53
#02456:0000000000530000
#02457:1300005300000053
#0255b:00230000000000000000000000000000
#02552:0000005300000000
#02557:0000005300000000
#0265b:63
#02652:0053
#02655:00130000
#02658:00000013
#02752:53
#0275b:63
#02856:53
#0285b:1300006300000063
#02852:0000000000530000
#02957:00230000000053000000000000000000
#02952:0000005300000000
#03055:63
#03052:00130000
#03058:0053
#0305b:00000013
#03158:53
#03155:63
#0315b:0000001300000000
#03152:0000001300000000
#03252:13530000
#03255:00000000000000130000000000000000
#0325b:13530000
#03258:00000000000000130000000000000000
#03458:00000063000000000000000000000000
#03455:00000063000000000000000000000000
#0345b:00000000000000130000000000000000
#03452:00000000000000130000000000000000
#03655:16
#03552:53
#0355b:0000005300000000
#04056:14630000
#04052:0023
#0405b:00630000
#04057:0023
#0405a:14
#04358:53
#04452:0000001400000000
#04456:0000005400000000
#04557:53
#0455a:0000001400000000
#04556:0000006400000000
#0465b:0000006300000000
#05058:0052
#05056:52
#0515c:62
#05152:52
#05458:62
#0555a:0014001400000000
#05552:14140000
#05657:0000000000630000
#05656:1300006300000063
#0565b:6300001300000000
#05752:00230000000000000000000000000000
#0575b:0000006300000000
#05756:0000006300000000
#05852:53
#05858:00130000
#0585b:0063
#05855:00000013
#0595b:63
#05952:53
#06057:63
#06052:1300005300000053
#0605b:0000000000630000
#06156:00230000000063000000000000000000
#0615b:0000006300000000
#06258:53
#06255:0063
#0625b:00130000
#06252:00000013
#06355:63
#06358:53
#0635b:0000001300000000
#06352:0000001300000000
#06455:16000063
#0645b:0053
#0045b:00000063
#00456:0063
#00552:0063
#00557:0063
#06556:0053
#06552:0000000000230000
#0655b:0053
#06557:0000000000230000
#07258:46
#07252:0036
#0485c:0000000000000062
#04856:0000000000620000
#05352:52
#05258:0000000000520000
#01556:63
#0035b:00000013
#00356:00000013
#06757:00000013
#06752:00000013
#06855:16
#06852:0063
#06858:00000053
#06957:0063
#0695b:0000000000230000
#06952:0063
#06956:0000000000230000
#03358:00000000000000000014000000000000
#03352:00000000000000000014000000000000
#000370:0013
#0003b0:00000023
#000321:00000013
#001361:23
#0013b1:0013
#001371:00000023
#001360:0013
#001320:00000023
#002320:0013000000000000
#002330:003300000000
#002340:000000000033000000000000000000000000000000000000
#002350:00230000
#003350:0013000000000000
#003340:003300000000
#003330:000000000033000000000000000000000000000000000000
#003320:00230000
#004360:0013
#004320:00000023
#0043b1:00000013
#005371:23
#005321:0013
#005361:00000023
#005370:0013
#0053b0:00000023
#0063b0:0013000000000000
#0063a0:003300000000
#006390:000000000033000000000000000000000000000000000000
#006380:00230000
#007380:0013000000000000
#007390:003300000000
#0073a0:000000000033000000000000000000000000000000000000
#0073b0:00230000
#008370:0013
#0083b0:00000023
#009360:0013
#009320:00000023
#0103b0:13
#010370:00230000
#010361:13
#010321:00230000
#011371:13
#0113b1:0023
#012361:0013
#012321:00000023
#013371:0013
#0133b1:00000023
#014321:13
#014361:00230000
#014370:13
#0143b0:00230000
#015360:13
#015320:0023
#0193a0:0000000000140000
#019360:00000000000000000000003434343434
#020360:24
#020321:13
#020361:00230000
#021351:1323000000000000
#021380:0013230000000000
#022380:13
#0223b0:00230000
#022350:0000001300000000
#022320:0000000000230000
#024320:13
#024360:00230000
#024370:0000001300000000
#0243b0:0000000000230000
#024361:0000000000130000
#024321:0000000000000023
#024370:0000000000000013
#0253b0:00530000000000000000000000000000
#025370:00230000
#025320:0000001300000000
#025360:0000000000230000
#025371:0000001300000000
#0253b1:0000000000230000
#0263b1:13
#026381:00230000
#026321:0013
#026351:00000023
#027321:13
#027351:00230000
#0273b0:13
#027380:00230000
#028360:13
#028320:00230000
#0283b0:0000001300000000
#028370:0000000000230000
#028321:0000000000130000
#028361:0000000000000023
#0283b0:0000000000000013
#029370:00530000000000000000000000000000
#0293b0:00230000
#029320:0000001300000000
#029360:0000000000230000
#029371:0000001300000000
#0293b1:0000000000230000
#030351:13
#030321:00230000
#030381:0013
#0303b1:00000023
#031381:13
#0313b1:0000002300000000
#031350:13
#031320:0000002300000000
#032320:00130000
#032350:00000000000000230000000000000000
#0323b1:00130000
#032381:00000000000000230000000000000000
#034381:00000013000000000000000000000000
#0343b1:00000000000000230000000000000000
#034350:00000013000000000000000000000000
#034320:00000000000000230000000000000000
#035320:13
#035360:00230000
#0353b0:0000001300000000
#035370:0000000000230000
#037380:00000000000000130023000000000000
#037351:00000000000000000013002300000000
#038381:00000013000000000000000000000000
#0383b1:00000000002300000000000000000000
#038320:00000000001300000000000000000000
#038350:00000000000000230000000000000000
#038381:00000000000000130000000000000000
#0383b1:00000000000000000023000000000000
#038320:00000000000000000013000000000000
#038350:00000000000000000000002300000000
#0393b0:13
#039380:003333333333230000000000000000000000000000000000
#039351:00130000
#039321:000000000000003333333333230000000000000000000000
#0393a0:0014
#039360:000000000000000000000000003434343434240000000000
#039321:00000014
#039361:000000000000000000000000000000000000003434343434
#040361:24
#040361:00000000133333000000000023000000
#040321:0053
#0403b0:00000000133333000000000023000000
#040370:0053
#043380:13
#0433b0:00230000
#0433a0:00000014
#0443a0:24
#044360:0000001400000000
#0443a0:00000024
#045370:13
#0453b0:00230000
#045360:0000001400000000
#045320:00000024
#0463b0:0000001300000000
#046370:0000000000230000
#048320:12220000
#048360:0000001200320000
#048320:0000000000000022
#0483c1:0000000000000012
#049381:00220000
#049361:0000001200220000
#050361:12
#050321:00220000
#050381:0012
#0503c1:00000022
#0513c1:12
#051381:00220000
#051320:12
#051360:00220000
#0523c0:12220000
#052380:0000001200320000
#0533c0:22
#053321:12
#053361:00220000
#053381:0000001200220000
#054381:12
#0543c1:0022
#0563b1:13
#056371:00230000
#056361:0000001300000000
#056321:0000000000230000
#056370:0000000000130000
#0563b0:0000000000000023
#056361:0000000000000013
#057321:00530000000000000000000000000000
#057361:00230000
#0573b1:0000001300000000
#057371:0000000000230000
#057360:0000001300000000
#057320:0000000000230000
#058320:13
#058350:00230000
#0583b0:0013
#058380:00000023
#0593b0:13
#059380:00230000
#059321:13
#059351:00230000
#060371:13
#0603b1:00230000
#060321:0000001300000000
#060361:0000000000230000
#0603b0:0000000000130000
#060370:0000000000000023
#060321:0000000000000013
#061361:00530000000000000000000000000000
#061321:00230000
#0613b1:0000001300000000
#061371:0000000000230000
#061360:0000001300000000
#061320:0000000000230000
#062380:13
#0623b0:00230000
#062350:0013
#062320:00000023
#063350:13
#063320:0000002300000000
#063381:13
#0633b1:0000002300000000
#0643b1:0013
#064381:00000023
#064350:00000013
#065320:23
#065360:00001323
#065320:0000000000530000
#0653b1:00001323
#065371:0000000000530000
#066321:000000133333000000000000000000000000000000000000
#066361:00230000
#067361:0013000000000000
#067321:000000003333230000000000000000000000000000000000
#068321:0013
#068351:00000023
#068380:00000013
#0693b0:23
#069370:00001323
#0693b0:0000000000530000
#069321:00001323
#069361:0000000000530000
#0703b1:000000133333000000000000000000000000000000000000
#070371:00230000
#071371:0013000000000000
#0713b1:000000003333230000000000000000000000000000000000
#071351:0000000013230000
