This file was generated by Ched 2.7.0.0.
#TITLE ""
#ARTIST ""
#DESIGNER ""
#DIFFICULTY 0
#PLAYLEVEL
#SONGID ""
#WAVE ""
#WAVEOFFSET 0
#JACKET ""
#REQUEST "ticks_per_beat 480"
#00002: 4
#BPM01: 144
#00008: 01
#TIL00: ""
#HISPEED 00
#MEASUREHS 00
#00015:0000001300000000
#0001b:1313
#00018:00003333000000000000000013000000
#00112:00130000
#00118:0000001300000013
#00115:00000000000000001300000000000013
#00218:1300000000130013
#0021b:0000001300000000
#00215:0013
#00212:00000013
#00315:1300001300000000
#0031a:0014
#00314:0000000000140000
#00318:00000014
#00718:1300001300240000
#00712:0024
#00714:00000024
#0081b:1313
#00815:0013000000000000
#00812:0000001300000000
#00818:00130000
#00810:41
#00918:0013000000000013
#00912:1313
#0091b:0000001300000000
#00915:00130000
#01015:1313
#0101b:0000001300000013
#01018:0000000000130000
#01012:00000013
#01112:13
#0111b:00000013
#01115:00000013
#01515:0000000000001313
#01518:00000000000000000000000000130000
#0151b:13
#01618:0023000000000013
#0161b:23
#01615:00230000
#01612:0000002300000000
#0171b:0023000000001300
#01715:23
#01712:00230000
#01718:0000002300000000
#02015:0000001300000000
#02018:1300000000240000
#0201b:0000000000000013
#02014:00000024
#0211b:0000001300000000
#02112:13
#02118:0013000000000000
#02115:0000130000000013
#02218:00000013
#02215:0000002300000013
#0221b:23
#02418:0000130000000013
#02415:0000001300000000
#02412:23
#02410:41
#02515:0000001300000013
#02518:00000013
#0261b:13
#02618:0013
#02615:0000001300000013
#0271b:13
#02715:0000001300000000
#02718:00002324
#02714:0000000000240000
#02818:00130000
#02815:0000001300000000
#0281b:0000000000000013
#02812:23
#02915:0000001300000013
#02918:00000013
#0301b:13
#03018:0013
#03015:0000001300000013
#0311b:13
#03112:0000000000130000
#03118:0000002300001300
#03115:0000000000000013
#03215:00130013
#03218:0000000000130000
#0321b:13
#03210:41
#03415:13000013000000000000000013000000
#03418:00130000000000000000130000000000
#03712:0000000000000013
#0371b:00000013000000000000000000000000
#03715:00000000001300000000000000000000
#0381b:13
#03815:0013000000000000
#0401b:00000000133333000000000000000000
#04017:0013
#04415:0013000000000000
#04418:00130000
#04412:0000002400000000
#04410:41
#0461b:13
#04615:0013000000000013
#04618:00130013
#04612:0000001300000000
#0491a:00000012
#04916:0000000000000012
#05016:0000001200000000
#05014:0000000000000012
#0511c:12
#05116:0000001200000000
#05118:0012
#05114:0000000000120000
#0511a:00000012
#05314:00000012
#05318:0000000000000012
#05316:12
#05416:1200000000000014
#07112:0000001300000000
#07118:0000000013001313
#07115:13000000000000000000130000130000
#04818:0000000000000012
#0481f:11
#00418:0000001300000000
#00412:1313
#00415:00003333000000000000000013000000
#0051b:00130000
#00515:0000001300000013
#00518:00000000000000001300000000000013
#00615:1300000000130013
#00612:0000001300000000
#00618:0013
#0061b:00000013
#01212:1313
#01218:0013000000000000
#0121b:0000001300000000
#01215:00130000
#01315:0013000000000013
#0131b:1313
#01312:0000001300000000
#01318:00130000
#01418:1313
#01412:0000001300000013
#01415:0000000000130000
#0141b:00000013
#03518:23000013
#03515:0000002300000000
#0351b:00000000000000000000000000333333
#03912:133333333333003333333333133333333333003333333333
#03916:00130013
#04112:00001333330033330000000000000000
#04115:00000000001300000000000000000000
#04118:00000000000000000000000013333300
#0411b:00000000000000000000000000000013
#04215:00000000133333330000000000000000
#0421b:00000000000000000000133333003333
#04218:33330000000000000000000000130000
#0431b:00000000133333330000000000000000
#04314:0000000000240000
#04318:00000024
#05615:0000130000000013
#05618:0000001300000000
#0561b:23
#0561f:21
#05610:0000000000000041
#05718:0000001300000013
#05715:00000013
#05812:13
#05815:0013
#05818:0000001300000013
#05912:13
#05918:0000001300240000
#05915:0023
#05914:00000024
#06015:00130000
#06018:0000001300000000
#06012:0000000000000013
#0601b:23
#06118:0000001300000013
#06115:00000013
#06212:13
#06215:0013
#06218:0000001300000013
#06312:13
#0631b:0000000000130000
#06315:0000002300001300
#06318:0000000000000013
#06418:0000001300000000
#06412:1313
#06415:00003333000000000000000013000000
#0651b:00130000
#06515:0000001300000013
#06518:00000000000000001300000000000013
#06615:1300000000130013
#06612:0000001300000000
#06618:0013
#0661b:00000013
#06718:1300001300140000
#06712:0014
#06714:00000014
#06815:0000001300000000
#0681b:1313
#06818:00003333000000000000000013000000
#06912:00130000
#06918:0000001300000013
#06915:00000000000000001300000000000013
#07018:1300000000130013
#0701b:0000001300000000
#07015:0013
#07012:00000013
#01815:0023000000000013
#01812:23
#01818:00230000
#0181b:0000002300000000
#01810:41
#0451b:23
#04512:0000002400000000
#0471a:24240000
#04712:0024002400000000
#0551a:24240000
#05512:0024002400000000
#07212:26
#07218:0026
#02318:23
#0231b:0033330000000000
#01918:23000000000000000000003333333333
#01912:0023000000000000
#0191b:00230000
#01915:0000002300000000
#0331b:23
#03312:00000000002400000000000000000000
#03316:00000000000000240000000000000000
#0331a:00000000000000000024000000000000
#00155:0053
#0085b:0053
#01055:63
#01152:53
#02058:53
#0175b:00000013
#02455:0000006300000000
#02458:0000000000000053
#02452:13
#02555:0000005300000000
#0265b:63
#02658:0053
#0275b:63
#02855:0000006300000000
#0285b:0000000000000063
#02852:13
#02955:0000005300000000
#0305b:63
#03058:0053
#0315b:53
#03158:0000001300000000
#03255:00530000
#03252:00000000000000130000000000000000
#0325b:13
#03455:00000063000000000000000000000000
#03452:00000000000000130000000000000000
#0405b:00630000
#04057:0023
#04052:13
#04452:0000005400000000
#0455b:53
#04552:0000005400000000
#04652:0000006300000000
#0515c:62
#05456:52
#05552:0000001400000000
#04858:0000000000000062
#00358:00000014
#0005b:5353
#00058:00000053
#00558:0063
#00452:6363
#00455:00000063
#00952:0063
#01252:0063
#01458:53
#0155b:63
#0135b:0053
#0215b:0000005300000000
#03558:53000053
#03555:0000006300000000
#0365b:13
#03952:5353
#03956:00530053
#04152:0053000000000000
#04155:00000000002300000000000000000000
#04158:00000053
#0415b:00000000000000000000000000000023
#04255:00530000
#0425b:0000000000630000
#04258:00000000000000000000000000230000
#0435b:00530000
#05356:52
#05658:0000005300000000
#05655:0000000000000063
#0565b:13
#05758:0000006300000000
#05852:53
#05855:0063
#05952:53
#06058:0000005300000000
#06052:0000000000000053
#0605b:13
#06158:0000006300000000
#06252:53
#06255:0063
#06352:63
#06355:0000001300000000
#06558:0063
#06754:00000014
#06452:6363
#06455:00000063
#06955:0053
#0685b:5353
#06858:00000053
#07258:0016
#07252:16
#0335a:00000000000000000014000000000000
#0003b0:13
#000380:00003333230000000000000000000000
#0003b0:0013
#000380:00000033
#0013b0:33332300000000000000000000000000
#001350:0013
#001320:00000023
#002320:0013000000000000
#002330:003300000000
#002340:000000000033000000000000000000000000000000000000
#002350:00230000
#003380:0013000000000000
#003390:003300000000
#0033a0:000000000033000000000000000000000000000000000000
#0033b0:00230000
#004320:13
#004350:00003333230000000000000000000000
#004320:0013
#004350:00000033
#005320:33332300000000000000000000000000
#005380:0013
#0053b0:00000023
#0063b0:0013000000000000
#0063a0:003300000000
#006390:000000000033000000000000000000000000000000000000
#006380:00230000
#007350:0013000000000000
#007340:003300000000
#007330:000000000033000000000000000000000000000000000000
#007320:00230000
#0083b0:0013
#008380:00000023
#009320:0013
#009350:00000023
#010350:13
#010320:00230000
#011320:13
#011350:0023
#012320:0013
#012350:00000023
#0133b0:0013
#013380:00000023
#014380:13
#0143b0:00230000
#0153b0:13
#015380:0023
#0193b0:0000000000130000
#019380:00000000000000000000003333333333
#020380:33
#0203b0:00230000
#0213b0:0000001300000000
#021380:0000000000230000
#0223b0:13
#022380:0000002300000000
#022351:0000001300000000
#022321:0000000000230000
#023381:13
#0233b1:0033332300000000
#024351:0000001300000000
#024321:0000000000230000
#024381:0000000000000013
#0253b1:00230000
#025351:0000001300000000
#025321:0000000000230000
#0263b1:13
#026381:00230000
#026381:0013
#0263b1:00000023
#0273b1:13
#027381:00230000
#028351:0000001300000000
#028321:0000000000230000
#0283b1:0000000000000013
#029381:00230000
#029351:0000001300000000
#029321:0000000000230000
#0303b1:13
#030381:00230000
#030381:0013
#0303b1:00000023
#0313b1:13
#031381:0000002300000000
#032351:00130000
#032321:00000000000000230000000000000000
#0333b1:13
#0333a1:00330000000000000000000000000000
#033391:0033000000000000
#033381:00000023000000000000000000000000
#034351:00000013000000000000000000000000
#034321:00000000000000230000000000000000
#035381:13
#0353b1:00230000
#035351:0000001300000000
#035321:0000000000230000
#035381:00000013
#0353b1:00000000000000000000000000333333
#0363b1:23
#036321:00130033
#036331:00000000003300000000003300330000
#036341:0000003300330033
#036351:00000000000000330033000000000033
#036361:0033
#037361:33230000000000000000000000000000
#037381:00000000000000130000003323000000
#0373b1:00000000000000000033000000000000
#038381:00000013000000330000000000000000
#0383b1:00000000003300000033003323000000
#039321:133333333333003333333333333333333333003333333333
#039361:00330033
#040321:23
#0403b1:00000000133333000000000023000000
#040371:0053
#041321:00001333330033333333230000000000
#041351:00000000003300000000000000000000
#041381:00000000000000000000000013333300
#0413b1:00000000000000000000000000000033
#042381:33332300000000000000000000000000
#042351:00000000133333330000000000000000
#042321:0023
#0423b1:00000000000000000000133333003333
#042381:00000000000000000000000000330000
#0433b1:33000000333333330000000000000000
#043381:0023
#043381:00000014
#044381:24
#044321:0000001400000000
#044361:00000024
#0453b1:13
#045381:00230000
#045321:0000001400000000
#045361:00000024
#046321:0000001300000000
#046351:0000000000230000
#048381:12220000
#048361:0000001200220000
#048381:0000000000000012
#0493b1:00220000
#049341:0000001200220000
#050381:12220000
#0503a1:00001222
#0513c1:12
#051381:00220000
#052361:12220000
#052381:0000001200220000
#053361:12
#053331:00220000
#0533a1:0000001200220000
#054361:12
#054321:0022
#056381:0000001300000000
#0563b1:0000000000230000
#056351:0000000000000013
#057321:00230000
#057381:0000001300000000
#0573b1:0000000000230000
#058321:13
#058351:00230000
#058351:0013
#058321:00000023
#059321:13
#059351:00230000
#060381:0000001300000000
#0603b1:0000000000230000
#060321:0000000000000013
#061351:00230000
#061381:0000001300000000
#0613b1:0000000000230000
#062321:13
#062351:00230000
#062351:0013
#062321:00000023
#063321:13
#063351:0000002300000000
#064321:13
#064351:00003333230000000000000000000000
#064321:0013
#064351:00000033
#065321:33332300000000000000000000000000
#065381:0013
#0653b1:00000023
#0663b1:0013000000000000
#0663a1:003300000000
#066391:000000000033000000000000000000000000000000000000
#066381:00230000
#067351:0013000000000000
#067341:003300000000
#067331:000000000033000000000000000000000000000000000000
#067321:00230000
#0683b1:13
#068381:00003333230000000000000000000000
#0683b1:0013
#068381:00000033
#0693b1:33332300000000000000000000000000
#069351:0013
#069321:00000023
#070321:0013000000000000
#070331:003300000000
#070341:000000000033000000000000000000000000000000000000
#070351:00230000
#071381:0013000000000000
#071391:003300000000
#0713a1:000000000033000000000000000000000000000000000000
#0713b1:00230000
