This file was generated by Ched 2.7.0.0.
#TITLE ""
#ARTIST ""
#DESIGNER ""
#DIFFICULTY 0
#PLAYLEVEL
#SONGID ""
#WAVE ""
#WAVEOFFSET 0
#JACKET ""
#REQUEST "ticks_per_beat 480"
#00002: 4
#BPM01: 144
#00008: 01
#TIL00: ""
#HISPEED 00
#MEASUREHS 00
#00017:0000000013000013
#00016:0000000000131300
#00012:1300001313000000
#00015:0013000000000000
#00018:00000013000000000000000000000000
#0001b:13
#0011b:1313001300130013
#00116:00130000000013000000130000000000
#00112:00131313
#00117:00131300
#00115:00000000000000000000000000000013
#0021b:1300000000130000
#00212:0013000000001300
#00218:001300000000
#00215:000000000013000000130000000000000000000000000000
#00217:0013
#00216:0000000000000013
#00312:13131313
#0031b:1313000013001300
#00315:000000001300000000000000000000130000000000000000
#00318:000000000013000000000000000000130000000000000000
#00316:0000001400000000
#00317:0000000000000013
#00416:0000000013000013
#00417:0000000000131300
#0041b:0000001313000000
#00418:0013000000000000
#00415:00000013000000000000000000000000
#00412:13
#00512:1313001300130013
#00517:00130000000013000000130000000000
#0051b:00131313
#00516:00131300
#00518:00000000000000000000000000000013
#00612:1300000000130000
#0061b:0013000000001300
#00615:001300000000
#00618:000000000013000000130000000000000000000000000000
#00616:0013
#00617:0000000000000013
#0071b:13130000
#00712:1313000016161600
#00718:000000001300000000000000260000260000260000000000
#00715:000000000013000000000000000000000000000000000000
#00716:0000001400000000
#0081b:1300001313000013
#00816:13000000000000131300000000001300
#00812:0000130000131300
#00817:00130000
#00814:0013000000000000
#00810:41
#00912:13001313
#00914:0013001300000013
#00916:0000130000140000
#00917:13000000000000130000000013000000
#0091b:00130000
#00919:0000000000000013
#0101b:1313
#01016:13
#01017:00130000
#01018:0000001600001300
#01015:0000000013160000
#01012:0000000000001316
#01118:0013
#01112:2300000000130000
#0111b:230013
#01115:000000000000000000000000000000000013000000130000
#0131b:13001313
#01319:0013001300000013
#01317:00130000
#01316:13000000000000130000140013000000
#01312:00130000
#01314:0000000000000013
#01412:13001613
#01417:13
#01416:0000131400140014
#0141b:0013
#01418:00000016
#01515:0013
#0151b:0000000000130000
#01512:160013
#01518:160000000000000000000000000000000013000000130000
#0171b:13130000
#01718:0013001300000000
#01712:0026002600001c00
#01714:00000000000000000000001800000000
#01716:0000000000140000
#01715:26260000
#01616:0000000000000014
#01612:130000000000130000000000000000130013000000000000
#0161b:0013001300000000
#01617:000000000000000013130000
#01615:2626262600000000
#01816:000000000000000000000000000000001300130000140000
#0181b:130000000000130000000000000000130013000000000000
#01812:0013001300000000
#01815:2626262600000000
#01810:41
#01916:0000000000130000
#0191b:00000000000000000000001300000000
#01914:00000013
#01912:1300130000000013
#01919:00000000000000000000000000130000
#01917:00000000000000000000000000000013
#01915:2613261300000000
#01918:0026002600000000
#0201a:14
#02012:1300001300000013
#02016:0000001400000000
#02014:00000000000000000000001400000000
#0201b:0000130000000013
#02018:0000000000242400
#02116:0000001400000000
#02112:0000130000130000
#0211b:0013000000130000
#02117:13
#02118:0000000000001313
#02115:00000000000000000000000000130013
#02217:0013000000000000
#0221b:23000000000013000000000000130000
#02212:1300162300001300
#02218:00000000000000000000160000000013
#02215:0000000000000013
#02216:0013
#02318:1626162600000000
#02316:0000000000140000
#0231b:0000000000001313
#02312:26001600260016000000000000130000
#02412:1300001300000000
#0241b:0013130000000013
#02416:2413000013130000
#02417:0000001300001300
#02410:41
#02516:00141300
#02517:1300001300130013
#02512:1300001300001313
#0251b:00000013
#03016:13001414180000000000141400000000
#0301b:1300001300000000
#03012:0000001313001813
#03017:0000000013000013
#02612:0013180013000013
#0261b:1300001300130013
#02616:13000014000013000000001418000000
#02617:0013
#02715:13130000
#02718:1300130022142600
#0271b:0000001300000000
#02712:0000001300001600
#02716:0012
#02714:0000000000240000
#02817:13
#02816:0013001300000000
#02812:2400130013130000
#0281b:0013001300001313
#02912:1300131300001300
#02916:0013000013000014
#02917:1300001300130000
#0291b:00131313
#03112:1300002600130014
#0311b:1300000000130000
#0311a:00000014
#03116:00000000000000000000000000140000
#03118:0000002600000000
#04812:1200000000000012
#04816:00120000
#0481f:11
#0491c:00120012
#04918:0000001200000000
#04912:0000001200000000
#04916:00120000000000000000000012000000
#0491a:0000000000000012
#04914:0000000000000012
#05018:1200000000120000
#05016:0012000012000000
#05014:0000001200000012
#0501a:0000001200000012
#05012:12
#0501c:0012
#05118:12
#0511c:0012000012001200
#05112:12001212
#05116:0012000000000000
#05117:0000001200000000
#05115:0000000000120000
#05119:0000000000120000
#0521c:1200000000000012
#05218:00120000
#05312:00120012
#0531c:1200001200000000
#05316:1200001200000000
#05318:0012000000001200
#05314:0000000000000012
#0531a:0000000000000012
#0541c:1200001200000000
#05418:0012000000000016
#0541a:00120000
#05416:1200001200000000
#05412:0012000000000000
#05414:00120000
#05516:0000000000140000
#05512:2626002600001313
#0551b:00000000000000000000000000130000
#05518:26260000
#0561b:1300001300000000
#05612:0013130000000013
#05617:0013000013130000
#05616:2400001300001300
#0561f:21
#05610:0000000000000041
#05716:1300141300130013
#05717:0013
#0571b:1300001300001313
#05712:00000013
#0581b:0013001313000013
#05816:00000014000000001300001418000000
#05812:1300181300130013
#05817:13
#05918:1300130012241600
#05915:13130000
#05912:0000001300002600
#0591b:0000001300000000
#05914:0000000000140000
#05916:0022
#06016:13
#06017:0013001300000000
#0601b:0000130013130000
#06012:0013001300001313
#0601a:24
#06212:1314001300001800
#06216:00000014180000001300001400000000
#06217:1300001300000000
#0621a:0000000000140000
#0621b:0013
#06214:0000000000000013
#06219:0000000000000013
#0611b:1300131300001300
#06117:0013000013000000
#06116:1300001300130014
#06112:00131313
#0631b:13000013
#06312:13000000000026000000001600000013
#06318:00000000000026000000160000130000
#06315:0000000000000013
#06412:1c001313
#06417:0013
#06416:0000000000130013
#0641b:0000001300130013
#06415:0013000000000000
#06418:00000013000000000000000000000000
#06517:1300000000130000
#06512:00130000000013000000140000001400
#0651b:0013130013000000
#06516:00000000140014001400000000000014
#0661a:14
#06616:0013001400000013
#0661b:000000001300000000000000000000130000000000000000
#06617:00131300
#06612:000000000013000000000000000000000000000000000000
#06712:13000000130016000014000016000000
#0671b:0013000000000000
#06715:001300000000
#06718:000000000013000000160000000000000000160000000000
#06716:00000000000000001400001400000000
#0671a:0000000000140000
#06812:1c00001300130013
#06816:0013
#06817:0000000000130013
#0681b:00001313
#06818:0013000000000000
#06815:00000013000000000000000000000000
#06916:13000000140014001400130000000014
#0691b:00130000000013000000000000000000
#06912:0013130013000000
#0691a:0000000000140014
#07012:140000001300000000000000000000130000000000000000
#07017:0013000000000013
#07016:0000131413000000
#0701b:000000000013000000000000000000000000000000000000
#0711b:13000000130000001300000000000013
#07112:0013001600001300
#07118:000000000000000013000000000000000000160000000000000000000000000000000000000000130000000000000000
#07115:000000000013000000000000000000000000000000130000
#04712:1626162600000000
#04718:2616261600000000
#03212:1c00000000000000000000130000000000000000000013000000130000000000
#03216:00000000130000000014000014000014
#03217:0000000000000000000000130000000000000000000000000000000000000000
#0321b:0000130000130013
#03210:41
#0341b:00000000001300000000120000000000
#03417:00000013000000000000000000000000
#03416:0000000000000000000013000000000000000012000000000000000000000000
#03412:16000013000000000000000000000013
#03418:00160000000000000000000000001300
#0341c:00000000000000000012000000000000
#03415:0000000000000000000000000000000000000000001200000000130000000000
#03419:00000012
#0341a:00000000000000000000001200000000
#03414:0000000000000000000000000000000000000000000000120000000000000000
#03512:000000000000140000000000000000000000280000000000000000000000140000001400000000000000000000130000
#03516:280000000000000000140000000000000000000000000000000000000000000014000000000000000000000000000000
#0351a:0000142400000000
#0351b:00000013
#03515:00000000000000000000000000130000
#03518:0000000000000013
#03615:1900000000000012
#03612:00120012000000000000000000000012
#0361c:0012001200120000
#03619:00120000
#03614:00000000001200120000000000000000
#03618:00000000000000000000000000120000
#0361b:00000012
#0361a:0012
#03616:00000000000000000012001200000000
#03718:12000000000000120000000012000000
#03712:00120000000000120000001200000000
#0371c:00000012000000000000000000000000
#03716:00000012000000000000000000001200
#0371a:00000000001200000000000000000000
#03714:00000000001200000000000000000000
#0381c:00000012
#03817:0000000000000012
#03815:12
#03819:12
#03812:00000000000000000000001200000000
#0391b:000000000000003333003333000000000000130000000000
#03916:000000000000000000000000003333003333001300000000
#03919:000000000013
#03917:000000000000000000000013
#03912:003333003333000000000000000000000000000000000013
#03914:0000000000000013
#04012:1c00001300001400
#0401b:00000000001300000000130000000000
#04017:00000013
#04016:00140000
#04112:0012001200131300
#04116:00000000120000001400001400000000
#0411b:00000000000000000013000000000013
#04118:00000012000000120000000000130000
#0411c:00000000001200000000000000000000
#04115:0000000000000013
#04212:14140000140000000000000013000000
#0421a:0014000000000000000000000000000000000000000000000000000000000000
#04214:0000001400000000
#04216:0014
#04219:00000000001300000000120000000000
#0421b:00000000000000130000000000000013
#04217:000000000000000000000000000000000012000000000000
#04215:000000000000000000000000000000001200000000130000
#04218:00000000000000000000000000130000
#04312:00131400
#04315:00000000001300000000000000000000
#0431b:00000000000000130000000000001300
#04318:00000000000013000000240000000013
#04314:00000000000000000000001300000000
#04316:00000000000000002400000000130000
#0431a:00000024
#04418:16000000130026000000000000000013
#0441b:0013000000000000
#04415:00000013000000000000000000001300
#04412:2600002600001c00
#04410:41
#04512:1613002600001c00
#04515:00130000
#04518:2613002600000000
#0451b:00130000
#0461b:0013000000000013
#04616:0000140000130000
#04617:1300001300000000
#04612:13000000000013000000000000130000
#04618:00000013
#04615:00000000000000000000000000000013
#01217:13000000000000131300000000001300
#01212:1300001313000013
#0121b:0000130000131300
#01216:00130000
#01219:0013000000000000
#07218:00000000000000130000000000000000
#07215:0000000000000000000000000000001300000000000000000000000000000000
#07212:2c2c
#03318:26000000000000000026000000000000
#03316:00002600002400240000000000000000
#03314:00260000000000000000000000000000
#03312:00000026000000230026000000000000
#0331b:00000000002300000000000000000000
#0331a:00000024
#00057:0053
#00056:00000063
#00157:0053
#0015b:0000000000230000
#00456:0063
#00457:00000053
#00552:0000000000230000
#00556:0063
#00357:0000000000000023
#0035b:00000053
#00352:00000013
#0085b:1353
#01056:53
#0105b:13
#01457:63
#01452:13
#01558:16
#01552:16
#01752:0000001c
#0205a:14
#02056:0000001400000000
#02052:53
#02156:0000001400000000
#02257:0023000000000000
#02252:1300005300000000
#0225b:5300001300000000
#02256:0023
#02358:16160000
#02352:0016001600000000
#02452:53
#02456:1423000000630000
#02457:0000005300000000
#0245b:0000000000000063
#02557:2300005300000000
#02552:2300005300000000
#02556:0023
#03056:63180000
#03057:0053
#03052:00000018
#02755:53
#02758:63
#02857:53
#0285b:0023005300000053
#02852:1400000000630000
#02957:23
#02956:0023
#02952:0000005300000000
#03152:5300001600000000
#0315b:63
#03158:0000001600000000
#04852:0000000000000052
#04958:0000005200000000
#04952:0000005200000000
#04956:00220000000000000000000000000000
#05058:5200000000220000
#05056:0022000062000000
#05052:52
#0505c:0062
#05158:52
#0515c:0022000000000000
#05152:52
#05156:0022000000000000
#0535c:6200006200000000
#05356:0000006200000000
#05358:0022000000000000
#0545c:6200002200000000
#05458:0022000000000000
#0545a:00620000
#05456:6200002200000000
#05452:0022000000000000
#05454:00620000
#0565b:6300001300000000
#05657:0023000000530000
#05656:1400006300000000
#05652:0000000000000053
#05757:0023
#05756:2300006300000000
#0575b:2300006300000000
#05852:53180000
#0585b:0063
#05856:00000018
#05958:63
#05955:53
#06056:63
#06052:0023006300000063
#0605b:0000000000530000
#0605a:14
#06257:53
#06256:00186300
#06252:00000018
#06156:23
#06157:0023
#0615b:0000006300000000
#0635b:63
#06352:5300001600000000
#06358:0000001600000000
#05558:0016001600000000
#05552:16160000
#06452:1c000063
#06457:0053
#0645b:0000000000230000
#06456:0000000000000023
#06556:00005444
#06552:0000000000240000
#06557:0000000000230000
#0655b:00000043
#06657:00530000
#06852:1c00000000230000
#06856:0063
#0685b:00000053
#06857:0000000000000023
#06956:0000000064233400
#0695a:0000000000240000
#06952:00000033
#07056:00630000
#07252:3c4c
#04752:16160000
#04758:0016001600000000
#03256:00000000530000430000000000000000
#03252:1c00000000000000000000230000000000000000000000000000000000000000
#03257:0000000000000000000000230000000000000000000000000000000000000000
#0325b:00000000530000430000000000000000
#03352:00000000000000000016000000000000
#03358:00000000000000000016000000000000
#0335a:00000044
#0345b:00000000002300000000000000000000
#03457:00000063000000330000000000000000
#03456:00000000002300000000000000000000
#03452:00000063000000330000000000000000
#03556:48
#03552:0000003800000000
#0355a:0000006400000000
#03655:19
#03752:00000000000000620000000000000000
#03758:00000062
#0385c:00000052
#03857:0000000000000022
#04052:1c00005300001400
#04352:0014
#04452:1600005600000000
#04458:0000001600000000
#04558:1600005600000000
#04552:0000001600000000
#04657:0000006300000000
#01252:1363
#02652:00185300
#0265b:63
#02656:00000018
#06752:00000036
#06758:00000046
#0003b0:0000132300000000
#000370:0013
#0003b0:00000023
#000361:00000013
#001321:23
#001371:00001323
#0013b1:0000000000530000
#0023b1:0000132300000000
#002321:0013
#002361:0000000000230000
#0023b1:0000000000001323
#0033b1:00000013
#003371:0000000000000053
#0043b1:23
#004321:0000132300000000
#004361:0013
#004321:00000023
#004370:00000013
#0053b0:23
#005360:00001323
#005320:0000000000530000
#006320:0000132300000000
#0063b0:0013
#006370:0000000000230000
#006320:0000000000001323
#0083b0:0013
#008370:00000023
#0093a0:0000000014240000
#010360:13
#010320:00230000
#011320:0013000000000000
#011350:00230000
#011381:00130000
#0113b1:0000002300000000
#011320:0000001300000000
#011350:0023
#011380:0000000000001323
#012320:0013
#012360:00000023
#013320:0000000014240000
#014370:13
#0143b0:00230000
#0153b0:0013000000000000
#015380:00230000
#015351:00130000
#015321:0000002300000000
#0153b0:0000001300000000
#015380:0023
#015350:0000000000001323
#020320:13
#020370:00230000
#021320:13
#021360:0023000000000000
#021370:00130000
#0213b0:0000002300000000
#0223b0:13230000
#022370:0053000000000000
#022320:0000001300230000
#022360:0053
#024320:13230000
#024360:0053000000000000
#024370:0000001300000000
#0243b0:00000000000000530000230000000000
#024361:0000000000130000
#024321:00000000000000000000005300002300
#0243b0:0000000000000013
#025370:53
#0253b0:0023000000000000
#025321:13
#025361:0023000000000000
#025321:0000001300230000
#025361:0053
#025370:0000001300000000
#0253b0:0023
#0263b1:13
#026371:0023000000000000
#026321:0013
#026361:0000000000230000
#027351:13
#027321:0023000000000000
#027380:13
#0273b0:0023000000000000
#028370:13230000
#0283b0:0053000000000000
#0283b0:0000001300000000
#028370:00000000000000530000230000000000
#028321:0000000000130000
#028361:00000000000000000000005300002300
#0283b0:0000000000000013
#029370:53
#0293b0:0023000000000000
#029320:0000001300230000
#029360:0053
#030360:13
#030320:0023000000000000
#030370:0013
#0303b0:0000000000230000
#031320:13
#031380:00230000
#0313b1:13
#031351:00230000
#032361:00000000130000230000000000000000
#032321:0000000000000000000000530000000000000000000000000000000000000000
#0323b0:00000000130000230000000000000000
#032370:0000000000000000000000530000000000000000000000000000000000000000
#034370:00000013000000230000000000000000
#0343b0:00000000005300000000000000000000
#034321:00000013000000230000000000000000
#034361:00000000005300000000000000000000
#0353a1:0000001400000000
#035361:0000000000240000
#037321:00000000000000120000000000000000
#037361:00000000000000000022000000000000
#0373c0:00000000000000000012002200000000
#037380:00000012
#0373c0:0000000000000022
#038380:00001222000000000000000000000000
#038361:00000012000000000000000000000000
#038321:00000000002200000000000000000000
#038380:00000000001200000000000000000000
#0383c0:00000000000000220000000000000000
#038361:00000000000000120000000000000000
#038321:00000000000000000022000000000000
#038380:00000000000000000012000000000000
#0383c0:00000000000000000000002200000000
#0383c0:00000012
#038370:0000000000000052
#0393c0:22
#039321:133333003333230000000000000000000000000000000000
#039361:0033000000000000
#0393b0:000000000000133333003333230000000000000000000000
#039370:0000003300000000
#039361:000000000000000000000000133333003333230000000000
#039321:0000000000330000
#040321:0000001300000000
#040371:0000000000230000
#042371:0013230000000000
#043321:165656565656260000000000000000000000000000000000000000000000000000000000000000000000000000000000
#043331:005400540054005400540054000000000000000000000000000000000000000000000000000000000000000000000000000000000000000000000000000000000000000000000000000000000000000000000000000000000000000000000000
#043380:165656565656260000000000000000000000000000000000000000000000000000000000000000000000000000000000
#043390:005400540054005400540054000000000000000000000000000000000000000000000000000000000000000000000000000000000000000000000000000000000000000000000000000000000000000000000000000000000000000000000000
#044320:0000001600000000
#044380:0000000000260000
#045380:0000001600000000
#045320:0000000000260000
#046370:0000001300000000
#0463b0:0000000000230000
#048380:12
#0483c0:00220000
#048380:0000001200000022
#0483c0:0000000000320000
#048321:0000001200000000
#048361:0000000000220000
#048321:0000000000000012
#049361:00520000000000000000000000000000
#049321:00220000
#049381:0000001200000000
#0493c1:0000000000220000
#049320:0000001200000000
#049360:0000000000220000
#050320:12220000
#050360:0052000000000000
#050381:12
#0503c1:0052220000000000
#0503c1:00001222
#050381:0000000000520000
#050360:0012
#050320:0000000000522200
#051380:12220000
#0513c0:0052000000000000
#051321:12220000
#051361:0052000000000000
#052361:12
#052321:00220000
#052361:0000001200000022
#052321:0000000000320000
#0523c0:0000001200000000
#052380:0000000000220000
#0533c1:12220000
#053381:0052000000000000
#053361:0000001200000000
#053321:0000000000220000
#0533c0:0000001200000000
#053380:0000000000220000
#0543c0:1200005200000000
#054380:0052000022000000
#0543a0:00520000
#054361:1200005200000000
#054321:0052000022000000
#054341:00520000
#054321:0000000000000016
#055321:26
#055380:1626000000000000
#055321:0016260000000000
#055380:0000162600000000
#0563b0:13230000
#056370:0053000000000000
#056360:0000001300000000
#056320:00000000000000530000230000000000
#056371:0000000000130000
#0563b1:00000000000000000000005300002300
#056320:0000000000000013
#057360:53
#057320:0023000000000000
#0573b1:13
#057371:0023000000000000
#0573b1:0000001300230000
#057371:0053
#057360:0000001300000000
#057320:0023
#058321:13
#058361:0023000000000000
#0583b1:0013
#058371:0000000000230000
#059381:13
#0593b1:0023000000000000
#059350:13
#059320:0023000000000000
#060360:13230000
#060320:0053000000000000
#060320:0000001300000000
#060360:00000000000000530000230000000000
#0603b1:0000000000130000
#060371:00000000000000000000005300002300
#060320:0000000000000013
#061360:53
#061320:0023000000000000
#0613b0:0000001300230000
#061370:0053
#062370:13
#0623b0:0023000000000000
#062360:0013
#062320:0000000000230000
#0633b0:13
#063350:00230000
#063321:13
#063381:00230000
#064321:00130000
#064361:0000002300000000
#064371:00001323
#0643b1:0000000000530000
#064320:00000013
#064360:0000000000000053
#065320:23
#065360:00001424
#065320:0000000000540000
#065371:0000000000130000
#0653b1:00000023
#066371:00130000
#0663b1:0000002300000000
#066321:00001323
#066361:0000000000330000
#066370:00000013
#0663b0:0000000000000033
#067370:23
#0683b0:00130000
#068370:0000002300000000
#068360:00001323
#068320:0000000000530000
#0683b1:00000013
#068371:0000000000000053
#0693b1:23
#069361:00001424
#0693a1:0000000000540000
#069360:0000000000130000
#069320:00000023
#070360:00130000
#070320:0000002300000000
#0703b0:00001323
#070370:0000000000330000
#070361:00000013
#070321:0000000000000033
#071361:23
#071371:0013
#071321:0000000000230000
#071360:0000000000130000
#0713b0:00000023
