This file was generated by Ched 2.7.0.0.
#TITLE ""
#ARTIST ""
#DESIGNER ""
#DIFFICULTY 0
#PLAYLEVEL
#SONGID ""
#WAVE ""
#WAVEOFFSET 0
#JACKET ""
#REQUEST "ticks_per_beat 480"
#00002: 4
#BPM01: 144
#00008: 01
#TIL00: ""
#HISPEED 00
#MEASUREHS 00
#0001a:14
#00014:00140000
#00018:0014
#00012:00000014
#0021a:1414
#00214:00140014
#00318:14001414
#00312:00140000
#00314:0000000000140000
#00412:14
#00418:00140000
#00414:0014
#0041a:00000014
#00612:1414
#00618:00140014
#00714:14002424
#0071a:00140000
#00718:0000000000240000
#0081a:14
#00814:00140000
#00810:41
#00912:14
#00918:00140000
#0101a:14
#01014:00140000
#01018:0014
#01012:00000014
#0111a:14
#01118:00343400
#01212:14
#01218:00140000
#0131a:14
#01314:00140000
#01412:14
#01418:00140000
#01414:0014
#0141a:00000014
#01512:14
#01514:00343400
#02418:00140000
#02414:0014
#0241a:00000014
#02412:24
#02410:41
#02512:14
#02518:00140000
#02514:0014
#0251a:00000014
#02814:00140000
#02818:0014
#02812:00000014
#0281a:24
#0291a:14
#02914:00140000
#02918:0014
#02912:00000014
#03614:00140000
#03618:0014
#03612:00000014
#03714:00140000
#03718:0014
#03712:00000014
#0371a:14
#0381a:14343400
#03912:14343434
#04018:00140000
#04014:0014
#0401a:00000014
#04118:00140000
#04114:0014
#0411a:00000014
#04112:14
#04212:14343400
#0431a:14343400
#04414:14
#04410:41
#04518:14
#04612:14
#04618:00140000
#04614:0014
#0461a:00000014
#04918:0014
#0511a:0014
#05318:0014
#05614:00140000
#05618:0014
#05612:00000014
#0561a:24
#0561f:21
#05610:0000000000000041
#0571a:14
#05714:00140000
#05718:0014
#05712:00000014
#06018:00140000
#06014:0014
#0601a:00000014
#06012:24
#06112:14
#06118:00140000
#06114:0014
#0611a:00000014
#06412:14
#06418:00140000
#06414:0014
#0641a:00000014
#06612:1414
#06618:00140014
#06714:14001414
#0671a:00140000
#06718:0000000000140000
#0681a:14
#06814:00140000
#06818:0014
#06812:00000014
#0701a:1414
#07014:00140014
#07118:14
#07112:00140000
#0711a:0014
#07114:00000014
#0481f:11
#02314:24240000
#02318:0024002400000000
#02714:00002424
#02718:0000000000240000
#04714:24240000
#04718:0024002400000000
#05518:24240000
#05514:0024002400000000
#05918:00002424
#05914:0000000000240000
#07218:26
#07212:0026
#0201a:00343400
#02112:00343400
#0221a:00343400
#01810:41
#03210:41
#0115a:54
#01552:64
#02452:14
#0285a:14
#0385a:54
#03952:64
#04252:64
#0435a:54
#04454:54
#04558:64
#04758:0000001400000000
#05554:0000001400000000
#0565a:14
#06052:14
#07252:0016
#0013a0:14240000
#001340:00001424
#005320:14240000
#005380:00001424
#008380:00001424
#009340:00001424
#0113a0:14
#011380:00343424
#012340:00001424
#013380:00001424
#015320:14
#015340:00343424
#0163a0:1434342400000000
#017340:1434342400000000
#018380:1434342400000000
#019320:1434343400002400
#0203a0:14343400
#020380:00000024
#021320:14343400
#021340:00000024
#0223a0:14343400
#022380:00000024
#026320:14
#026340:00240000
#0263a0:0014
#026380:00000024
#027320:14
#027340:00240000
#027381:14
#0273a1:00240000
#0303a1:14
#030381:00240000
#030321:0014
#030341:00000024
#0313a1:14
#031381:00240000
#031340:14
#031320:00240000
#031320:0014
#031340:00000024
#031381:0014
#0313a1:00000024
#032381:14000000340000240000000000000000
#033321:14
#034341:34340034000000240000000000000000
#035381:14
#0353a1:0000003400000000
#0363a1:24
#0383a1:14343400
#038381:00000024
#039321:14343434
#040341:24
#042321:14343400
#042341:00000024
#0433a1:14343400
#043381:00000024
#044341:14
#044321:00000024
#045381:14
#0453a1:00000024
#048321:14
#049321:24
#050341:14
#051341:24
#052321:14
#053321:24
#054341:1424
#0583a1:14
#058381:00240000
#058321:0014
#058341:00000024
#0593a1:14
#059381:00240000
#059340:14
#059320:00240000
#062320:14
#062340:00240000
#0623a0:0014
#062380:00000024
#063320:14
#063340:00240000
#063381:14
#0633a1:00240000
#0633a1:0014
#063381:00000024
#063340:0014
#063320:00000024
#065320:14240000
#065380:00001424
#0693a0:14240000
#069340:00001424
