This file was generated by Ched 2.7.0.0.
#TITLE ""
#ARTIST ""
#DESIGNER ""
#DIFFICULTY 0
#PLAYLEVEL
#SONGID ""
#WAVE ""
#WAVEOFFSET 0
#JACKET ""
#REQUEST "ticks_per_beat 480"
#00002: 4
#BPM01: 132
#00008: 01
#TIL00: ""
#HISPEED 00
#MEASUREHS 00
#0011a:14
#00214:14
#00318:14
#00412:14
#0051a:14
#00614:14
#00718:14
#00812:14
#01114:14
#0121a:14
#01314:14
#01418:14
#01512:14
#01618:14
#01712:14
#02612:0016
#02618:26
#02610:41
#02718:16
#02712:0016
#03018:2616
#03112:1616
#04318:0016
#0431f:00210000
#04412:16
#04418:0016
#04410:41
#04712:2616
#04818:1616
#05112:0016
#05118:26
#05218:16
#05212:0016
#05210:41
#05518:2616
#05612:1616
#05718:16
#05712:0016
#0341f:11
#01010:41
#01810:41
#03310:41
#0093a0:14343434
#0103a0:24
#0183a0:14
#0193a0:24
#020340:14
#021340:24
#022380:14
#023380:24
#024320:14
#025320:24
#028380:1626
#029320:1626
#032380:16363636
#033380:26
#034320:14
#035340:24
#036380:14
#0373a0:24
#0383a0:14
#039380:24
#040340:14
#041320:34343434
#042320:34343434
#043320:24
#045320:1626
#046380:1626
#049320:16363636
#050320:26
#053380:1626
#054320:1626
#058380:16363636
#059380:26
