This file was generated by Ched 2.7.0.0.
#TITLE ""
#ARTIST ""
#DESIGNER ""
#DIFFICULTY 0
#PLAYLEVEL
#SONGID ""
#WAVE ""
#WAVEOFFSET 0
#JACKET ""
#REQUEST "ticks_per_beat 480"
#00002: 4
#BPM01: 132
#00008: 01
#TIL00: ""
#HISPEED 00
#MEASUREHS 00
#0011a:141400141400
#00116:001400001400001400000000
#00112:000000140014000000260000
#00216:13
#0021b:1300000000131300
#00214:00000013000000000000000000000000
#00212:0000001300002300
#00217:0000001300000013
#00219:00000013000000000000000000000000
#00312:1300001300002300
#00317:1300001300000000
#00316:00000013000000000000000000000000
#0031b:00000013000000000000000013000000
#00416:1300000000130000
#0041b:13000000000000000000001300000000
#00414:00000013000000000000000000000000
#00417:0000001300000013
#00412:0000001300002300
#00419:00000013000000000000000000000000
#00512:141400141400
#00516:001400001400001400000000
#0051a:000000140014000000000000
#00518:00000026
#00617:13
#00612:1300000000131300
#00619:00000013000000000000000000000000
#0061b:0000001300002300
#00616:0000001300000013
#00614:00000013000000000000000000000000
#0071b:1300001300002300
#00716:1300001300000000
#00717:00000013000000000000000000000000
#00712:00000013000000000000000013000000
#00817:1300000000130000
#00812:13000000000000000000001300000000
#00819:00000013000000000000000000000000
#00816:0000001300000013
#0081b:0000001300002300
#00814:00000013000000000000000000000000
#00912:1313
#0091b:00130000
#0091a:0000000000000014
#00916:24242400
#01012:1413
#0101b:0013131300001300
#01016:00000013001300000000000013000000
#01010:41
#01112:1313000013001300
#01117:00130000000000000000000000000000
#0111b:00000000130013000000001300000000
#01116:00000000001300000000000000000000
#01118:00000000000000000013000000000000
#01115:0000000000130000
#0121b:13001300000000000013000000130000
#01212:00130000001300000000000000000000
#01215:00000013000000130000130013000000
#01218:00000000130013000000001300000000
#01312:00331333000000002600000000001400
#01315:13
#01318:13130000
#0131b:00000000003313000000000000000000
#0141a:14
#01418:0013
#0141b:00000000000000000000130000000013
#01412:00000000000000000013000000000000
#01415:00000000000000000000001300000000
#01512:1313130000130000
#01519:00130000000000000000000000000000
#01517:00000013000000000000000000000000
#01518:00000000000013000013000000001300
#0151b:00000000000000000000001300000000
#01515:00000000000000130000000000000000
#01612:13131324
#01615:0013001300130000
#0161b:00130013000000000013000000000000
#01618:00000000001300130000001300000000
#0161a:0000000000000024
#01716:0013000000000000
#01712:1323
#01717:0000001300000000
#0171b:13000000130000000023000000000000
#01718:00000000003300330000002300000000
#01715:00330033000000000000000023000000
#01819:15
#01812:15130013
#01817:00000000130000000000001300000000
#01816:0000000013000013
#0181b:00000000000000000000000000130000
#01810:41
#01912:1313
#01918:00000013001300000000001300130000
#01915:0000131300001313
#0191b:2323
#0201b:23000000130000000000001300130000
#02016:0000130000001313
#02012:2313
#02112:1313
#0211b:00000013001300001300000000000000
#02116:0000131300000000
#02117:23
#02118:0000000000242424
#02114:00000000000000000000002400240000
#02414:0013001300000000
#02416:00130000
#0241b:2300130013000013
#02412:2313
#02418:0000000000130000
#02415:00000000000000000000001300000000
#02515:1313000026262626
#02518:00130013000000000000000000000000
#02512:0000131300000000
#0251b:00000000001300130000000000000000
#02612:00001300000013000000001300000000
#02616:13131300
#0261b:1300130013000013
#02617:00000000000000000000001300000000
#02610:41
#02812:00001300000013000000001300000000
#02816:13131300
#0281b:1300130013000013
#02817:00000000000000000000001300000000
#03017:13130000
#03016:0013001300000000
#0301b:0000000013000013
#03015:00000000000000000000001300000000
#03012:13
#03112:1300130016000016
#03115:0013001300000000
#03118:00130000001300000000001600000000
#0311b:00000013000000130000000000000000
#03216:0013000013000000
#03217:0000001300000000
#0321b:0000000013000013
#03212:00000000000000000000001300000000
#03315:16
#0331a:000000141400
#03316:000000000000001400002400
#03312:000000000000000000240024
#03310:41
#02712:1300130013000013
#02715:0013001300000000
#02718:13000000130000130000000000000000
#0271b:00000000000000001300001300000000
#02916:00000013000000000000000000000000
#02912:1326
#02917:1300001300000000
#0291b:00000013000000000000000000000000
#02918:00000026
#0431b:00000000000013000000001300000000
#04317:00131300
#04316:00001400000000000000001300000000
#04312:2400000013000013
#0431f:00210000
#04917:0013000013000000
#04916:0000001300000000
#04912:0000000013000013
#0491b:00000000000000000000001300000000
#05018:1616
#05012:00160016
#03412:00000000000014001400001400001400
#0341b:00000013000000001300000000000000
#03417:13000000000000000000001300000000
#0341f:11
#05118:00001300000000130000000000000000
#05115:00000013000013000000000000001300
#0511b:0000130000130000
#05112:2400000013130000
#0511a:24
#05218:00001300000000130000130000000000
#05212:2300000013000013
#0521b:23130000
#05215:00000013000013000000130000000000
#05210:41
#05319:0013000000000000
#05317:00130000
#05312:0000130000130000
#05314:0000001300000000
#05316:2313
#0531b:2300000013000013
#05318:00000000000000000000001300000000
#05412:1300000000130000
#05416:0013000023000000
#0541b:00130013
#05417:0000001300000000
#05717:2313000000000000
#05716:0000000023130000
#0571b:0000001323000000
#05712:2300000000000013
#05818:00130013
#0581b:1313
#05815:00130013
#05812:2313
#03517:13
#03512:140000000000000000140000000016000000260000000000
#0351b:00000013000000000000000000000000
#03518:000000161600
#0361a:14000000000014001400001400001400
#03612:00000013000000001300000000000000
#03616:13000000000000000000001300000000
#0371a:140000000000000000140000000000001400000000001400
#03712:00000013000000001400000014000000
#03716:130000000000001400001400
#03818:00001300000013000000000000000013
#03812:26130023
#03815:00000000000000130000130000001300
#0381b:00230013
#03918:0013001300000000
#03912:00130023
#03915:00000000000000130000130000000000
#0391b:00230013
#04017:13
#04015:0000131300000000
#04018:00000000001300130000000000000000
#0401b:0000000000130000
#04012:0000000000000013
#04216:1313000000000000
#04217:0000131300000000
#0421b:000000000000000000000000130000000000003333003333
#0421a:24
#04212:00240000
#02212:15000000000000000000000000130000
#0221b:00130013
#02216:00000000130000000000001300000000
#02217:0000000013000013
#02219:15
#0231b:1313
#02315:00000013001300000000001300130000
#02318:0000131300001313
#02312:2323
#0451b:00001300000013000000001300000000
#04517:13131300
#04512:1300130013000013
#04516:00000000000000000000001300000000
#04716:13130000
#04717:0013001300000000
#04712:0000000013000013
#04718:00000000000000000000001300000000
#0471b:13
#0481b:13130000
#04818:0013001316000016
#04815:00130000001300000000000000000000
#04812:00000013000000130000001600000000
#0441b:1300130013000013
#04418:0013001300000000
#04415:13000000130000130000000000000000
#04412:00000000000000001300001300000000
#04410:41
#04617:00000013000000000000000000000000
#0461b:13
#04616:1300001300000000
#04612:00000013000000000000000026000000
#04618:0026
#05515:00001300000000130000000000000000
#05518:00000013000013000000000000001300
#05512:2400130000130000
#0551b:0000000013130000
#0551a:24
#05615:00001300000000130000130000000000
#0561b:2300000013000013
#05612:23130000
#05618:00000013000013000000130000000000
#04118:2626
#04112:00260026
#0025b:13
#00252:0000005300000000
#00352:0000005300000000
#00357:0000005300000000
#00457:0000005300000000
#00652:13
#0065b:0000006300000000
#0075b:0000006300000000
#00756:0000006300000000
#00856:0000006300000000
#01052:14
#0105b:0000005300000000
#01152:00000053
#01255:00000000000000530000000000000000
#01355:53
#01352:0023000000000000
#01358:00630000
#0135b:0000002300000000
#0145a:14
#01552:00530000
#01555:00000000000000530000000000000000
#01756:0023000000000000
#01752:63
#01757:0000002300000000
#0175b:00530000
#01859:15
#01857:00630000
#01856:0063
#01852:15
#01952:6363
#0205b:00530000
#02052:0063
#02152:63
#02455:00000000000000000000005300000000
#02652:00000000000000000000005300000000
#02656:0053
#02852:00000000000000000000005300000000
#02856:0053
#03057:53530000
#03056:0063006300000000
#0305b:0063
#03055:00000000000000000000006300000000
#03152:0000000016000016
#03158:00000000000000000000001600000000
#03355:16
#0325b:0063
#03252:00000000000000000000005300000000
#0275b:00000000000000000000006300000000
#02752:0053
#02956:00000063000000000000000000000000
#02952:6336
#02958:00000046
#05058:1616
#05052:00160016
#04952:0053
#0495b:00000000000000000000006300000000
#05152:14
#0515a:14
#0515b:0000000000530000
#05258:0000000000630000
#05452:5300000000230000
#05456:0023000053000000
#0545b:00630013
#05457:0000002300000000
#05858:00530023
#0585b:5353
#05855:00630023
#05852:5363
#03557:53
#0355b:00000023000000000000000000000000
#03552:00000016
#0345b:00000023000000006300000000000000
#03457:53000000000000000000002300000000
#03852:16
#04352:54340000
#04356:0024000000000000
#0435b:00000000000000000000006300000000
#04357:0063
#03756:63
#03752:00000023000000000000000000000000
#03652:00000023000000005300000000000000
#03656:63000000000000000000002300000000
#02252:15
#02256:00530000
#02257:0053
#02259:15
#0235b:5353
#0455b:00000000000000000000006300000000
#04557:0063
#04756:63630000
#04757:0053005300000000
#04752:0053
#04758:00000000000000000000005300000000
#04858:0000000016000016
#04852:00000000000000000000001600000000
#04452:00000000000000000000005300000000
#0445b:0063
#04657:00000053000000000000000000000000
#0465b:53
#04658:0046
#04652:00000036
#05552:1400000000630000
#0555a:14
#05655:0000000000530000
#002320:0000001300000000
#002360:0000000000230000
#003320:0000001300000000
#003360:0000000000230000
#003371:0000001300000000
#0033b1:0000000000230000
#004371:0000001300000000
#0043b1:0000000000230000
#0063b1:0000001300000000
#006371:0000000000230000
#0073b1:0000001300000000
#007371:0000000000230000
#007360:0000001300000000
#007320:0000000000230000
#008360:0000001300000000
#008320:0000000000230000
#0103b0:0000001300000000
#010370:0023
#011320:00000013
#011360:0000000000000023
#012350:00000000000000130000000000000000
#012320:00000000000000000023000000000000
#013350:13230000
#013320:00333333000000000000000000000000
#013381:00132300
#0133b1:00000000003333000000000000000000
#014321:0013230000000000
#0143b0:0000132300000000
#014351:0000001323000000
#015321:00130000
#015351:0000002300000000
#015351:00000000000000130000000000000000
#015321:00000000000000000023000000000000
#015351:0000000000001323
#017321:13230000
#017351:00330033000000000000000000000000
#017361:0033000000000000
#0173b0:00132300
#017380:00000000003300330000000000000000
#017370:0000003300000000
#018370:00130000
#0183b0:0023
#018361:0013
#018321:00000000000000000000002300000000
#019321:13
#019351:00000023000000000000000000000000
#019321:0013
#019351:00000000000000000000002300000000
#0203b1:00130000
#020371:0023
#020320:0013
#020360:00000000000000000000002300000000
#021320:13
#021360:00000023000000000000000000000000
#022360:00130000
#022320:0023
#022371:0013
#0223b1:00000000000000000000002300000000
#0233b1:13
#023381:00000023000000000000000000000000
#0233b1:0013
#023381:00000000000000000000002300000000
#024351:00000000000000000000001300000000
#024321:0000000000000023
#026361:0000000013000023
#026321:00000000000000000000003300000000
#027321:0013
#027361:00000000000000000000002300000000
#0273b0:00000000000000000000001300000000
#027370:0000000000000023
#028360:0000000013000023
#028320:00000000000000000000003300000000
#029320:1300002300000000
#029360:00000033000000000000000000000000
#030370:13
#0303b0:0023000000000000
#030361:0013000000000000
#030321:00230000
#030370:00130000
#0303b0:0000002300000000
#030361:0000001300000000
#030321:0023
#0303b0:0013
#030380:00000000000000000000002300000000
#030351:00000000000000000000001300000000
#030321:0000000000000023
#0323b1:1323000000000000
#032321:0000132300000000
#0323b1:0013
#032371:00000000000000000000002300000000
#032320:00000000000000000000001300000000
#032360:0000000000000023
#034370:1300002300000000
#0343b0:00000053000000000000000000000000
#0343b0:0000000013000023
#034370:00000000000000000000005300000000
#035370:1300002300000000
#0353b0:00000053000000000000000000000000
#036360:1300002300000000
#036320:00000053000000000000000000000000
#036320:0000000013000023
#036360:00000000000000000000005300000000
#037360:1300002300000000
#037320:00000053000000000000000000000000
#038380:0000000013230000
#039350:1323000000000000
#039380:0000000013230000
#040320:1323000000000000
#0403b1:0013230000000000
#040321:0013
#040361:0000000000230000
#0403b1:00000013
#040371:0000000000000023
#042321:00001323
#042341:00000000000000000033003300000000
#042361:0000000000330000
#0423b0:000000000000000000000000000000000000133333003333
#042370:0000000000000033
#0433b0:23
#043321:14240000
#043361:0054000000000000
#043371:0000000013000023
#0433b1:00000000000000000000003300000000
#0443b1:0013
#044371:00000000000000000000002300000000
#044320:00000000000000000000001300000000
#044360:0000000000000023
#045370:0000000013000023
#0453b0:00000000000000000000003300000000
#0463b0:1300002300000000
#046370:00000033000000000000000000000000
#047360:13
#047320:0023000000000000
#047371:0013000000000000
#0473b1:00230000
#047360:00130000
#047320:0000002300000000
#047371:0000001300000000
#0473b1:0023
#047320:0013
#047350:00000000000000000000002300000000
#047381:00000000000000000000001300000000
#0473b1:0000000000000023
#049321:1323000000000000
#0493b1:0000132300000000
#049321:0013
#049361:00000000000000000000002300000000
#0493b0:00000000000000000000001300000000
#049370:0000000000000023
#0513b0:0000000000130000
#051380:0000000000000023
#052380:0000000000130000
#0523b0:0000000000000023
#053350:0000000000001323
#054320:13230000
#054360:0053000000000000
#0543b1:00132300
#054371:0000005300000000
#054360:00001323
#054320:0000000000530000
#055320:0000000000130000
#055350:0000000000000023
#056350:0000000000130000
#056320:0000000000000023
#057320:00130000
#057360:0000002300000000
#0573b0:00000013
#057370:0000000000000023
#0583b0:1300005333000000
#058380:0053330000535300
#059380:26
#058321:1300005333000000
#058351:0053330000535300
#059321:26
