This file was generated by Ched 2.7.0.0.
#TITLE ""
#ARTIST ""
#DESIGNER ""
#DIFFICULTY 0
#PLAYLEVEL
#SONGID ""
#WAVE ""
#WAVEOFFSET 0
#JACKET ""
#REQUEST "ticks_per_beat 480"
#00002: 4
#BPM01: 132
#00008: 01
#TIL00: ""
#HISPEED 00
#MEASUREHS 00
#0011a:14
#00112:00140000
#00118:000000141400
#00114:000000000000001400240000
#0021b:13
#00215:00000013000000000000000000000000
#00218:0000001300000013
#00212:00000023
#00315:13
#00318:00000013000000000000000000000000
#00312:0000001300000000
#0031b:00000023
#00412:13
#00415:0000001300000013
#00418:00000013000000000000000023000000
#00912:14241400
#0091a:24142400
#00915:0000000000000013
#01018:13
#01015:00000013
#0101b:00130013
#01012:0013000000000000
#01010:41
#01315:1300000000000013
#01318:0023
#01312:00333333333300000000000000000000
#0141b:1313
#01412:00001300000000000000000000000013
#01418:00000000130000000033330000000000
#01415:0000001300000000
#0211b:0013
#02116:1300000000240000
#01812:13
#01818:00130000
#0181b:0013
#01810:41
#02415:0013000000130000
#02418:00000000130000001300001300000000
#02412:0000001300000000
#0241b:23
#02615:00000000130000000000001300000000
#02612:0013
#02618:0000001300000000
#0261b:0013000000000000
#02610:41
#02817:00000000000000000000001300000000
#0281b:1313
#02812:0000001300000000
#02815:0013000000000000
#02818:00130000
#0311b:00000000000000000000001300000000
#03112:13333333333333330000000000001300
#03312:160000000000000000000024
#0331a:0014
#03314:000000000000001400000000
#03319:000014
#03313:00000024
#03318:000000000024
#03310:41
#02715:00001300000013000000001300000000
#0271b:13130000
#02712:0013
#02718:00000000000000130000000000000000
#02916:00000013000000000000000000000000
#02912:13000026
#02918:0026
#05012:1616
#05018:00160016
#05112:26000000000000330000130000000000
#05118:00000033000000000000000000000000
#05318:0013000000130000
#05315:00000000130000000000001300000000
#0531b:0000001300000000
#05312:2313
#05418:1300000000130000
#0541b:0013000023000000
#05412:1300000000130000
#05415:0013000023000000
#05715:0013000000130000
#05712:0000001300000013
#05718:00130013
#0571b:2323
#05818:00130013
#0581b:1313
#05815:00130013
#05812:2313
#03512:000000141400
#03518:130000000000001400240000
#0351b:00000013000000000000000000000000
#0371a:0014
#03714:000000000000001400000000
#03719:000014
#03713:00000014
#03718:000000000014
#03712:000000000000000000130000000000000000000000000000000000000000000000000000000000000000000014000000
#03715:13
#03815:00001300000013001300000000000013
#03818:26000000000000130000130000001300
#0381b:00230000
#03812:00000023
#0341b:13
#03412:0013
#03418:00000013000000000000000000000000
#03415:00000000000000000000001300000000
#0341f:11
#04518:00000000000013000000001300000000
#0451b:0013000013000000
#04512:13000000000000000000001300000000
#04515:00131300
#04415:13000000130000130000000000000000
#04418:00001300000013000000001300000000
#0441b:0013
#04410:41
#00612:13
#00618:00000013000000000000000000000000
#00615:0000001300000013
#0061b:00000023
#00718:13
#00715:00000013000000000000000000000000
#0071b:0000001300000000
#00712:00000023
#0081b:13
#00818:0000001300000013
#00815:00000013000000000000000023000000
#01112:00000000000000001333333300000000
#01115:00330000000000000000000000000000
#01118:00000000003300000000000000000000
#01217:0000000000000000000000000013000000000000000000000000000000000000
#0121b:13333333333333330033333333000000
#01516:0000000000000000000000000013000000000000000000000000000000000000
#01512:33333333330033330033333333000000
#0161b:13333333333300333333333300000000
#01617:0000001300000000
#01615:0000000000000023
#01718:13333333003333330000000000000000
#0171b:00130000
#01912:13
#0191b:0013
#0201b:00130000
#02018:0013
#02012:23
#0221b:13
#02215:00130000
#02212:0013
#0231b:13
#02312:0013
#02512:14
#02516:0034343400000000
#03018:0013
#0301b:00000000000000000000001300000000
#0321b:0013
#03218:00000000000000000000001300000000
#03612:13
#0361b:0013
#03615:00000013000000000000000000000000
#03618:00000000000000000000001300000000
#03918:13000000000000130000130000001300
#03915:00001300000013001300000000000013
#0391b:00230000
#03912:00000023
#04015:0000000000130000
#04018:00000013
#04012:0000000000000013
#04214:0014000000000000
#04212:0000001400000000
#0421a:240000000000000000000000000000000000000000000000140000340000340000340000340034003400340034003400
#04218:00240000
#04312:0014000013000000
#04318:0013
#0431b:00000000000000000000001300000000
#04315:00000000000000000000001300000000
#0431a:00240000
#0431f:00210000
#04618:1326
#0461b:00000013000000000000000000000000
#04612:13000026
#04615:00000013000000000000000000000000
#0471b:1313
#04715:0013000000000000
#04718:00000000130000000000001300000000
#04712:0000001300000000
#0481b:00000000000000000000001300000000
#04815:13333333333333330000000000001300
#04918:1313
#04912:0013000000000000
#0491b:00000000130000000000001300000000
#04915:0000001300000000
#0521b:00000000000000330000130000000000
#05218:23
#05215:00000033000000000000000000000000
#05210:41
#0551b:00000000000000330000130000000000
#05518:26
#05515:00000033000000000000000000000000
#05612:00000000000000330000130000000000
#05615:23
#05618:00000033000000000000000000000000
#0411a:24
#04114:00240000
#04118:0024
#04112:00000024
#0025b:13
#00258:0000005300000000
#00352:0000005300000000
#00455:0000005300000000
#01058:13
#0105b:00530000
#0145b:1353
#01452:00000000000000000000000000000053
#01852:13
#01858:00530000
#0185b:0053
#02458:00000000000000000000005300000000
#02655:00000000000000000000006300000000
#02652:0063
#02857:00000000000000000000005300000000
#0285b:0053
#0315b:00000000000000000000001300000000
#03152:5300000000000013
#03155:0013
#03352:16
#02755:00000000000000000000006300000000
#02752:0053
#02956:00000063000000000000000000000000
#02952:63000016
#02958:0016
#05052:1616
#05058:00160016
#05152:1600000000530000
#05458:5300000000230000
#0545b:0023000053000000
#05452:5300000000230000
#05455:0023000053000000
#05858:00530053
#0585b:5353
#05855:00630053
#05852:5363
#03558:63000014
#0355b:00000023000000000000000000000000
#03858:16
#0345b:53
#03452:0063
#03458:00000023000000000000000000000000
#03455:00000000000000000000002300000000
#00652:13
#00655:0000006300000000
#0075b:0000006300000000
#00858:0000006300000000
#01152:0053
#0125b:53
#01257:0000000000000000000000000023000000000000000000000000000000000000
#01355:53
#01556:0000000000000000000000000023000000000000000000000000000000000000
#0165b:53
#01657:0000002300000000
#01758:53
#0175b:00230000
#01952:53
#0195b:0063
#0205b:00630000
#02058:0063
#02156:63
#0225b:13
#02255:00630000
#02252:0063
#0235b:63
#02352:0053
#02552:54
#03058:0053
#0305b:00000000000000000000005300000000
#0325b:0063
#03258:00000000000000000000006300000000
#03652:63
#0365b:0053
#03655:00000023000000000000000000000000
#03658:00000000000000000000002300000000
#03755:53
#03752:00000023000000000000000000000000
#0435a:00140000
#04358:0053
#0435b:00000000000000000000005300000000
#04352:0053
#04355:00000000000000000000005300000000
#0425a:0054
#04458:00000000000000000000005300000000
#0445b:0053
#04555:0063
#04552:00000000000000000000006300000000
#0455b:0063
#04558:00000000000000000000006300000000
#04658:5316
#0465b:00000053000000000000000000000000
#04652:53000016
#04655:00000053000000000000000000000000
#0475b:0053
#04758:00000000000000000000005300000000
#0485b:00000000000000000000001300000000
#04855:6300000000000013
#04852:0013
#04958:0063
#0495b:00000000000000000000006300000000
#0525b:0000000000630000
#0555b:0000000000630000
#05558:16
#05652:0000000000530000
#002380:0000001300000000
#0023b0:0000000000230000
#003320:0000001300000000
#003350:0000000000230000
#004350:0000001300000000
#004320:0000000000230000
#0053a0:1434
#005390:003400000034003400000000
#005380:003434003400
#005370:00340024
#006350:0000001300000000
#006320:0000000000230000
#0073b0:0000001300000000
#007380:0000000000230000
#008380:0000001300000000
#0083b0:0000000000230000
#0103b0:00130000
#010380:0023
#011320:13
#011350:00332300000000000000000000000000
#0113b0:00130000
#011380:00000000003323000000000000000000
#011320:00000000000000001333333300000000
#011360:0000000000003323
#0123b0:13333333333333330033333333230000
#012370:0000000000000000000000000053000000000000000000000000000000000000
#013350:13
#013320:00333333333323000000000000000000
#0143b0:0013
#014380:00000000000000000033332300000000
#014320:00000000000000000000000000000013
#015320:33333333330033330033333333002300
#015360:0000000000000000000000000053000000000000000000000000000000000000
#0163b0:13333333333300333333333323000000
#016370:0000003300000000
#017380:13333333003333333300330023000000
#0173b0:00330000
#017390:00000000000000000033003300000000
#018380:00000000130000000000003333332300
#0183b0:0033
#019320:13
#019360:00000033333323000000000000000000
#0193b0:0013
#019370:00000000000000000000003333332300
#0203b0:00000000130000000000003333332300
#020380:0033
#021360:13
#021320:00000033333323000000000000000000
#021360:00000000000000000000143434342400
#022350:00000000130000000000003333332300
#022320:0033
#0233b0:13
#023370:00000033333323000000000000000000
#023320:0013
#023360:00000000000000000000003333332300
#024380:00000000000000000000001300000000
#0243b0:0000000000000023
#025320:14
#025360:0034343434343434
#026360:24
#026320:0000000013000023
#026350:00000000000000000000003300000000
#027320:0000000013000023
#027350:00000000000000000000003300000000
#0283b0:0000000013000023
#028370:00000000000000000000003300000000
#029320:1300002300000000
#029360:00000033000000000000000000000000
#030380:1300330033000023
#0303b0:00003300000033000000003300000000
#031320:13333333333333330000000000000000
#031350:0023
#0323b0:1300330033000023
#032380:00003300000033000000003300000000
#0343b0:1300002300000000
#034380:00000033000000000000000000000000
#034320:0000000013000023
#034350:00000000000000000000003300000000
#035380:1300002300000000
#0353b0:00000033000000000000000000000000
#036320:1300002300000000
#036350:00000033000000000000000000000000
#0363b0:0000000013000023
#036380:00000000000000000000003300000000
#037350:1300002300000000
#037320:00000033000000000000000000000000
#0403b0:13000000333333332300000000000000
#040380:0033000000000000
#0423a0:000000000000000000000000000000000000000000000000140000340000340000340000340034003400340034003400
#043360:24
#043380:0000000013000023
#0433b0:00000000000000000000003300000000
#043321:0000000013000023
#043351:00000000000000000000003300000000
#0443b1:0000000013000023
#044381:00000000000000000000003300000000
#045351:0000000013000023
#045321:00000000000000000000003300000000
#0453b0:0000000013000023
#045380:00000000000000000000003300000000
#046380:1300002300000000
#0463b0:00000033000000000000000000000000
#046321:1300002300000000
#046351:00000033000000000000000000000000
#0473b1:0000000013000023
#047381:00000000000000000000003300000000
#048351:13333333333333330000000000000000
#048321:0023
#049381:0000000013000023
#0493b1:00000000000000000000003300000000
#0513b1:0013000000000000
#051381:00000033230000000000000000000000
#051351:0000001300000023
#051321:00000000000000333300330000000000
#052321:0013000000000000
#052351:00000033230000000000000000000000
#052381:0000001300000023
#0523b1:00000000000000333300330000000000
#053381:0000000000001323
#054381:13230000
#0543b1:0053000000000000
#054320:13230000
#054350:0053000000000000
#054350:00001323
#054320:0000000000530000
#0543b1:00001323
#054381:0000000000530000
#055321:0013000000000000
#055351:00000033230000000000000000000000
#055381:0000001300000023
#0553b1:00000000000000333300330000000000
#0563b1:0013000000000000
#056381:00000033230000000000000000000000
#056351:0000001300000023
#056321:00000000000000333300330000000000
#0583b1:1300005333000053
#058381:0053330000533300
#0593b1:23
#058320:1300005333000053
#058350:0053330000533300
#059320:23
