This file was generated by Ched 2.7.0.0.
#TITLE ""
#ARTIST ""
#DESIGNER ""
#DIFFICULTY 0
#PLAYLEVEL
#SONGID ""
#WAVE ""
#WAVEOFFSET 0
#JACKET ""
#REQUEST "ticks_per_beat 480"
#00002: 4
#BPM01: 132
#00008: 01
#TIL00: ""
#HISPEED 00
#MEASUREHS 00
#00218:16000013000000000013000000000000
#0021b:00130013
#00215:1300000013130000
#00216:0000001400000014
#00212:0000001300000000230000000000000000000000000000002300000000000000
#0031b:13131313
#00315:00000000000000000013001300001300
#00318:00000013000000000000130000130000
#00316:0000001400000000
#00312:13230023
#0041b:13130000
#00416:00000000000014000000141400001300
#00414:0013
#00419:0013
#00418:00000013000000000000000000000000
#00412:13230023
#00112:1c00001c18141c00002c0000
#00116:001800000000001800000000
#0011a:001400001400
#00916:000000001212
#00918:000000000000000000120012
#0091b:1313
#00912:00130000
#00915:26262600
#01012:1413001300001300
#0101a:14
#01015:00000013000000000000000000000000
#01018:00130000
#0101b:00000000001300001300000000000000
#01016:0000000000140014
#01017:00000013
#01010:41
#01115:13001300001300000013001300000000
#0111b:1313
#01118:00130000130013000000130000000000
#01112:00130013
#01116:0000000000000014
#01212:13000000000000130000170000000000
#01218:00130000000000000000000000000000
#01215:00001300120000000000000012160000
#0121b:00000013000000000013000000000000
#01217:00000000001200000000000000000000
#01219:00000000000012000000001200000000
#01312:1612160026000000
#01316:0000001200002222
#01318:00160012001600000022002200000000
#0131c:00000000000000220000000000001200
#01412:16000000000000000000001600001300
#01417:00001300000000000000000000000013
#01416:00000000130014140000000000000000
#0141b:00001313
#01418:00000000000000000016000000000000
#01415:0000000000130000
#01816:00000000130000000000000014140000
#0181b:00000000000013000000001300000000
#01815:0013
#01812:1c00000000000000130000000000000000000013000000000000000018000000
#01810:41
#0191b:00000013000000000000001300000000
#01912:1300001813000018
#01916:24000000141400002400000014140000
#02217:00130000
#02212:1c000000000013000000001300000000
#02218:0013
#0221b:0000000000000000130000000000000000000013000000000000000000000000
#02216:00000000000000000000000014141800
#02312:00000013000000000000001300000000
#0231b:1313
#02316:24000000141418002400000014141800
#01512:14000000130000000013000014000000
#0151a:00140000000000000000000014000000
#01516:00001200000000130000141400000000
#01518:00000012000000000000000000000000
#0151b:0000001313000000
#01612:1300130000141300
#0161b:13000000000000130000000000000000
#01618:00130013000013000000000000000000
#01615:00001300001300000000000000000000
#01616:00000000000000001400001424001300
#0161a:00000000000000000014000000002400
#01719:15
#01713:00000012000000000000000000000000
#01715:0013000000000000
#01717:00140000000000000000000000000000
#01718:00152226
#01714:0000001300000000
#01716:00000000001400000022002200000000
#01712:00000000000000220000000016000000
#02012:2c131300
#02017:00130000
#0201b:00000000000013000000001300000000
#02016:00000000000000000000000014141800
#02112:1300000013000023
#0211b:00000013000000001300000000002300
#02116:28000000141418000000000000000000
#02118:0000000000232300
#02115:00000000000000000000002300260000
#02412:2c001300000000001c00130000140000
#02417:0013000000000000
#02414:00130000
#02416:0000001300000014
#0241b:0000001300000000
#02419:00130000
#02415:00000000000000000000001600000000
#0241a:00000000000000000000000000000014
#0251c:00120000000000000000000000000000
#02512:160016122c2c2c2c
#02516:0012000000000000
#02518:00000016001200160000000000000000
#02619:1212251200002500
#02616:13000000130000001300001300000000
#02612:0000000013000000000000001300000000000000000000000013000000000000
#0261c:0000000012120012
#02610:41
#02719:1212251200002500
#02712:13000000130000001300001300001700
#02716:0013001300000000
#0271c:0000000012120012
#02819:1212251200002500
#02812:0000000013000000000000001300000000000000000000000013000000000000
#02816:13000000130000001300001300000000
#0281c:0000000012120012
#02912:13000013000000000000000028001200
#02917:13
#0291b:0013131300000000
#02916:0000001328120000
#0291c:0000000000120000
#02918:0000000000000012
#03012:0000000013000000000000001300000000000000000000000013000000000000
#03016:1300000000000000130000000000000000000013000013000000000000000000
#0301b:1300130013000013
#03017:0013001300000000
#03112:13131800
#03115:00130000001300000000000000000000
#03118:0013001300140000
#0311b:00000013000000130000000000000000
#03114:00000000000000000000001800000000
#03116:0000000000000018
#0311a:00000000000000000000000000140000
#03212:13131313
#0321b:00001300000013000000001300000013
#03216:14000000000000000014140000141400
#03312:1c
#03318:000000000000121212000000
#03316:000000000000000000222222
#03310:41
#03412:1c12121200000000
#03416:00000012000000000000000000000012
#03418:00000000000016001600001600001600
#0341f:11
#03518:160000000000000000160000000000001200000000000000
#03512:0000001200001200001200001600160016002c0000000000
#03516:00000012000000000000000000000000
#0351c:0012
#0351a:000000000000001200000000
#0361c:0012121200000000
#03618:00000012000000000000000000000012
#03612:1c000000000016001600001600001600
#03712:160000000000000000160000000013001300130013001300
#0371c:0012121222000000
#03718:00000012000000000000000000000000
#03715:0016
#03812:1300000013130000
#0381b:0013000013000000
#03818:0000001300000000
#03815:00000000000000130000000000000000
#03816:0013240000002413
#03819:00000000000000000000000000000012
#03817:0000000000130000
#03916:1300000000130000
#03917:0013001313000000
#0391b:1300000000130000
#03912:0013000013002400
#03915:00000000000000120000000000000000
#0391a:00240000
#04018:00000000001300130000000000000000
#04015:0000001300000000
#0401b:1300000013130000
#04012:0000130000001313
#0411b:1313
#04112:00130013
#04115:26262626
#04212:000000130000230000000000140000140000160016001600
#0421b:2300001300000000
#0421a:00000000000000000014001400000000
#04218:000000000000000000000000000000000000001600160016
#04215:26260000
#04318:0016260000000000
#04312:2600001215002512
#04317:00000000000000001300001300000000
#0431b:0000000000000000000000001300000000000000000000000013000000000000
#04315:0000000000120000
#0431f:00210000
#04412:1500251215002512
#0441b:13000000130000001300001300000000
#04417:0013001300000017
#04415:0012000000120000
#04410:41
#04512:1500251215002512
#04515:0012000000120000
#0451b:0000000013000000000000001300000000000000000000000013000000000000
#04517:13000000130000001300001300000000
#0461b:13000013000000000000000000000000
#04616:1300000000002812
#04612:0013131328120000
#04617:0000001300000000
#04618:0000000000120000
#0461c:0000000000000012
#0471b:0000000013000000000000001300000000000000000000000013000000000000
#04717:1300000000000000130000000000000000000013000013000000000000000000
#04712:1300130013000013
#04716:0013001300000000
#0481b:13130000
#04818:00130000001300000000000000000000
#04815:0013001300000000
#04812:00000013000000130000000000141800
#04816:0018
#04814:00000000000000000000141800000000
#0491b:13131313
#04912:00001300000013000000001300000013
#04916:14000000000000000014140000141400
#05012:1c00190023192319
#05018:00000013000013000000000000000000
#05015:00001300000000131900000019000000
#0501b:0000230000230023
#0511a:0014001400000000
#05116:0000140014141414
#05112:26000013001300130000000014000000
#05118:26
#05217:0013001300000013
#05212:25000014001400140000140000000000
#0521b:00131313
#05216:00000013
#05219:25
#05210:41
#0531b:23130000000000001313000013000000
#05316:00001400000014000000141400000000
#05312:24000000131300001400000013000000
#0531a:00140000
#05318:0000000000000013
#05412:2400261c
#05416:000000001400000000001400000000260000000000140000
#05414:000000001400000000000000000000000000000000000000000000260000000000000000000000000000000000000000
#05418:000000000000000000000000000000001400000000000000000000000000000000260000000000000000000000000000
#0541a:00240000
#05512:2614001400000000
#05516:0000140014141414
#0551b:00000013001300130000000000000000
#0551a:00000014
#05518:26
#05616:0013001300000013
#0561a:00000014001400140000140000000000
#05612:25131313
#05617:00000013
#05619:25
#05715:00130000160000130013000016000013
#05718:2613000026130000
#05712:00000013001300000000001300130000
#0571b:0000001300000013
#05818:16151300
#05812:2615001400000000
#05819:0015000000000000
#0581a:0000001400000000
#05813:00150000
#05815:0013
#00512:1c18141c00001c1814260000
#00516:001800
#0051a:000000000014000000000000
#0081b:13230023
#00812:13130000
#00815:00000013000000000000000000000000
#00814:0013
#00819:0013
#00816:00000000000014000000141400000000
#00817:0000000000000013
#0071b:13230023
#00712:13131313
#00715:00000013000000000000130000130000
#00716:0000001400000000
#00718:00000000000000000013001300001300
#00616:0000001400000014
#00618:1300000013130000
#0061b:0000001300000000230000000000000000000000000000002300000000000000
#00615:00000013000000000013000000000000
#00612:16130013
#00255:53
#00252:0000002300000000000000000000000000000000000000000000000000000000
#00258:16
#00352:53
#00452:53
#01052:1400005300000000
#0105a:14
#01056:0013
#0105b:0013
#01252:00000000000000530000000000000000
#01255:00000000000000000000000000160000
#0135c:0000000000000052
#01452:16000000000000000000001600000000
#01457:0053000000000000
#01456:00630000
#0145b:00000053
#01856:00530000
#0185b:0000002300000000
#01855:0063
#01852:1c00000000000000000000000000000000000023000000000000000038000000
#01952:6300003863000038
#02257:00630000
#02252:1c00002300000000
#02258:0053
#0225b:0000000000000000000000000000000000000023000000000000000000000000
#02256:0000000000000048
#0235b:5353
#02356:0000004800000048
#01552:0000530000005416
#01558:0000000000000016
#0155a:00000064
#01152:00000013
#01652:00000053
#01656:0000000000000053
#02052:0053
#02057:00530000
#0205b:0000002300000000
#02056:0000000000000018
#02152:53
#02156:0000001800000000
#02455:00000000000000000000006600000000
#02656:13000000000000005300006300000000
#02652:0000000000000000000000000000000000000000000000000023000000000000
#02752:00000000000000005300005300001700
#02856:00000000000000005300006300000000
#02852:0000000000000000000000000000000000000000000000000023000000000000
#02952:63000063000000000000000038000000
#02956:0000006348000000
#0305b:1300000053000043
#03056:5300000000000000530000000000000000000023000053000000000043000000
#03052:0000000053000000000000005300000000000000000000000023000000000000
#03152:0038
#03154:00000000000000000000003800000000
#03156:0000000000000038
#03252:53530000
#0325b:0063006300000000
#03352:3c
#03552:0000001c
#03755:0016
#0375c:0022
#03856:1823000000000000
#03852:53330000
#0385b:00006343
#03857:0000000000230000
#03956:63430000
#03952:0023000000000000
#03957:00005333
#0395b:0000000000230000
#04352:56360000
#04358:0026460000000000
#04357:00000000000000006300005300000000
#0435b:0000000000000000000000000000000000000000000000000023000000000000
#0445b:00000000000000006300006300000000
#04457:0000000000000017
#04557:00000000000000006300005300000000
#0455b:0000000000000000000000000000000000000000000000000023000000000000
#0465b:53000053000000000000000000000000
#04657:0000005300000000
#04652:0038
#04656:00000048
#0475b:0000000063000000000000006300000000000000000000000023000000000000
#04757:6300000000000000630000000000000000000023000063000000000033000000
#04752:1300000063000033
#04856:0048
#04854:00000000000000000000004800000000
#04852:0000000000000048
#0495b:63630000
#04952:0053005300000000
#05052:4c00390000390039
#05055:00004949
#05158:16
#05152:16
#05156:0000000054345400
#05252:0000000000340000
#05256:00000053
#0525b:0053
#05352:00000053
#05452:0000003c
#05552:16
#05558:16
#05556:0000000064446400
#05657:00000063
#0565a:0000000000440000
#05652:0063
#05852:5625002400000000
#05858:56555300
#05859:0025000000000000
#0585a:0000002400000000
#05853:00650000
#05855:0063
#0085b:63
#0075b:63
#00658:63
#0065b:0000002300000000000000000000000000000000000000000000000000000000
#00652:16
#002350:13000023000000000000000000000000
#002320:0000005300000000000000000000000000000000000000000000000000000000
#003320:13
#003350:00000023000000000000000000000000
#004320:13
#004350:00000023000000000000000000000000
#0043b0:0000000000001323
#005380:0000000000001626
#005330:00000000000000000000000000550000
#005321:0000000000001626
#005381:00000000000000000000000000550000
#006381:13000023000000000000000000000000
#0063b1:0000005300000000000000000000000000000000000000000000000000000000
#0073b1:13
#007381:00000023000000000000000000000000
#0083b1:13
#008381:00000023000000000000000000000000
#008321:0000000000001323
#010321:0000001300000000
#010361:0023
#0113b1:0000000000001323
#012321:00000000000000130000000000000000
#012361:00000000000000000023000000000000
#0133c1:0000000000000012
#014381:22
#014371:0013000000000000
#0143b1:00230000
#014360:00130000
#014320:0000002300000000
#0143b0:00000013
#014370:0000000000000023
#015320:00130000
#015360:0000002300000000
#015320:00000014
#015380:0000000000000026
#0153a1:00000014
#015321:0000000000000026
#016321:00000013
#016361:0000000000000053
#017321:23
#018361:00130000
#0183b1:0000005300000000
#018381:0023
#018350:0013
#018320:0000000000000000000000000000000000000053000000000000000000000000
#018370:00000000000000000000002300000000
#019320:13
#019370:00000023000000000000000000000000
#019320:0013
#019370:00000000000000000000002300000000
#020370:00132300
#0203b0:0000005300000000
#020321:0013
#020371:00000000000000000000002300000000
#021321:13
#021371:00000023000000000000000000000000
#022371:00130000
#022321:0000005300000000
#022351:0023
#022380:0013
#0223b0:0000000000000000000000000000000000000053000000000000000000000000
#022360:00000000000000000000002300000000
#0233b0:13
#023360:00000023000000000000000000000000
#0233b0:0013
#023360:00000000000000000000002300000000
#024350:00000000000000000000001600000000
#0243b0:00000000000000000000000000230000
#026360:0013
#026320:0000000000230000
#026360:00000000000000000000001300002300
#026320:0000000000000000000000000000000000000000000000000053000000000000
#027320:0013
#027360:0000000000230000
#027320:00000000000000000000001300000000
#027360:00000000000000000000000000230000
#028360:0013
#028320:0000000000230000
#028360:00000000000000000000001300002300
#028320:0000000000000000000000000000000000000000000000000053000000000000
#029320:13
#029360:0023000000000000
#029320:00000013000000000000000000000000
#029360:00000000002300000000000000000000
#029360:0000001300000000
#029320:0023
#030360:13332300
#030320:0033003300000000
#0303b1:00000000000000001300002300000000
#030361:0000000000000000000000000000000000000053000000000000000000000000
#030360:00000000000000000000001300002300
#030320:0000000000000000000000000000000000000000000000000053000000000000
#032320:13
#032370:0023000000000000
#0323b1:0013000000000000
#032361:00230000
#032320:00130000
#032370:0000002300000000
#0323b1:0000001300000000
#032361:0023
#034361:00000000000000000012002200000000
#034321:0000000000001222
#036381:00000000000000000012002200000000
#0363c1:0000000000001222
#0373c1:0012
#038361:28
#038320:13230000
#038360:0053000000000000
#0383b0:00001323
#038370:0000000000530000
#039360:13230000
#039320:0053000000000000
#039370:00001323
#0393b0:0000000000530000
#040360:14
#040320:0023000000000000
#040361:0014000000000000
#0403b1:00230000
#040321:0013
#040361:00000000000000000054240000000000
#0403b1:00000013
#040361:00000000000000000000000000542400
#0423b1:1323000000000000
#042321:0000132300000000
#043321:16260000
#043381:0056000000000000
#043371:0013
#0433b1:0000000000230000
#043371:00000000000000000000001300002300
#0433b1:0000000000000000000000000000000000000000000000000053000000000000
#0443b1:0013
#044371:0000000000230000
#0443b1:00000000000000000000001300000000
#044371:00000000000000000000000000230000
#045371:0013
#0453b1:0000000000230000
#045371:00000000000000000000001300002300
#0453b1:0000000000000000000000000000000000000000000000000053000000000000
#0463b1:13
#046371:0023000000000000
#0463b1:00000013000000000000000000000000
#046371:00000000002300000000000000000000
#046371:0000001300000000
#0463b1:0023
#047371:13332300
#0473b1:0033003300000000
#047320:00000000000000001300002300000000
#047370:0000000000000000000000000000000000000053000000000000000000000000
#047371:00000000000000000000001300002300
#0473b1:0000000000000000000000000000000000000000000000000053000000000000
#0493b1:13
#049361:0023000000000000
#049320:0013000000000000
#049370:00230000
#0493b1:00130000
#049361:0000002300000000
#049320:0000001300000000
#049370:0023
#051360:0014
#0513a0:0000000000240000
#051360:00000014
#0513a0:0000000000000024
#0523b0:0013
#052370:0000000000230000
#052360:00000013
#052320:0000000000000023
#053320:00000013
#053350:0000000000000023
#055360:0014
#055320:0000000000240000
#055360:00000014
#055320:0000000000000024
#056320:0013
#056360:0000000000230000
#056370:00000013
#0563b0:0000000000000023
#058380:16353300
#058320:0000000055000000000000005400000000000000005455555656565656565656
#058330:0000000000540000
#058350:000000000000000000000000000000000000000000000000000000000000000000000000000000000000000000000000000000000000000000000000000000000000000000000000000000000000000000000000000000000000000000000000000000000000000000000000000000000000000000000000000000000000000000000000000000000000000000000000000000000000000000000000000000000000000000000000000000000000000000000000000000000000000000000000000000000000000000000000000000000000000000000000000000000000000000000000000000000000000000000000000000000000000000000000000000000000000000000000000000000000000000000000000000000000000000000000000000000000000000000000000000000000000000000000000000000000000000000000000000000000000000000000000000000000000000000000000000000000000000000000000000000000000000000000000000000000000000000000000000000000000000000000000000000000000000000000000000000000000000000000000000000000000000000000000000000000000000000000000000000000000000000000000000000000000000000000000000000000000000000000000000000000000000000000000000000000000000000000000000000000000000000000000000000000000000000000000000000000000000000000000000000000000000000000000000000000000000000000000000000000000000000000000000000000000000000000000000000000000000000000000000000000000000000000000000000000000000000000000000000000000000000000000000000000000000000000000000000000000000000000000000000000000000000000000000000000000000000000000000000000000000000000000000000000000000000000000000000000000000000000000000000000000000000000000000000000000000000000000000000000000000000000000000000000000000000000000000000000000000000000000000000000000000000000000000000000000000000000000000000000000000000000000000000000000000000000000000000000000000000000000000000000000000000000000000000000000000000000000000000000000000000000000000000000000000000000000000000000000000000000000000000000000000000000000000000000000000000000000000000000000000000000000000000000000000000000000000000000000000000000000000000000000000000000000000000000000000000000000000000000000000000000000000000000000000000000000000000000000000000000000000000000000000000000000000000000000000000000000000000000000000000000000000000000000000000000000000000000000000000000000000000000000000000000000000000000000000000000000000000000000000000000000000000000000000000000000000000000000000000000000000000000000000000000000000000000000000000000000000000000000000000000000000000000000000000000000000000000000000000000000000000000000000000000000000000000000000000000000000000000540000000000000000000000000000000000000000000000000000000000000000000000000000000000000000000000000000000000000000000000000000000000000000000000000000000000000000000000000000000000000000000000000000000000000000000000000000000000000000000000000000000000000000000000000000000000000000000000000000000000000000000000000000000000000000000000000000000000000000000000000000000000000000000000000000000000000000000000000000000000000000000000000000000000000000000000000000000000000000000000000000000000000000000000000000000000000000000000000000000000000000000000000000000000000000000000000000000000000000000000000000000000000000000000000000000000000000000000000000000000000000000000000000000000000000000000000000000000000000000057000000000000000000000000000000000000000000000000000000000000000000000000000000000000000000000000000000000000000000000057000000000000000000000000000000000000000000000000000000000000000000000000000000000000000000000000000000000000000000000058000000000000000000000000000000000000000000000000000000000000000000000000000000000000000000000000000000000000000000000058000000000000000000000000000000000000000000000000000000000000000000000000000000000000000000000000000000000000000000000059000000000000000000000000000000000000000000000000000000000000000000000000000000000000000000000000000000000000000000000059000000000000000000000000000000000000000000000000000000000000
#058340:00000000000000000000000000000000000000000000000000000000000000000000000000000000000000550056005600570057000000000000000000000000
#059320:26
#058321:16000000000000000000000000000000000000000000000000000000000000000000000000000000000000000000000000000000000000000000000000590059
#058391:0000000055000000000000000000000000000000540055550000000000000000
#058331:00000000000000000000000000000000350000000000000000000000000000000000000000000000000000000000000000000000000000000058005800000000
#0583a1:0000000000000000000000005400000000000000005400000000000000000000
#058351:000000000000000000000000000000000000000000000000000000000000000000000000000000000000000000000000000000000000000000000000000000000000000000000000000000000000000000000000000000000000000000000000000000000000000000000000000000000000000000000000000000000000000000000000000000000000000000000000000000000000000000000000000000000000000000000000000000000000000000000000000000000000000000000000000000000000000000000000000000000000000000000000000000000000000000000000000000000000000000000000000000000000000000000000000000000000000000000000000000000000000000000000000000000000000000000000000000000000000000000000000000000000000000000000000000000000000000000000000000000000000000000000000000000000000000000000000000000000000000000000000000000000000000000000000000000000000000000000000000000000000000000000000000000000000000000000000000000000000000000000000000000000000000000000000000000000000000000000000000000000000000000000000000000000000000000000000000000000000000000000000000000000000000000000000000000000000000000000000000000000000000000000000000000000000000000000000000000000000000000000000000000000000000000000000000000000000000000000000000000000000000000000000000000000000000000000000000000000000000000000000000000000000000000000000000000000000000000000000000000000000000000000000000000000000000000000000000000000000000000000000000000000000000000000000000000000000000000000000000000000000000000000000000000000000000000000000000000000000000000000000000000000000000000000000000000000000000000000000000000000000000000000000000000000000000000000000000000000000000000000000000000000000000000000000000000000000000000000000000000000000000000000000000000000000000000000000000000000000000000000000000000000000000000000000000000000000000000000000000000000000000000000000000000000000000000000000000000000000000000000000000000000000000000000000000000000000000000000000000000000000000000000000000000000000000000000000000000000000000000000330000000000000000000000000000000000000000000000000000000000000000000000000000000000000000000000000000000000000000000000000000000000000000000000000000000000000000000000000000000000000000000000000000000000000000000000000000000000000000000000000000000000000000000000000000000000000000000000000000000000000000000000000000000000000000000000000000000000000000000000000000000000000000000000000000000000000000000000000000000000000000000000000000000000000000000000000000000000000000000000000000000000000000000000000000000000000000000000000000000000000000000000000000000000000000000000000000000000000000000000000000000000000000000000000000000000000000000000000000000000000000000000000000000000000000000000000000000000000000000000000000000000000000000000000000000000000000000000000000000000000000000000000000000000000000000000000000000000000000000000000000000000000000000000000000000000000000000000000000000000000000000000000000000000000000000000000000000000000000000000000000000000000000000000000000000000000000000000000000000057000000000000000000000000000000000000000000000000000000000000000000000000000000000000000000000000000000000000000000000057000000000000000000000000000000000000000000000000000000000000000000000000000000000000000000000000000000000000000000000000000000000000000000000000000000000000000000000000000000000000000000000000000000000000000000000000000000000000000000000000000000000000000000000000000000000000000000000000000000000000000000000000000000000000000000000000000000000000000000000000000000000000000000000000000000000000000000000000000000000000000000000000000000000000000000000000000000000000000000000000000000000000000000000000000000000000000000000000000000000000000000000000000000000000000000000000000000000000000000000000000000000000000000000000000000000000000000000000000000000000000000000000000000000000000000000000000000000000000000000000000000000000000000000000000000000000000000000000000000000000
#058371:000000000000000000000000000000000000000000000000000000000000000000000000000000000000000000000000000000000000000000000000000000000000000000000000000000000000000000000000000000000000000000000000000000000000000000000000000000000000000000000000000000000000000000000000000000000000000000000000000000000000000000000000000000000000000000000000000000000000000000000000000000000000000000000000000000000000000000000000000000000000000000000000000000000000000000000000000000000000000000000000000000000000000000000000000000000000000000000000000000000000000000000000000000000000000000000000000000000000000000000000000000000000000000000000000000000000000000000000000000000000000000000000000000000000000000000000000000000000000000000000000000000000000000000000000000000000000000000000000000000000000000000000000000000000000000000000000000000000000000000000000000000000000000000000000000000000000000000000000000000000000000000000000000000000000000000000000000000000000000000000000000000000000000000000000000000000000000000000000000000000000000000000000000000000000000000000000000000000000000000000000000000000000000000000000000000000000000000000000000000000000000000000000000000000000000000000000000000000000000000000000000000000000000000000000000000000000000000000000000000000000000000000000000000000000000000000000000000000000000000000000000000000000000000000000000000000000000000000000000000000000000000000000000000000000000000000000000000000000000000000000000000000000000000000000000000000000000000000000000000000000000000000000000000000000000000000000000000000000000000000000000000000000000000000000000000000000000000000000000000000000000000000000000000000000000000000000000000000000000000000000000000000000000000000000000000000000000000000000000000000000000000000000000000000000000000000000000000000000000000000000000000000000000000000000000000000000000000000000000000000000000000000000000000000000000000000000000000000000000000000000000000000000000000000000000000000000000000000000000000000000000000000000000000000000000000000000000000000000000000000000000000000000000000000000000000000000000000000000000000000000000000000000000000000000000000000000000000000000000000000000000000000000000000000000000000000000000000000000000000000000000000000000000000000000000000000000000000000000000000000000000000000000000000000000000000000000000000000000000000000000000000000000000000000000000000000000000000000000000000000000000000000000000000000000000000000000000000000000000000054000000000000000000000000000000000000000000000000000000000000000000000000000000000000000000000000000000000000000000000055000000000000000000000000000000000000000000000000000000000000000000000000000000000000000000000000000000000000000000000000000000000000000000000000000000000000000000000000000000000000000000000000000000000000000000000000000000000000000000000000000000000000000000000000000000000000000000000000000000000000000000000000000000000000000000000000000000000000000000000000000000000000000000000000000000000000000000000000000000000000000000000000000000000000000000000000000000000000000000000000000000000000000000000000000000000000000000000000000000000000000000000000000000000000000000000000000000000000000000000000000000000000000000000000000000000000000000000000000000000000000000000000000000000000000000000000000000000000000000000000000000000000000000000000000000000000000000000000000000000000000000000000000000000000000000000000000000000000000000000000000000000000000000000000000000000000000000000000000000000000000000000000000000000000000000000000000000000000000000000000000000000000000000000000000000000000000000000000000000000000000000000000000000000000000000000000000000000000000000000000000000000000000000000000000000000000000000000000000000000000000000000000000000000000000000000000000000000000000000000000000000000000000000000000000000000000000000000000000000000000
#058361:000000000000000000000000000000000000000000000000000000000000000000000000000000000000000000000000000000000000000000000000000000000000000000000000000000000000000000000000000000000000000000000000000000000000000000000000000000000000000000000000000000000000000000000000000000000000000000000000000000000000000000000000000000000000000000000000000000000000000000000000000000000000000000000000000000000000000000000000000000000000000000000000000000000000000000000000000000000000000000000000000000000000000000000000000000000000000000000000000000000000000000000000000000000000000000000000000000000000000000000000000000000000000000000000000000000000000000000000000000000000000000000000000000000000000000000000000000000000000000000000000000000000000000000000000000000000000000000000000000000000000000000000000000000000000000000000000000000000000000000000000000000000000000000000000000000000000000000000000000000000000000000000000000000000000000000000000000000000000000000000000000000000000000000000000000000000000000000000000000000000000000000000000000000000000000000000000000000000000000000000000000000000000000000000000000000000000000000000000000000000000000000000000000000000000000000000000000000000000000000000000000000000000000000000000000000000000000000000000000000000000000000000000000000000000000000000000000000000000000000000000000000000000000000000000000000000000000000000000000000000000000000000000000000000000000000000000000000000000000000000000000000000000000000000000000000000000000000000000000000000000000000000000000000000000000000000000000000000000000000000000000000000000000000000000000000000000000000000000000000000000000000000000000000000000000000000000000000000000000000000000000000000000000000000000000000000000000000000000000000000000000000000000000000000000000000000000000000000000000000000000000000000000000000000000000000000000000000000000000000000000000000000000000000000000000000000000000000000000000000000000000000000000000000000000000000000000000000000000000000000000000000000000000000000000000000000000000000000000000000000000000000000000000000000000000000000000000000000000000000000000000000000000000000000000000000000000000000000000000000000000000000000000000000000000000000000000000000000000000000000000000000000000000000000000000000000000000000000000000000000000000000000000000000000000000000000000000000000000000000000000000000000000000000000000000000000000000000000000000000000000000000000000000000000000000000000000000000000000000000000000000000000000000000000000000000000000000000000000000000000000000000000000000000000000000000000000000000000000000000000000000000000000000000000000000000000000000000000000000000000000000000000000000000000000000000000000000000000000000000056000000000000000000000000000000000000000000000000000000000000000000000000000000000000000000000000000000000000000000000056000000000000000000000000000000000000000000000000000000000000000000000000000000000000000000000000000000000000000000000000000000000000000000000000000000000000000000000000000000000000000000000000000000000000000000000000000000000000000000000000000000000000000000000000000000000000000000000000000000000000000000000000000000000000000000000000000000000000000000000000000000000000000000000000000000000000000000000000000000000000000000000000000000000000000000000000000000000000000000000000000000000000000000000000000000000000000000000000000000000000000000000000000000000000000000000000000000000000000000000000000000000000000000000000000000000000000000000000000000000000000000000000000000000000000000000000000000000000000000000000000000000000000000000000000000000000000000000000000000000000000000000000000000000000000000000000000000000000000000000000000000000000000000000000000000000000000000000000000000000000000000000000000000000000000000000000000000000000000000000000000000000000000000000000000000000000000000000000000000000000
#058381:0000000000000000000000000000000000000000000000005656565656565656
#058341:00000000000000000000000000000000000000000000000000000000000000000000000000000000000000000000000000000000005700570000000000000000
#059381:26
