This file was generated by Ched 2.7.0.0.
#TITLE ""
#ARTIST ""
#DESIGNER ""
#DIFFICULTY 0
#PLAYLEVEL
#SONGID ""
#WAVE ""
#WAVEOFFSET 0
#JACKET ""
#REQUEST "ticks_per_beat 480"
#00002: 4
#BPM01: 132
#00008: 01
#TIL00: ""
#HISPEED 00
#MEASUREHS 00
#0011a:14
#00114:00140000
#00118:0014
#00112:00000024
#0021a:1414
#00214:00140014
#0031a:14
#00318:00343400
#00412:1414
#00418:00140014
#00512:14
#00514:00343400
#0061a:14
#00614:00140000
#00618:0014
#00612:00000014
#00718:14
#0071a:00343400
#00812:14
#00818:00140000
#00814:0014
#0081a:00000014
#00914:14
#00912:00343400
#0101a:1414
#01014:00140000
#01010:41
#01112:1414
#01118:00140014
#01214:1414
#0121a:00140014
#01312:14
#01314:00343400
#0141a:1414
#01414:00140014
#01518:1414
#01512:00140014
#0181a:14
#01810:41
#01918:14
#0201a:14
#02114:0014
#02118:00000014
#02212:14
#02314:14
#02412:14
#02614:00140000
#02618:0014
#02612:00000014
#0261a:24
#02610:41
#02718:1414
#02712:00140000
#02714:00000014
#03018:00140000
#03014:0014
#0301a:00000014
#03012:24
#03114:1414
#0311a:00140000
#03118:00000014
#03312:14
#0331a:14
#03310:41
#03514:14
#03412:14
#0341f:11
#03414:0000003400000000
#03814:00140000
#03818:0014
#03812:00000014
#0391a:14
#03914:00140000
#03918:0014
#03912:00000014
#0401a:14
#04114:1414
#04118:00140014
#04312:0014
#0431a:00000014
#04318:00240000
#0431f:00210000
#04414:14
#04418:00140000
#04412:0014
#0441a:00000014
#04410:41
#04514:14
#04512:00343400
#04618:14
#0461a:00343400
#04718:00140000
#04712:0014
#0471a:00000014
#04714:24
#04814:14
#04818:00140000
#04812:0014
#0481a:00000014
#0501a:14
#05018:00343400
#04912:14
#04914:00343400
#05118:00140000
#05114:0014
#0511a:00000014
#05112:24
#05314:14140000
#0531a:00001414
#05412:14
#05414:00343400
#05514:00140000
#05518:0014
#05512:00000014
#0551a:24
#05718:14140000
#05712:00001414
#0581a:14
#05818:00343434
#05210:41
#00152:00000014
#0035a:54
#00552:64
#00758:54
#00954:64
#01352:54
#0185a:54
#01958:54
#0205a:54
#02252:64
#02354:64
#02452:64
#0265a:14
#03052:14
#03452:54
#03554:54
#0385a:14
#0405a:54
#04358:00140000
#04554:54
#04658:64
#04754:14
#0505a:54
#04952:64
#05152:14
#05452:54
#0585a:64
#0555a:14
#0033a0:14
#003380:00343424
#005320:14
#005340:00343424
#007380:14
#0073a0:00343424
#009340:14
#009320:00343424
#013320:14
#013340:00343424
#0163a0:14240000
#016340:00001424
#017380:14240000
#017320:00001424
#0183a0:14
#018380:00000034
#019380:34
#0193a0:00000034
#0203a0:34
#020380:00000034
#021380:24
#022320:14
#022340:00000034
#023340:34
#023320:00000034
#024320:34
#024340:00000034
#025340:34
#025320:0028
#0283a0:14
#028380:00240000
#028340:0014
#028320:00000024
#029320:14
#029340:00240000
#029380:0014
#0293a0:00000024
#032320:14
#032340:00240000
#032380:0014
#0323a0:00000024
#034320:14
#034340:00000000000034003400003400003400
#035340:34
#035320:000000000000000000340000340034003400240000000000
#036380:14
#036390:00340034
#0363a0:0034
#037380:34
#037390:00340000
#0373a0:000000000000343434343434
#0383a0:24
#0403a0:14
#040380:00000024
#042340:140000000000340000000000340000000000340000000000340000340000340000340000340034003400340034003400
#043340:24
#045340:14
#045320:00343424
#046380:14
#0463a0:00343424
#049320:14
#049340:00343424
#0503a0:14
#050380:00343424
#052320:14240000
#052380:00001424
#054320:14
#054340:00343424
#0563a0:14240000
#056340:00001424
#0583a0:14
#058380:00343434
#059380:24
