This file was generated by Ched 2.6.4.0.
#TITLE ""
#ARTIST ""
#DESIGNER ""
#DIFFICULTY 0
#PLAYLEVEL
#SONGID ""
#WAVE ""
#WAVEOFFSET 0
#JACKET ""
#REQUEST "ticks_per_beat 480"
#00002: 4
#BPM01: 175
#00008: 01
#TIL00: ""
#HISPEED 00
#MEASUREHS 00
#00414:14
#00518:14
#00612:14
#00814:14
#00918:14
#01012:14
#0071a:14
#01112:0016
#01118:26
#01110:41
#01218:16
#01212:0016
#01518:1616
#01612:1616
#01718:16
#01712:0016
#01918:0016
#01912:26
#02012:16
#02018:0016
#02312:1616
#02418:1616
#02512:16
#02518:0016
#02918:14
#03014:14
#0311a:14
#03212:14
#03318:14
#03414:14
#03714:14
#03818:14
#03912:14
#04018:14
#04114:14
#04514:14
#0461a:14
#04712:14
#04818:14
#04914:14
#05212:0016
#05318:16
#05312:0016
#05618:1616
#05712:1616
#05818:16
#05812:0016
#06018:0016
#06012:26
#06010:41
#06112:16
#06118:0016
#06412:1616
#06518:1616
#06612:16
#06618:0016
#07014:14
#07118:14
#07212:14
#07414:14
#07518:14
#07612:14
#0731a:14
#07712:0016
#07718:26
#0771f:21
#07818:16
#07812:0016
#07810:41
#08118:16
#08112:0016
#08218:16
#08212:0016
#08318:1616
#08518:0016
#08512:26
#08612:16
#08618:0016
#08912:16
#08918:0016
#09012:16
#09018:0016
#09112:1616
#09618:14
#09714:14
#0981a:14
#09912:14
#10018:14
#0681f:11
#0431a:3434
#0421a:0034
#05118:3434
#05018:0034
#02810:41
#04410:41
#09510:41
#002390:14
#003390:24
#013380:1626
#014320:1626
#018380:1626
#021320:1626
#022380:1626
#026320:1636
#027320:36
#028320:26
#0353a0:14
#0363a0:24
#0423a0:1434
#0433a0:3434
#044380:24
#050380:1434
#051380:3434
#0523a0:24
#054380:1626
#055320:1626
#059380:1626
#062320:1626
#063380:1626
#067320:1626
#068380:16
#069380:26
#079380:1626
#080320:1626
#084380:1626
#087320:1626
#088380:1626
#092320:1636
#093320:36
#095320:26
#101340:1400003400340034
#104340:24
