This file was generated by Ched 2.6.4.0.
#TITLE ""
#ARTIST ""
#DESIGNER ""
#DIFFICULTY 0
#PLAYLEVEL
#SONGID ""
#WAVE ""
#WAVEOFFSET 0
#JACKET ""
#REQUEST "ticks_per_beat 480"
#00002: 4
#BPM01: 175
#00008: 01
#TIL00: ""
#HISPEED 00
#MEASUREHS 00
#00215:1300130013130000
#00218:00000013000013000013000000000000
#00212:0000001300001300
#0021b:13000013
#00316:1300000013130000
#00312:0000130000000013
#0031b:23131313
#00416:0013130000000000
#00412:0013
#0041b:1313130013001300
#00512:0000000000130000
#0051b:13131313
#00516:0000001300000000
#00612:00130000
#00616:0013
#0061b:1313130013001300
#0111b:1313
#01112:0000130000000013
#01118:0000000000130000
#01115:00000013
#01116:23
#01117:00230000
#01110:41
#0121b:1300001300000000
#01212:0013000000130000
#01219:00000013
#01217:0000000000130000
#01216:0000000000000013
#01316:0013000000000013
#01314:00130000
#01317:0000001300131300
#01312:00000000000000000000001300000000
#0131b:0000000000000013
#01417:1300001300001300
#0141b:0013000000130000
#01412:1300001300001300
#01416:0013000000130000
#0151b:1300000013000013
#01515:0013000000001300
#01518:0000130000130000
#01512:1300001313000000
#0161b:1300001300000013
#01617:0013000000000000
#01616:0000001300000013
#01612:0000000000130000
#01614:00000013
#01717:0013001300000000
#0171b:0000130013130013
#01715:0000000000130000
#01718:00000013
#01712:0000001313000000
#0181b:13000000130000000013000000000000
#01815:0013001300000000
#01812:13000000130000000013000000000000
#01818:0013001300000000
#02417:0000001300000013
#0241b:0000000000130000
#02419:00000013
#02412:1300001300000013
#02416:0013000000130000
#0251b:0013000000000013
#02518:00130013
#02515:0000001300130000
#02512:0013
#02516:0013000000000013
#02517:0013
#02616:0013000000000013
#02612:00130013
#02618:0013
#02615:0000000000130000
#02617:13000013
#0261b:0000001300000000
#02812:1313
#0281b:0000130000001313
#02817:0013
#02816:00130033
#02810:41
#02912:0013000000000013
#02915:00130000
#02918:0000001300000000
#0291b:00001313
#02917:0000000000130013
#02916:00001313
#03017:00130000
#0301b:0013
#03018:0000000000130000
#03015:00000013
#03012:0000130000000013
#0311b:0013001300000013
#03112:00001313
#03116:0000001300130013
#03117:00001313
#0321b:0013000000130000
#03218:00131300
#03215:0000001300000000
#03217:0000000000000013
#03216:0000000000130000
#03312:13000013
#03316:0000131300000000
#0331b:0000001300000000
#03317:1300000000131300
#03412:00131300
#0341b:1313
#03418:0000000000130013
#03415:0000000000001313
#03518:0013000000001300
#03512:13000000000000000013000000000000
#0351b:00130000
#03515:0000001300000000
#03615:00131300
#03618:0000001300000013
#0361b:23000013
#03612:23
#03715:13130000
#03718:0013000000000000
#03712:0000001300000000
#0371b:0000000000130000
#03717:0000001300000013
#03716:0000000000130000
#0401b:00130013
#04017:0013
#04012:0000000013000013
#04016:00130000
#04115:1300001300001300
#04118:0013000000000013
#0411b:0000001300000000
#0421b:13
#04216:2313
#04212:00000013
#04217:00130000
#04412:00130013
#04415:0000001300000000
#04418:0000000013000013
#0441b:23
#04410:41
#04515:13
#0451b:00130000
#04517:0000001300000013
#04516:0000000000130000
#04512:0000001300000000
#0481b:00130013
#04818:0000001300000000
#04815:0013
#04812:00000013
#04912:1300001300000000
#04915:0013000000130000
#04918:00130000
#0491b:0000001300000013
#0661b:0000001300001300
#06612:0000000000130013
#06617:0013000000000013
#06619:00130000
#06614:00130000
#06616:0000001300001300
#0671b:0013000013000000
#06716:0013000000130000
#06816:0000001300000000
#06812:13
#0681b:0000001300000000
#06817:13
#0681f:11
#0691b:13000000000000001300000000130000
#06918:0013000000000000
#06915:00130000
#06912:0000000000130000
#06917:00000000000000000000001300000000
#06916:0000000000000013
#07012:1300001300001300
#07015:0013130000000013
#07018:00130000001300000000000000000000
#0701b:00000013000000000000130000000000
#07016:0000000000130000
#07118:1300000013130000
#07115:00001300000000130000001300000000
#07112:00000000130000000013000000001300
#0711b:0000001300000000
#0721b:13130000
#07217:0013001300130000
#07216:13130000
#07215:00000013
#07218:0000000000000013
#07212:0013000000000000
#0731b:1313
#07318:00001300001300000000130000001300
#07315:00130013
#0741b:1313130000001300
#07415:00130000001300000000000000000000
#07412:00000013000000000000130000001300
#07416:00001313
#07417:0000000000130013
#0751b:1313000000000000
#07516:00130000000000000000000000000000
#07518:0000130000000013
#07515:0000001300001300
#07512:0000000013130000
#07517:00000000000000000013000000000000
#0761b:1300000000131313
#07615:0013000013000000
#07618:00000013000000000000000000000000
#07612:0000001300000000
#07616:00000000000000000000001300130013
#07717:00130000
#0771b:2313
#07718:0000000000130000
#07715:00000013
#07712:0000230000000013
#0771f:21
#09512:0000130000000013
#09516:0000000013130000
#0951b:0000130013130000
#09510:41
#09612:0013000013000000
#0961b:00130013
#09616:00130013
#09617:0013
#09716:0000001300000013
#09717:0000000000130000
#0971b:0000002300000023
#09712:0000000000230000
#09812:0013130000000000
#09817:0013
#0981b:00000013
#00717:1300000013130000
#0071b:0000130000000013
#00712:23131313
#00817:0013130000000000
#0081b:0013
#00812:1313130013001300
#0091b:0000000000130000
#00912:13131313
#00917:0000001300000000
#0101b:00130000
#01017:0013
#01012:1313130013001300
#01912:1313
#0191b:0000130000000013
#01915:0000000000130000
#01918:00000013
#01917:23
#01916:00230000
#02012:1300001300000000
#0201b:0013000000130000
#02014:00000013
#02016:0000000000130000
#02017:0000000000000013
#02117:0013000000000013
#02119:00130000
#02116:0000001300131300
#0211b:00000000000000000000001300000000
#02112:0000000000000013
#02216:1300001300001300
#02212:0013000000130000
#0221b:1300001300001300
#02217:0013000000130000
#02312:1300000013000013
#02318:0013000000001300
#02315:0000130000130000
#0231b:1300001313000000
#02717:13
#0271b:0013
#03817:00000000001300000000000000000000
#03819:0000000000000000000000130000000000000000000000000000000000000000
#03919:00000000000000130000000000000000
#0391b:0000000000000000000000000000001300000000000000000000000000000000
#0431b:13
#04317:00130000
#04316:0013
#04312:00000013
#04613:0000000000000000000000000000000000001417000000000000000000000000
#04612:23
#04617:23
#04619:0023000000000000
#04614:0023000000000000
#04713:00000000000000000000000000000000000000000000000000000000000000000000000000000000000013160000000000000000000000000000000000000000
#04712:00230000
#04717:00230000
#04716:0000002300000000
#0471b:0000002300000000
#05012:13
#05017:2313
#0501b:00000013
#05016:00130000
#05112:13
#05116:00130000
#05117:0013
#0511b:00000013
#05216:00130000
#0521b:00231300
#05218:0000000000130000
#05215:00000013
#05212:2300000000000013
#0531b:1300001300000013
#05312:0013000000130000
#05319:00000013
#05317:0013000000130000
#05316:1300000000000013
#05416:0013000000000013
#05414:00130000
#05417:0000001300130000
#05412:00000000000013000000001300000000
#05418:13
#05415:0013
#05517:1300001300001300
#0551b:0013000000000000
#0551a:0000000000140000
#05512:1300001400001400
#05516:0013000000130000
#05615:0013001300001300
#05618:0000130000130013
#0561b:0013
#05612:13
#05712:1300001300000013
#05716:0013000000000000
#05717:0000001300000013
#0571b:0000000000130000
#05719:00000013
#05714:00000013
#05816:0013000000000000
#0581b:0000130000000013
#05815:0000000000130000
#05818:00000013
#05812:0000001313000000
#0591b:13000000130000000013000000000000
#05915:0013001300000000
#05912:13000000130000000013000000000000
#05918:0013001300000000
#06017:00130000
#06012:00231300
#06015:0000000000130000
#06018:00000013
#0601b:2300000000000013
#06016:13
#06010:41
#06112:1300001300000013
#0611b:0013000000130000
#06114:00000013
#06116:0013000000130000
#06117:1300000000000013
#06217:0013000000000013
#06219:00130000
#06216:0000001300130000
#0621b:00000000000013000000001300000000
#06215:13
#06218:0013
#06316:1300001300001300
#06312:0013000000140000
#0631b:13
#06317:0013000000130000
#0631a:0000001400001400
#06418:0013001300001300
#06415:0000130000130013
#06412:0013
#0641b:13
#0651b:1300001300000013
#06517:0013000000000000
#06516:0000001300000013
#06512:0000000000130000
#06514:00000013
#06519:00000013
#0781b:1300001300000013
#07812:0013000000130000
#07814:00000013
#07817:0013000000130000
#07816:1300000000000013
#07810:41
#07916:0013000000000013
#07919:00130000
#07917:0000001300130000
#07912:00000000000013000000001300000000
#07918:13
#07915:0013
#08017:13
#0801b:0013000000000000
#08016:0000001400141400
#08012:0000002400002400
#0801a:0000000000240000
#08115:0013001300001300
#08118:0000130000130013
#0811b:0013
#08112:13
#08212:1300001300000013
#08215:0013000000000000
#08217:0000001300000013
#0821b:0000000000130000
#08219:00000013
#08214:00000013
#08316:0013001300001400
#08317:00130000
#08314:0000000000140000
#08318:0000000000000014
#08312:00131400
#0831b:0000001300000000
#0841a:14
#08415:0023001300000000
#08412:14000000130000000013000000000000
#08418:0023001300000000
#0841b:00000000130000000013000000000000
#08516:00130000
#08512:2313
#08515:0000000000130000
#08518:00000013
#0851b:0000230000000013
#08612:1300001300000013
#0861b:0013000000130000
#08619:00000013
#08616:0013000000130000
#08617:1300000000000013
#08717:0013000000000013
#08714:00130000
#08716:0000001300130000
#0871b:00000000000013000000001300000000
#08715:13
#08718:0013
#08816:1300001400141400
#08812:0013000000240000
#0881a:0000002400002400
#08918:0013001300001300
#08915:0000130000130013
#08912:0013
#0891b:13
#0901b:1300001300000013
#09018:0013000000000000
#09016:0000001300000013
#09012:0000000000130000
#09014:00000013
#09019:00000013
#09117:0013001300000013
#09116:00131300
#09118:0000000000130000
#09115:00000013
#0911b:00131300
#09112:0000001300000013
#0921b:0013000000232300
#09218:00131300
#09215:0000001300000000
#09212:0000000000232300
#09418:13
#09415:13
#0991b:0000130000000013
#09917:2300000013130000
#09912:0000130013130000
#1001b:0013000013000000
#10012:00130013
#10017:00130013
#10016:0013
#10117:0000001300000013
#10116:0000000000130000
#10112:0000002300000023
#1011b:0000000000230000
#0931b:23
#09312:23
#00456:00530013
#00452:0053
#00652:00530013
#00656:0053
#0065b:00000013
#00857:00630013
#0085b:0063
#0105b:00630013
#01057:0063
#01052:00000013
#01252:0053000000000000
#01256:0000001300000000
#0125b:0000001300000000
#01452:0000001300001300
#01855:0053005300000000
#01852:00000000230000000023000000000000
#01858:0063006300000000
#0185b:00000000230000000023000000000000
#0165b:0000005300000000
#01656:0000000000000053
#01657:0013000000000000
#0205b:0063000000000000
#02052:0000001300000000
#02057:0000001300000000
#0225b:0000001300001300
#02456:0013000000000000
#02452:0000000000000013
#0255b:0000000000000053
#02656:0053000000000023
#02657:23
#02652:00230063
#02757:63
#0275b:0023
#02852:0053
#02856:0000000000000013
#0285b:0000000000000013
#0295b:00005353
#02956:00000053
#02957:0000000000230023
#02952:0000000000000023
#03152:00006363
#03156:0000000000230023
#03157:00000063
#0315b:0000000000000023
#03052:0000000000000053
#03256:0000000000530000
#03357:53000053
#03356:0000005300000000
#0345b:23
#03455:0000000000000053
#03558:0053000000000000
#03555:0000005300000000
#03552:23000000000000000023000000000000
#0355b:00230000
#03655:0053
#03752:0000005300000013
#03756:0000000000530000
#03757:0000000000000013
#03857:00000000005300000000000000000000
#03859:0000000000000000000000230000000000000000000000000000000000000000
#03959:00000000000000530000000000000000
#0395b:0000000000000000000000000000002300000000000000000000000000000000
#0405b:00130000
#04057:0013
#04158:0053000000000000
#0415b:0000005300000000
#04155:0000005300000000
#0425b:53
#04256:0053
#04252:00000023
#04257:00230000
#0435b:53
#04356:0053
#04352:00000023
#04357:00230000
#04458:0053
#04555:53
#04557:0000005300000000
#04556:0000000000530000
#04653:0000000000000000000000000000000000005427000000000000000000000000
#04753:00000000000000000000000000000000000000000000000000000000000000000000000000000000000053260000000000000000000000000000000000000000
#05052:63
#05057:0063
#0505b:00000023
#05056:00230000
#05152:63
#05156:00230000
#05157:0063
#0515b:00000023
#0495b:0000005300000000
#04955:0000000000530000
#05352:0053000000000000
#0535b:0000001300000053
#05356:0000001300000000
#05756:0013000000000000
#05757:0000000000000063
#05752:0000006300000000
#05955:0053005300000000
#05952:00000000230000000023000000000000
#05958:0063006300000000
#0595b:00000000230000000023000000000000
#05552:0000001400001400
#05452:0000005300000000
#05455:0023
#05458:23
#0615b:0063000000000000
#06152:0000001300000063
#06157:0000001300000000
#06557:0013000000000000
#06556:0000000000000053
#0655b:0000005300000000
#0635a:0000001400001400
#06255:23
#0625b:0000006300000000
#06258:0023
#0665b:0000005300000000
#06652:0000000000000053
#06756:0053000000000000
#0675b:0053000000000000
#06852:53
#06856:0000002300000000
#0685b:0000002300000000
#06857:53
#07052:0000001300000000
#07658:00000053000000000000000000000000
#0775b:13
#07752:00130000
#07852:0053000000000000
#0785b:0000001300000053
#07856:0000001300000000
#08255:0013000000000000
#08257:0000000000000063
#08252:0000006300000000
#08455:0053005300000000
#08452:00000000230000000023000000000000
#08458:0053006300000000
#0845b:00000000230000000023000000000000
#07958:23
#07952:0000005300000000
#07955:0023
#08052:0000001400001400
#0865b:0063000000000000
#08652:0000001300000063
#08657:0000001300000000
#09058:0013000000000000
#09056:0000000000000053
#0905b:0000005300000000
#08755:23
#0875b:0000006300000000
#08758:0023
#08552:13
#0855b:00130000
#0885a:0000001400001400
#09152:0000000000000053
#0935b:53
#09352:63
#09458:23
#09455:23
#0965b:00130013
#09652:0013
#10052:00130013
#1005b:0013
#10157:0000000000000053
#09957:13
#004360:00130023
#004320:0033
#005320:13230000
#005360:0000000000000013
#006360:0023000000000000
#006320:00130023
#006360:0033
#008370:00130023
#0083b0:0033
#0093b0:13230000
#009370:0000000000000013
#010370:0023000000000000
#0103b0:00130023
#010370:0033
#012320:0013000000000000
#012360:0000002300000000
#0123b0:0000000000000013
#0133b0:0023000000000000
#013320:0000001300230000
#016320:1323000000000000
#0163b0:0000001300000000
#016370:0000000000230000
#016360:0000000000000013
#017320:0023000000000000
#018350:0013003300002300
#018320:00000000530000000053000000000000
#018381:0013003300002300
#0183b1:00000000530000000053000000000000
#0203b1:0013000000000000
#020371:0000002300000000
#020321:0000000000000013
#021321:0023000000000000
#0213b1:0000001300230000
#0243b1:1323000000000000
#0253b1:0000000000000013
#026371:53
#0263b1:0023000000000000
#026360:0013002300000000
#026320:00530000
#026320:00000013
#026360:0000000000000053
#027320:23
#027371:13
#0273b1:0053
#028371:23
#028321:0013
#028361:0000000000003323
#0293b1:00001333
#029371:0000000000530053
#0303b1:23
#029360:00000013
#029320:0000000000000053
#030360:23
#030320:0000000000000013
#031360:0023000000000000
#031320:00001333
#031360:0000000000530053
#032320:23
#031371:00000013
#0313b1:0000000000000053
#032371:23
#032361:0000000000130000
#032321:0000000000000023
#033371:13
#0333b1:00230000
#033361:0000001300000000
#033321:0000000000230000
#033371:00000013
#0343b1:53
#034371:00230000
#034351:0000000000000013
#035321:53
#035351:0023000000000000
#035380:0013002300000000
#0353b0:00530000
#035351:0000001300002300
#035321:00000000000000000053000000000000
#036351:0013
#036321:00000023
#037321:0000001300000023
#037361:0000000000330000
#038341:0000132300000000
#038390:0000000000000000130000530000000000000000000000000000000000000000
#038370:00000000005323000000000000000000
#0383a0:000000000000000000000000000000000000000000000000000000000000000000000000000000000000000000000000000000000000000000000000000000000000000000000000000000000000000000000000000000000000000000000000000000000000000000000000000000000000000000000000000000000000000000000000000000000000000000000000000000000000000000000000000000000000000000000000000000000000000000000000000000000000000000000000000000000000000000000000000000000000000000000000000000000000000000000000000000000000000000000000000000000000000000000000000000000000000000000000000000000000000000000000000000000000000000000000000000000000000000000000000000000000000000000000000000000000000000000000000000000000000000000000000000000000000000000000000000000000000000000000000000000000000000000000000000000000000000000000000000000000000000000000000000000000000000000000000000000000000000000000000000000000000000000000000000000000000000000000000000000000000000000000000000000000000000000000000000000000000000000000000000000000000000000000000000000000000000000000000000000000000000000000000000000000000000000000000000000000000000000000000000000000000000000000000000000000000000000000000000000000000000000000000000000000000000000000000000000000000000000000000000000000000000000000000000000000000000000000000000000000000000000000000000000000000000000000000000000000000000000000000000000000000000000000000000000000000000000000000000000000000000000000000000000000000000000000000000000000000000000000000000000000000000000000000000000000000000000000000000000000000000000000000000000000000000000000000000000000000000000000000000000000000000000000000000000000000000000000000000000000000000000000000000000000000000000000000000000000000000000000000000000000000000000000000000000000000000000000000000000000000000000000000000000000000000000000000000000000000000000000000000000000000000000000000000000000000000000000000000000000000000000000000000000000000000000000000000000000000000000000130000000000000000000000000000000000000000000000000000000000000000000000000000000000000000000000000000000000000000000000000000000000000000000000000000000000000000000000000000000000000000000000000000000000000000000000000000000000000000000000000000000000000000000000000000000000000000000000000000000053000000000000000000000000000000000000000000000000000000000000000000000000000000000000000000000000000000000000000000000000000000000000000000000000000000000000000000000000000000000000230000000000000000000000000000000000000000000000000000000000000000000000000000000000000000000000000000000000000000000000000000000000000000000000000000000000000000000000000000000000000000000000000000000000000000000000000000000000000000000000000000000000000000000000000000000000000000000000000000000000000000000000000000000000000000000000000000000000000000000000000000000000000000000000000000000000000000000000000000000000000000000000000000000000000000000000000000000000000000000000000000000000000000000000000000000000000000000000000000000000000000000000000000000000000000000000000000000000000000000000000000000000000000000000000000000000000000000000000000000000000000000000000000000000000000000000000000000000000000000000000000000000000000000000000000000000000000000000000000000000000000000000000000000000000000000000000000000000000000000000000000000000000000000000000000000000000000000000000000000000000000000000000000000000000000000000000000000000000000000000000000000000000000000000000000000000000000000000000000000000000000000000000000000000000000000000000000000000000000000000000000000000000000000000000000000000000000000000000000000000000000000000000000000000000000000000000000000000000000000000000000000000000000000000000000000000000000000000000000000000000000000000000000000000000000000000000000000000000000000000000000000000000000000000000000000000000000000000000000000000000000000000000000000000000000000000000000000000000000000000
#038390:00000000000000000000000000000000000000000000000000000000000000000000000000540000000000000000000000000000000000000000000000000000
#038351:000000000000000000000000000000000000000000000000000000000000000000000000000000000000000000000000000000000000000000000000000000000000000000000000000000000000000000000000000000000000000000000000000000000000000000000000000000000000000000000000000000000000000000000000000000000000000000000000000000000000000000000000000000000000000000000000000000000000000000000000000000000000000000000000000000000000000000000000000000000000000000000000000000000000000000000000000000000000000000000000000000000000000000000000000000000000000000000000000000000000000000000000000000000000000000000000000000000000000000000000000000000000000000000000000000000000000000000000000000000000000000000000000000000000000000000000000000000000000000000000000000000000000000000000000000000000000000000000000000000000000000000000000000000000000000000000000000000000000000000000000000000000000000000000000000000000000000000000000000000000000000000000000000000000000000000000000000000000000000000000000000000000000000000000000000000000000000000000000000000000000000000000000000000000000000000000000000000000000000000000000000000000000000000000000000000000000000000000000000000000000000000000000000000000000000000000000000000000000000000000000000000000000000000000000000000000000000000000000000000000000000000000000000000000000000000000000000000000000000000000000000000000000000000000000000000000000000000000000000000000000000000000000000000000000000000000000000000000000000000000000000000000000000000000000000000000000000000000000000000000000000000000000000000000000000000000000000000000000000000000000000000000000000000000000000000000000000000000000000000000000000000000000000000000000000000000000000000000000000000000000000000000000000000000000000000000000000000000000000000000000000000000000000000000000000000000000000000000000000000000000000000000000000000000000000000000000000000000000000000000000000000000000000000000000000000000000000000000000000000000130000000000000000000000000000000000000000000000000000000000000000000000000000000000000000000000000000000000000000000000000000000000000000000000000000000000000000000000000000000000000000000000000000000000000000000000000000000000000000000000000000000000000000000000000000000000000000000000000000000053540000000000000000000000000000000000000000000000000000000000000000000000000000000000000000000000000000000000000000000000000000000000000000000000000000000000000000000000000000000000230000000000000000000000000000000000000000000000000000000000000000000000000000000000000000000000000000000000000000000000000000000000000000000000000000000000000000000000000000000000000000000000000000000000000000000000000000000000000000000000000000000000000000000000000000000000000000000000000000000000000000000000000000000000000000000000000000000000000000000000000000000000000000000000000000000000000000000000000000000000000000000000000000000000000000000000000000000000000000000000000000000000000000000000000000000000000000000000000000000000000000000000000000000000000000000000000000000000000000000000000000000000000000000000000000000000000000000000000000000000000000000000000000000000000000000000000000000000000000000000000000000000000000000000000000000000000000000000000000000000000000000000000000000000000000000000000000000000000000000000000000000000000000000000000000000000000000000000000000000000000000000000000000000000000000000000000000000000000000000000000000000000000000000000000000000000000000000000000000000000000000000000000000000000000000000000000000000000000000000000000000000000000000000000000000000000000000000000000000000000000000000000000000000000000000000000000000000000000000000000000000000000000000000000000000000000000000000000000000000000000000000000000000000000000000000000000000000000000000000000000000000000000000000000000000000000000000000000000000000000000000000000000000000000000000000000000000000000000000000000
#038361:00000000000000000000000000000000000000000000000000000000000000000000000000000000000000000000000000000000000000000000000000000000000000000000000000000000000000000000000000000000000000000000000000000000000000000000000000000000000000000000000000000000000000000000000000000000000000000000000000000000000000000000000000000000000000000000000000000000000000000000000000000000000000000000000000000000000000000000000000000000000000000000000000000000000000000000000000000000000000000000000000000000000000000000000000000000000000000000000000000000000000000000000000000000000000000000000000000000000000000000000000000000000000000000000000000000000000000000000000000000000000000000000000000000000000000000000000000000000000000000000000000000000000000000000000000000000000000000000000000000000000000000000000000000000000000000000000000000000000000000000000000000000000000000000000000000000000000000000000000000000000000000000000000000000000000000000000000000000000000000000014000000000000000000000000000000000000000000000000000000000000000000000000000000000000000000000000000000000000000000000000000054000000000000000000000000000000000000000000000000000000000000000000000000000000000000000000000000000000000000000000000000000000000000000000000000000000000000000000000000000000000000000000000000
#038341:000000000000000000000000000000000000000000000000000000000000000000000000000000000000000000000000000000000000000000000000000000000000000000000000000000000000000000000000000000000000000000000000000000000000000000000000000000000000000000000000000000000000000000000000000000000000000000000000000000000000000000000000000000000000005800000000280000000000000000000000000000000000000000000000
#039341:0012000000000000
#039331:000000000000000000000000000000000000000000000000000000000000000000000000000000000000000000000000000000000000000000000000000000000000000000000000000000000000000000000000000000000000000000000000000000000000000000000000000000000000000000000000000000000000000000000000000000000000000000000000000000000000000000000000000000000000000000000000000000000000000000000000000000000000000000000000000000000000000000000000000000000000000000000000000000000000000000000000000000000000000000000000000000000000000000000000000000000000000000000000000000000000545200000000000000000000000000000000000000000000000000000000000000000000000000000000000000000000000000000000000000000000000000000000000000000000000000000000000000000000000000000000000000000000000000000000000000000000000000000000000000000052000000000000000000000000000000000000000000000000000000000000005200000000000000000000000000000000000000000000000000000000000000000000000000000000000000000000000000000000000000000000220000000000000000000000000000000000000000000000000000000000000000000000000000000000000000000000000000000000000000000000000000000000000000000000000000000000000000000000000000000000000000000000000000000000000000000000000000000000000000000000000000000000000000000000000000000000000000000000000000000000000000000000000000000000000000000000000000000000000000000000000000000000000000000000000000000000000000000000000000000000000000000000000000000000000000000000000000000000000000000000000000000000000000000000000000000000000000000000000000000000000000000000000000000000000000000000000000000000000000000000000000000000000000000000000000000000000000000000000000000000000000000000000000000000000000000000000000000000000000000000000000000000000000000000000000000000000000000000000000000000000000000000000000000000000000000000000000000000000000000000000000000000000000000000000000000000000000000000000000000000000000000000000000000000000000000000000000000000000000000000000000000000000000000000000000000000000000000000000000000000000000000000000000000000000000000000000000000000000000000000000000000000000000000000000000000000000000000000000000000000000000000000000000000000000000000000000000000000000000000000000000000000000000000000000000000000000000000000000000000000000000000000000000000000000000000000000000000000000000000000000000000000000000000000000000000000000000000000000000000000000000000000000000000000000000000000000000000000000000000000000000000000000000000000000000000000000000000000000000000000000000000000000000000000000000000000000000000000000000000000000000000000000000000000000000000000000000000000000000000000000000000000000000000000000000000000000000000000000000000000000000000000000000000000000000000000000000000000000000000000000000000000000000000000000000000000000000000000000000000000000000000000000000000000000000000000000000000000000000000000000000000000000000000000000000000000000000000000000000000000000000000000000000000000000000000000000000000000000000000000000000000000000000000000000000000000000000000000000000000000000000000000000000000000000000000000000000000000000000000000000000000000000000000000000000000000000000000000000000000000000000000000000000000000000000000000000000000000000000000000000000000000000000000000000000000000000000000000000000000000000000000000000000000000000000000000000000000000000000000000000000000000000000000000000000000000000000000000000000000000000000000000000000000000000000000000000000000000000000000000000000000000000000000000000000000000000000000000000000000000000000000000000000000000000000000000000000000000000000000000000000000000000000000000000000000000000000000000000000000000000000000000000000000000000000000000000000000000000000000000000000000000000000000000000000000000000000000000000000000000000000000000000000000000000000000000000000000000000000000000000000000000000000000000000000000000000000000000000000000000
#039321:00000000000000000000000000545400000000000000000000000000000000000000000000000000000000000000000000000000000000000000000000000000
#039390:0012000000000000
#039380:000000000000000000000000000000000000000000000000000000000000000000000000000000000000000000000000000000000000000000000000000000000000000000000000000000000000000000000000000000000000000000000000000000000000000000000000000000000000000000000000000000000000000000000000000000000000000000000000000000000000000000000000000000000000000000000000000000000000000000000000000000000000000000000000000000000000000000000000000000000000000000000000000000000000000000000000000000000000000000000000000000000000000000000000000000000000000000000000000000000000545200000000000000000000000000000000000000000000000000000000000000000000000000000000000000000000000000000000000000000000000000000000000000000000000000000000000000000000000000000000000000000000000000000000000000000000000000000000000000000052000000000000000000000000000000000000000000000000000000000000005200000000000000000000000000000000000000000000000000000000000000000000000000000000000000000000000000000000000000000000220000000000000000000000000000000000000000000000000000000000000000000000000000000000000000000000000000000000000000000000000000000000000000000000000000000000000000000000000000000000000000000000000000000000000000000000000000000000000000000000000000000000000000000000000000000000000000000000000000000000000000000000000000000000000000000000000000000000000000000000000000000000000000000000000000000000000000000000000000000000000000000000000000000000000000000000000000000000000000000000000000000000000000000000000000000000000000000000000000000000000000000000000000000000000000000000000000000000000000000000000000000000000000000000000000000000000000000000000000000000000000000000000000000000000000000000000000000000000000000000000000000000000000000000000000000000000000000000000000000000000000000000000000000000000000000000000000000000000000000000000000000000000000000000000000000000000000000000000000000000000000000000000000000000000000000000000000000000000000000000000000000000000000000000000000000000000000000000000000000000000000000000000000000000000000000000000000000000000000000000000000000000000000000000000000000000000000000000000000000000000000000000000000000000000000000000000000000000000000000000000000000000000000000000000000000000000000000000000000000000000000000000000000000000000000000000000000000000000000000000000000000000000000000000000000000000000000000000000000000000000000000000000000000000000000000000000000000000000000000000000000000000000000000000000000000000000000000000000000000000000000000000000000000000000000000000000000000000000000000000000000000000000000000000000000000000000000000000000000000000000000000000000000000000000000000000000000000000000000000000000000000000000000000000000000000000000000000000000000000000000000000000000000000000000000000000000000000000000000000000000000000000000000000000000000000000000000000000000000000000000000000000000000000000000000000000000000000000000000000000000000000000000000000000000000000000000000000000000000000000000000000000000000000000000000000000000000000000000000000000000000000000000000000000000000000000000000000000000000000000000000000000000000000000000000000000000000000000000000000000000000000000000000000000000000000000000000000000000000000000000000000000000000000000000000000000000000000000000000000000000000000000000000000000000000000000000000000000000000000000000000000000000000000000000000000000000000000000000000000000000000000000000000000000000000000000000000000000000000000000000000000000000000000000000000000000000000000000000000000000000000000000000000000000000000000000000000000000000000000000000000000000000000000000000000000000000000000000000000000000000000000000000000000000000000000000000000000000000000000000000000000000000000000000000000000000000000000000000000000000000000000000000000000000000000000000000000000000000000000000000000000000000000000000000000000000000000000000000000000000
#039370:00000000000000000000000000545400000000000000000000000000000000000000000000000000000000000000000000000000000000000000000000000000
#039360:0000001323000000
#0393b1:0000000000000000000000001300005300000000000000000000000000000000
#039391:00000000000000532300000000000000
#039381:000000000000000000000000000000000000000000000000000000000000000000000000000000000000000000000000000000000000000000000000000000000000000000000000000000000000000000000000000000000000000000000000000000000000000000000000000000000000000000000000000000000000000000000000000000000000000000000000000000000000000000000000000000000000000000000000000000000000000000000000000000000000000000000000000000000000000000000000000000000000000000000000000000000000000000000000000000000000000000000000000000000000000000000000000000000000000000000000000000000000000000000000000000000000000000000000000000000000000000000000000000000000000000000000000000000000000000000000000000000000000000000000000000000000000000000000000000000000000000000000000000000000000000000000000000000000000000000000000000000000000000000000000000000000000000000000000000000000000000000000000000000000000000000000000000000000000000000000000000000000000000000000000000000000000000000000000000000000000000000000000000000000000000000000000000000000000000000000000000000000000000000000000000000000000000000000000000000000000000000000000000000000000000000000000000000000000000000000000000000000000000000000000000000000000000000000000000000000000000000000130000000000000000000000000000000000000000000000000000000000000000000000005300000000000000000000000000000000000000000000230000000000000000000000000000000000000000000000000000000000000000000000000000000000000000000000000000000000000000000000000000000000000000000000000000000000000000000000000000000000000000000000000000000000000000000000000000000000000000000000000000000000000000000000000000000000000000000000000000000000000000000000000000000000000000000000000000000000000000000000000000000000000000000000000000000000000000000000000000000000000000000000000000000000000000000000000000000000000000000000000000000000000000000000000000000000000000000000000000000000000000000000000000000000000000000000000000000000000000000000
#039371:0000000000000000000000000000000000000000000000000000000000000000000000000000000000000000000000000000000000000000000000000000000000000000000000000000000000000000000000000054000000000000000000000000000000000000000000000000000000000000000000000000000000000000
#039330:000000000000000000000000000000000000000000000000000000000000000000000000000000000000000000000000000000000000000000000000000000000000000000000000000000000000000000000000000000000000000000000000000000000000000000000000000000000000000000000000000000000000000000000000000000000000000000000000000000000000000000000000000000000000000000000000000000000000000000000000000000000000000000000000000000000000000000000000000000000000000000000000000000000000000000000000000000000000000000000000000000000000000000000000000000000000000000000000000000000000000000000000000000000000000000000000000000000000000000000000000000000000000000000000000000000000000000000000000000000000000000000000000000000000000000000000000000000000000000000000000000000000000000000000000000000000000000000000000000000000000000000000000000000000000000000000000000000000000000000000000000000000000000000000000000000000000000000000000000000000000000000000000000000000000000000000000000000000000000000000000000000000000000000000000000000000000000000000000000000000000000000000000000000000000000000000000000000000000000000000000000000000000000000000000000000000000000000000000000000000000000000000000000000000000000000000000000000000000000000000000000000000000000000000000000000000000000000000000000000000000000000000000000000000000000000000000000000000000000000000000000000000000000000000000000000000000000000000000000000000000000000000000000000000000000000000000000000000000000000000000000000000000000000000000000000000000000000000000000000000000000000000000000000000000000000000000000000000000000000000000000000000000000000000000000000000000000000000000000000000000000000000000000000000000000000000000000000000000000000000000000000000000000000000000000000000000000000000000000000000000000000000000000000000000000000000000000000000000000000000000000000000000000000000000000000000000000000000000000000000000000000000000000000000000000000000000000000000000000000000000000000000000000000000000000000000000000000000000000000000000000000000000000000000000000000000000000000000000000000000000000000000000000000000000000000000000000000000000000000000000000000000000000000000000000000000000000000000000000000000000000000000000000000000000000000000000000000000000000000000000000000000000000000000000000000000000000000000000000000000000000000000000000000000000000000000000000000000000000000000000000000000000000000000000000000000000000000000000000000000130000000000000000000000000000000000000000000000000000000000000000000000000000000000000000000000000000000000000000000000000000000000000000000000000053540000000000000000000000000000000000000000000000000000000000000000000000000000000000000000230000000000000000000000000000000000000000000000000000000000000000000000000000000000000000000000000000000000000000000000000000000000000000000000000000000000000000000000000000000000000000000000000000000000000000000000000000000000000000000000000000000000000000000000000000000000000000000000000000000000000000000000000000000000000000000000000000000000000000000000000000000000000000000000000000000000000000000000000000000000000000000000000000000000000000000000000000000000000000000000000000000000000000000000000000000000000000000000000000000000000000000000000000000000000000000000000000000000000000000000000000000000000000000000000000000000000000000000000000000000000000000000000000000000000000000000000000000000000000000000000000000000000000000000000000000000000000000000000000000000000000000000000000000000000000000000000000000000000000000000000000000000000000000000000000000000000000000000000000000000000000000000000000000000000000000000000000000000000000000000000000000000000000000000000000000000000000000000000000000000000000000000000000000000000000000000000000000000000000000000000000000000000000000000000000000000000000000000000000000000000000000000000000000000000000000000000000000000000000000000
#039360:00000000000000000000000000000000000000000000000000000000000000000000000000000000000000000000000000000000000000000000000000000000000000000000000000000000000000000000000000000000000000000000000000000000000000000000000000000000000000000000000000000000000000000000000000000000000000000000000000000000000000000000000000000000000000000000000000000000000000000000000000000000000000000000000000000000000000000000000000000000000000000000000000000000000000000000000000000000000000000000000000000000000000000000000000000000000000000000000000000000000000000000000000000000000000000000000000000000000000000000000000000000000000000000000000000000000000000000000000000000000000000000000000000000000000000000000000000000000000000000000000000000000000000000000000000000000000000000000000000000000000000000000000000000000000000000000000000000000000000000000000000000000000000000000000000000000000000000000000000000000000000000000000000000000000000000000000000000000000000000000014000000000000000000000000000000000000000000000000000000000000000000000000000000000000000000000000000000000000000000000000000054000000000000000000000000000000000000000000000000000000000000000000000000000000000000000000000000000000000000000000000000000000000000000000000000000000000000000000000000000000000000000000000000
#039340:000000000000000000000000000000000000000000000000000000000000000000000000000000000000000000000000000000000000000000000000000000000000000000000000000000000000000000000000000000000000000000000000000000000000000000000000000000000000000000000000000000000000000000000000000000000000000000000000000000000000000000000000000000000000005800000000280000000000000000000000000000000000000000000000
#041380:0013000000230000
#0413b0:0000003300000000
#041351:0000001300000000
#041321:0000000000230000
#0423b1:1323
#042371:00530000
#042360:0013
#042320:00000053
#043360:23
#0433b1:1323
#043371:00530000
#043360:0013
#043320:00000053
#044360:23
#044380:0013
#0443b0:00000023
#045350:13
#045320:00230000
#045370:0000001300000000
#0453b0:0000000000230000
#045361:0000000000130000
#045321:0000000000000023
#0463b1:000000000000000000000000000000000000000000000000000000000000000000000000000000000000000000000000000000000000000000000000000000000000000000000000000000000000000000000000000000000000000000000000000000000000000000000000000000000000000000000000000000000000000000000000000000000000000000000000000000000000000000000000000000000000000000000000000000000000000000000000000000000000000000000000000000000000000000000000000000000000000000000000000000000000000000000000000000000000000000000000000000000000000000000000000000000000000000000000000000000000000000000000000000000000000000000000000000000000000000000000000000000000000000000000000000000000000000000000000000000000000000000000000000000000000000000000000000000000000000000000000000000000000000000000000000000000000000000000000000000000000000000000000000000000000000000000000000000000000000000000000000000000000000000000000000000000000000000000000000000000000000000000000000000000000000000000000000000000000000000000130000000000000000000000000000000000000000000000000000000000000000000000000000000000000000000000000000000000000000000000000000000000000000000000000000000000000000000000000000000000000000000000000000000000000000000000000000000000000000000000000000000000000000000000000000000000000000000000000000000053000000000000000000000000000000000000000000000000000000000000000000000000000000000000000000000000000000000000000000000000000000000000000000000000000000000000000000000000000000000000230000000000000000000000000000000000000000000000000000000000000000000000000000000000000000000000000000000000000000000000000000000000000000000000000000000000000000000000000000000000000000000000000000000000000000000000000000000000000000000000000000000000000000000000000000000000000000000000000000000000000000000000000000000000000000000000000000000000000000000000000000000000000000000000000000000000000000000000000000000000000000000000000000000000000000000000000000000000000000000000000000000000000000000000000000000000000000000000000000000000000000000000000000000000000000000000000000000000000000000000000000000000000000000000000000000000000000000000000000000000000000000000000000000000000000000000000000000000000000000000000000000000000000000000000000000000000000000000000000000000000000000000000000000000000000000000000000000000000000000000000000000000000000000000000000000000000000000000000000000000000000000000000000000000000000000000000000000000000000000000000000000000000000000000000000000000000000000000000000000000000000000000000000000000000000000000000000000000000000000000000000000000000000000000000000000000000000000000000000000000000000000000000000000000000000000000000000000000000000000000000000000000000000000000000000000000000000000000000000000000000000000000000000000000000000000000000000000000000000000000000000000000000000000000000000000000000000000000000000000000000000000000000000000000000000000000000000000000000000000000000000000000000000000000000000000000000000000000000000000000000000000000000000000000000000000000000000000000000000000000000000000000000000000000000000000000000000000000000000000000000000000000000000000000000000000000000000000000000000000000000000000000000000000000000000000000000000000000000000000000000000000000000000000000000000000000000000000000000000000000000000000000000000000000000000000000000000000000000000000000000000000000000000000000000000000000000000000000000000000000000000000000000000000000000000000000000000000000000000000000000000000000000000000000000000000000000000000000000000000000000000000000000000000000000000000000000000000000000000000000000000000000000000000000000000000000000000000000000000000000000000000000000000000000000000000000000000000000000000000000000000000000000000000000000000000000000000000000000000000000000000000000000000000000000000000000000000000000000000000000000000000000000000000000000000000000000000000000000000000000
#0463a1:00000000000000000000000000000000000000000054000000000000000000000000000000000000000000000000000000000000000000000000000000000000
#046360:000000000000000000000000000000000000000000000000000000000000000000000000000000000000000000000000000000000000000000000000000000000000000000000000000000000000000000000000000000000000000000000000000000000000000000000000000000000000000000000000000000000000000000000000000000000000000000000000000000000000000000000000000000000000000000000000000000000000000000000000000000000000000000000000000000000000000000000000000000000000000000000000000000000000000000000000000000000000000000000000000000000000000000000000000000000000000000000000000000000000000000000000000000000000000000000000000000000000000000000000000000000000000000000000000000000000000000000000000000000000000000000000000000000000000000000000000000000000000000000000000000000000000000000000000000000000000000000000000000000000000000000000000000000000000000000000000000000000000000000000000000000000000000000000000000000000000000000000000000000000000000000000000000000000000000000000000000000000000000000000130000000000000000000000000000000000000000000000000000000000000000000000000000000000000000000000000000000000000000000000000000000000000000000000000000000000000000000000000000000000000000000000000000000000000000000000000000000000000000000000000000000000000000000000000000000000000000000000000000000053540000000000000000000000000000000000000000000000000000000000000000000000000000000000000000000000000000000000000000000000000000000000000000000000000000000000000000000000000000000000230000000000000000000000000000000000000000000000000000000000000000000000000000000000000000000000000000000000000000000000000000000000000000000000000000000000000000000000000000000000000000000000000000000000000000000000000000000000000000000000000000000000000000000000000000000000000000000000000000000000000000000000000000000000000000000000000000000000000000000000000000000000000000000000000000000000000000000000000000000000000000000000000000000000000000000000000000000000000000000000000000000000000000000000000000000000000000000000000000000000000000000000000000000000000000000000000000000000000000000000000000000000000000000000000000000000000000000000000000000000000000000000000000000000000000000000000000000000000000000000000000000000000000000000000000000000000000000000000000000000000000000000000000000000000000000000000000000000000000000000000000000000000000000000000000000000000000000000000000000000000000000000000000000000000000000000000000000000000000000000000000000000000000000000000000000000000000000000000000000000000000000000000000000000000000000000000000000000000000000000000000000000000000000000000000000000000000000000000000000000000000000000000000000000000000000000000000000000000000000000000000000000000000000000000000000000000000000000000000000000000000000000000000000000000000000000000000000000000000000000000000000000000000000000000000000000000000000000000000000000000000000000000000000000000000000000000000000000000000000000000000000000000000000000000000000000000000000000000000000000000000000000000000000000000000000000000000000000000000000000000000000000000000000000000000000000000000000000000000000000000000000000000000000000000000000000000000000000000000000000000000000000000000000000000000000000000000000000000000000000000000000000000000000000000000000000000000000000000000000000000000000000000000000000000000000000000000000000000000000000000000000000000000000000000000000000000000000000000000000000000000000000000000000000000000000000000000000000000000000000000000000000000000000000000000000000000000000000000000000000000000000000000000000000000000000000000000000000000000000000000000000000000000000000000000000000000000000000000000000000000000000000000000000000000000000000000000000000000000000000000000000000000000000000000000000000000000000000000000000000000000000000000000000000000000000000000000000000000000000000000000000000000000000000000000000000000000000000000000000000
#046330:0000000000000000000000000000000014005457240000000000000000000000
#0463a0:0000000000001323
#046380:00000000000000000000000000530000
#046361:0000000000001222
#047331:00000000000000000000000000000000000000000000000000000000000000000000000000000000130053562300000000000000000000000000000000000000
#0473a1:0000000000001323
#047381:00000000000000000000000000530000
#047360:0000000000001222
#0493b0:0000001300000000
#049380:0000000000230000
#049351:0000000000130000
#049321:0000000000000023
#050321:1323
#050361:00530000
#050370:0013
#0503b0:00000053
#051370:23
#051321:1323
#051361:00530000
#051370:0013
#0513b0:00000053
#052370:23
#052350:0000000013230000
#052380:0000000000001323
#053320:0013000000000000
#053360:0000002300000000
#0533b0:0000000000000013
#054380:53
#0543b0:0023000000000000
#054320:0000001300230000
#054350:0053
#0543b0:0000000000001323
#0563b0:1323000000000000
#056320:0000000013230000
#0573b0:1323000000000000
#057320:0000001300000000
#057360:0000000000230000
#057370:0000000000000013
#0583b0:0023000000000000
#058370:0000001300000000
#0583b0:0000000033230000
#059350:0013003300002300
#059320:00000000530000000053000000000000
#059381:0013003300002300
#0593b1:00000000530000000053000000000000
#060381:0000000013230000
#060351:0000000000001323
#0613b1:0013000000000000
#061371:0000002300000000
#061321:0000000000000013
#062351:53
#062321:0023000000000000
#0623b1:0000001300230000
#062381:0053
#062321:0000000000001323
#064321:1323000000000000
#0643b1:0000000013230000
#065321:1323000000000000
#0653b1:0000001300000000
#065371:0000000000230000
#065361:0000000000000013
#066321:0023000000000000
#0663b1:0000001300000000
#066371:0000000000230000
#066321:0000000000000013
#067361:0033000000000000
#067321:0000002300000000
#0673b0:0013000000000000
#067370:0000002300000000
#0673b0:00000013
#068370:33000023
#0683b0:0000005300000000
#068321:13000023
#068361:0000005300000000
#069321:0000001323000000
#0713b1:00000013
#071371:0000000000000023
#072321:0000001300230000
#073351:0000001323000000
#0743b1:0000001323000000
#076381:00000013000000000000000000000000
#0763b1:0000002300000000
#077351:0013
#077321:0000000000230000
#0773b1:00000013
#077381:0000000000000023
#078321:0013000000000000
#078361:0000002300000000
#0783b1:0000000000000013
#079381:53
#0793b1:0023000000000000
#079321:0000001300230000
#079351:0053
#079371:00000013
#0793b1:0000000000000023
#080321:13
#080361:0023000000000000
#0813b1:13
#081381:0023000000000000
#081321:0013
#081351:0000000000230000
#0823b1:13
#082381:0023000000000000
#082321:0000001300000000
#082361:0000000000230000
#082371:0000000000000013
#0833b1:0023000000000000
#084351:0013003300002300
#084321:00000000530000000053000000000000
#084380:0013003300002300
#0843b0:00000000530000000053000000000000
#085380:0013
#0853b0:0000000000230000
#085320:00000013
#085350:0000000000000023
#0863b0:0013000000000000
#086370:0000002300000000
#086320:0000000000000013
#087350:53
#087320:0023000000000000
#0873b0:0000001300230000
#087380:0053
#087360:00000013
#087320:0000000000000023
#0883b0:13
#088370:0023000000000000
#089320:13
#089350:0023000000000000
#0893b0:0013
#089380:0000000000230000
#090320:13
#090350:0023000000000000
#0903b0:0000001300000000
#090370:0000000000230000
#090360:0000000000000013
#091320:0023000000000000
#091320:0000000000000013
#092360:0023000000000000
#0933b0:13
#094380:53
#0953b0:23
#093321:13
#094351:53
#095321:23
#095371:0000000000000013
#096371:0023000000000000
#097321:13230000
#097370:13230000
#098370:0013230000000000
#098320:0013
#098360:00000033
#099320:23
#099360:0000000000000013
#100360:0023000000000000
#1013b0:13230000
#101361:13230000
#101371:0000000000000013
#1043b1:23
