This file was generated by Ched 2.6.4.0.
#TITLE ""
#ARTIST ""
#DESIGNER ""
#DIFFICULTY 0
#PLAYLEVEL
#SONGID ""
#WAVE ""
#WAVEOFFSET 0
#JACKET ""
#REQUEST "ticks_per_beat 480"
#00002: 4
#BPM01: 175
#00008: 01
#TIL00: ""
#HISPEED 00
#MEASUREHS 00
#00312:00130000
#00315:0000000013130000
#00318:00130000
#0031b:0013
#00412:00130000
#00415:0013
#00515:0000000000130000
#00518:0000001300000013
#0051b:0000000000130000
#00512:0000001300000013
#00615:00130000
#00612:0013
#0061b:0013000000000000
#0111b:1313
#01112:0000130000000013
#01115:2300000000130000
#01118:00230013
#01110:41
#0121b:13
#01212:0013000000000000
#01215:00000013
#01218:0000000000130000
#01315:00130013
#0131b:0000000000000013
#01418:0013000000130000
#01412:13000013
#01415:0000001300000000
#0151b:1313
#01515:0013000000130000
#01518:00130013
#01512:0000001300000013
#0161b:1300001300000000
#01615:0013000000001300
#01618:0000000000000013
#01712:00130000
#01718:0000001300130000
#01715:00001313
#0171b:0000000000000013
#0181a:0014001400000000
#01817:00000000140000000014000000000000
#01815:13
#02615:0013
#02618:0013000000130000
#02818:00130000
#02815:0013
#02812:00000033
#02810:41
#0291b:0013000000000000
#02915:00130013
#02918:0000001300000000
#02912:0013
#0301b:0000130000000013
#03012:0013
#03018:0000000000130000
#03015:00130013
#03212:0013000000000000
#03218:00131300
#03215:0000001300130000
#03418:0000000000130000
#03415:00000013
#0341b:0000000000000013
#03412:0013
#03615:00131300
#03618:0000001300000013
#03612:23
#0361b:23
#03715:13130000
#03718:0013000000130000
#0371b:0000001300000000
#04018:00130000
#04012:0013
#0401b:00000013
#04015:0000000000000013
#04118:13000013
#04115:0013000000000013
#04112:0000001300000000
#04418:0000001300000013
#04415:0013
#04412:00130000
#04410:41
#04512:13
#0451b:0000001300000000
#04518:0000000000130000
#04912:13
#04918:0013000000130000
#04915:00130000
#0491b:0000001300000000
#0671b:0013
#06715:0013000000130000
#06915:0013000000000000
#06918:0000130000330000
#06912:0000001300000000
#0691b:00000000000000000000000000330000
#0701b:0000000000130000
#07012:13000013
#07018:0000000000000013
#07015:00333333333300000000000000000000
#07115:13
#0711b:00001300000013333300333300000000
#07112:00130000
#07118:00000000000000000013000000000000
#07212:00130000
#07215:13000013
#07218:0013000000000013
#07312:13000000003300000000000000000000
#0731b:0013000000000000
#07318:0000000000130000
#07315:00000013
#07515:0000130000000013
#07518:0000001300001300
#0751b:00330000000000000000000000000000
#07512:00000000000000000033000000000000
#07618:0013
#0761b:13
#07615:0013000000000000
#07612:00000033000000000000000000000000
#09512:0000130000000013
#0951b:00130000
#09518:0000000013000013
#09515:0000000000130000
#09510:41
#09615:0013000000000000
#0961b:00130000
#09612:0013
#09618:00000013
#09718:0000001300000013
#09715:0000000000130000
#09712:0000002300000023
#0971b:0000000000230000
#09815:0013000000000000
#09818:00130000
#00718:1300000013130000
#0071b:00130000
#00715:00130000
#00712:2313
#03318:13000013
#03315:0000001300000000
#03512:0000001300000000
#03518:0000001300000000
#05318:0013000000001300
#05315:0000000000130000
#05312:1300000000000013
#05418:00130013
#05415:0000001300000013
#0551b:13
#05512:0013000000140000
#05516:0000001400000000
#0551a:00000014
#05615:0013001300001300
#05618:0000130000130013
#0561b:1313
#05612:1313
#05712:13000013
#05715:0013000000000000
#0571b:1300000000000013
#05718:0000001300000000
#0581b:0000001300000013
#05815:00130013
#05812:0013
#05818:0000000000130000
#05912:13
#0591a:0014001400000000
#05917:00000000140000000014000000000000
#07712:0013
#07718:0000000000130000
#07715:23000013
#0771b:0000230000000013
#0771f:21
#07818:0013000000000013
#07812:1300000000130000
#07815:00000013
#07810:41
#07918:00130000
#07915:0000001300000013
#0791b:00000013
#08018:13
#08012:0013000000240000
#08016:0000002400000000
#0801a:00000024
#08118:0013001300001300
#08115:0000130000130013
#0811b:1313
#08112:1313
#08212:1300001300000000
#08218:0013000000001300
#08215:0000000000000013
#0821b:13
#08316:0000000000140000
#08318:00130014
#08314:0000000000000014
#0831a:0014
#08315:0000001300000000
#0841a:1424001400000000
#08412:1424001400000000
#08418:00000000140000000014000000000000
#08414:00000000140000000014000000000000
#00212:13
#0021b:13
#0081b:00130000
#00818:0013
#00918:0000000000130000
#00915:0000001300000013
#00912:0000000000130000
#0091b:0000001300000013
#01012:0013000000000000
#01018:00130000
#0101b:0013
#01912:1313
#0191b:0000130000000013
#01918:2300000000130000
#01915:00230013
#02012:13
#0201b:0013000000000000
#02018:00000013
#02015:0000000000130000
#02118:00130013
#02112:0000000000000013
#02215:0013000000130000
#0221b:13000013
#02218:0000001300000000
#02312:1313
#02318:0013000000130000
#02315:00130013
#0231b:0000001300000013
#02412:1300001300000000
#02418:0013000000001300
#02415:0000000000000013
#0251b:00130000
#02515:0000001300130000
#02518:00001313
#02512:0000000000000013
#02712:13
#02715:0013
#03112:0000001300000000
#0311b:0013
#03118:00000013
#03812:00130013
#03818:00130013
#03815:0013
#0381b:0013
#03915:0013000000001300
#03918:00130000
#03912:0000001300000000
#0391b:0000000000130000
#0421b:13
#04218:0013
#0431b:13
#04318:0013
#04818:00130000
#0481b:0013
#05012:13
#05015:0013
#05112:13
#05115:0013
#05212:0013
#05218:0000000000130000
#05215:00230013
#0521b:0000230000000013
#06115:0013000000001300
#06118:0000000000130000
#0611b:1300000000000013
#06215:00130013
#06218:0000001300000013
#06312:13000014
#0631a:0000000000140000
#0631b:0013000000000000
#06316:0000001400000000
#06418:0013001300001300
#06415:0000130000130013
#06412:1313
#0641b:1313
#0651b:13000013
#06518:0013000000000000
#06512:1300000000000013
#06515:0000001300000000
#06612:0000001300000013
#06618:00130013
#0661b:0013
#06615:0000000000130000
#0601b:2313
#06015:2300000000130000
#06018:00230013
#06012:0000230000000013
#06010:41
#0681b:13
#06818:0013
#0681f:11
#07412:0000000000130000
#07418:0033333300001300
#07415:0000000000000013
#0851b:0013
#08515:0000000000130000
#08518:23000013
#08512:0000230000000013
#08615:0013000000000013
#0861b:1300000000130000
#08618:00000013
#08715:00130000
#08718:0000001300000013
#08712:00000013
#08815:13
#0881b:0013000000000000
#08816:0000002400000000
#0881a:0000000000240000
#08812:00000024
#08915:0013001300001300
#08918:0000130000130013
#08912:1313
#0891b:1313
#0901b:1300001300000000
#09015:0013000000001300
#09018:0000000000000013
#09012:13
#09115:00130013
#09118:0000001300130000
#0911b:0013
#09112:0000000000000013
#09218:00131300
#09215:0000001300000000
#09212:0000000000232300
#0921b:0000000000232300
#0991b:0000130000000013
#09912:00130000
#09915:0000000013000013
#09918:0000000000130000
#10018:0013000000000000
#10012:00130000
#1001b:0013
#10015:00000013
#10115:0000001300000013
#10118:0000000000130000
#1011b:0000002300000023
#10112:0000000000230000
#0931b:23
#09312:23
#04612:23000024
#04615:00230000
#04618:0023000000000000
#0461a:0024
#04712:00000023
#04718:00230000
#04715:0000002300000000
#0471b:0000000000230000
#00452:00630013
#00455:0063
#00655:00530013
#00652:0053
#01252:0053000000000000
#01255:0000001300000000
#01455:0000001300000000
#01452:00000013
#0185a:0054005400000000
#01857:00000000240000000024000000000000
#0165b:0000005300000000
#01658:0000000000000053
#01655:0013000000000000
#02855:0053
#02852:0000000000000013
#0305b:0000000000000053
#03255:0000000000530000
#03358:53000053
#03355:0000005300000000
#0345b:0000000000000063
#03552:0000006300000000
#03558:0000006300000000
#03655:0053
#0375b:0000006300000013
#03758:0000000000630000
#04058:00130000
#04052:0013
#04155:0063000000000000
#04152:0000006300000000
#04455:0053
#04552:53
#0455b:0000005300000000
#04558:0000000000530000
#0495b:0000005300000000
#04958:0000000000530000
#05358:0053000000000000
#0535b:0000001300000000
#05352:0000000000000053
#05755:0013000000000000
#0575b:0000000000000063
#05758:0000006300000000
#05556:0000001400000000
#0555a:00000014
#05455:0000005300000000
#07755:13
#0775b:00130000
#07858:0053000000000053
#0785b:0000001300000000
#08258:0013000000000000
#08255:0000000000000063
#08252:0000006300000000
#07955:0000005300000000
#08056:0000001400000000
#0805a:00000014
#0935b:53
#09352:63
#0965b:00130000
#09652:0013
#09658:00000013
#0025b:53
#00252:53
#0085b:00530013
#00858:0053
#01058:00630013
#0105b:0063
#0205b:0063000000000000
#02058:0000001300000000
#02458:0013000000000000
#02455:0000000000000063
#02452:0000006300000000
#02258:0000001300000000
#0225b:00000013
#02552:0000000000000053
#02658:0053000000000000
#02752:53
#02755:0023
#02952:0053
#02955:00000053
#0315b:0063
#03158:00000063
#0425b:53
#04258:0053
#0435b:53
#04358:0053
#04858:00530000
#0485b:0053
#05052:63
#05055:0063
#05152:63
#05155:0063
#0595a:0054005400000000
#05957:00000000240000000024000000000000
#06155:0063000000000000
#0615b:0000000000000063
#06152:0000001300000000
#06558:0013000000000000
#06552:0000000000000053
#06555:0000005300000000
#06356:0000001400000000
#06352:00000014
#06258:0000006300000000
#06652:0000000000000053
#06755:0053000000000000
#0685b:53
#06858:0023
#07052:53
#07055:0000001300000000
#0715b:0000005300000000
#07158:00000000000000000023000000000000
#07655:0053000000000000
#0845a:0054005400000000
#08458:00000000240000000024000000000000
#08452:0064006400000000
#08454:00000000240000000024000000000000
#08655:0063000000000063
#08652:0000001300000000
#09055:0013000000000000
#09058:0000000000000053
#0905b:0000005300000000
#08758:0000006300000000
#08558:13
#08552:00130000
#08856:0000001400000000
#08852:00000014
#09152:0000000000000053
#10052:00130000
#1005b:0013
#10055:00000013
#002320:13
#003350:23
#0023b1:13
#003381:23
#003381:0000000000000013
#004381:0023000000000000
#004321:00130023
#004351:0033
#0053b1:13230000
#006351:00130023
#006321:0033
#007351:0000000000000013
#008351:0023000000000000
#0083b1:00130023
#008381:0033
#009321:13230000
#010381:00130023
#0103b1:0033
#012321:0013000000000000
#012351:0000002300000000
#0123b1:0000000000000013
#0133b1:0023000000000000
#013381:0000001300230000
#0163b1:0000001300000000
#016381:0000000000230000
#016381:0000000000000013
#0173b1:0023000000000000
#0183a1:0014003400002400
#018371:00000000540000000054000000000000
#0203b1:0013000000000000
#020381:0000002300000000
#020321:0000000000000013
#021321:0023000000000000
#021351:0000001300230000
#024321:0000001300000000
#024351:0000000000230000
#024351:0000000000000013
#025321:0023000000000000
#025321:0000000000000013
#026351:0023000000000000
#026380:0013000000000000
#0263b0:0000002300000000
#026350:00000013
#027320:33
#027350:0033
#028320:23
#028350:0013
#028320:0000000000003323
#029320:0013
#029350:00000033
#030320:23
#0303b0:0000000000000013
#031380:0023000000000000
#0313b0:0013
#031380:00000033
#0323b0:23
#032350:0000000000130000
#032320:0000000000000023
#033380:13
#0333b0:00230000
#033350:0000001300000000
#033320:0000000000230000
#033380:00000013
#0343b0:00230000
#0343b0:0000000000000013
#035380:0023000000000000
#035320:0000001300000000
#035350:00000023
#035381:0000001300000000
#0353b1:00000023
#036351:0013
#036321:00000023
#0373b1:0000001300000023
#037381:0000000000330000
#041351:0013000000230000
#041321:0000003300000000
#0423b1:13
#042381:0033
#0433b1:33
#043381:0033
#0443b1:23
#044351:0013
#044321:00000023
#045321:13
#045351:00230000
#0453b1:0000001300000023
#045381:0000000000330000
#048381:00130023
#0483b1:0033
#0493b1:0000001300000023
#049381:0000000000330000
#050321:13
#050351:0033
#051321:33
#051351:0033
#052321:23
#053381:0013000000000000
#0533b1:0000002300000000
#053321:0000000000000013
#054351:0023000000000000
#054351:0000001300000000
#054321:0000000000230000
#057381:0000001300000000
#0573b1:0000000000230000
#0573b1:0000000000000013
#058381:0023000000000000
#0593a1:0014003400002400
#059371:00000000540000000054000000000000
#061351:0013000000000000
#061321:0000002300000000
#0613b1:0000000000000013
#062381:0023000000000000
#062381:0000001300000000
#0623b1:0000000000230000
#065351:0000001300000000
#065321:0000000000230000
#065321:0000000000000013
#066351:0023000000000000
#066321:0000000000000013
#067351:0033000000000000
#067321:0000002300000000
#067381:00000013
#0683b1:33
#068381:0033
#0693b1:23
#0693b1:00000000000000001300000000332300
#069381:00000000000000000000333300000000
#070321:13
#070351:00333333333323000000000000000000
#0713b1:00000000000013333300333333002300
#071381:00000000000000000033000000000000
#0723b1:0000001300230000
#073351:00130000
#073321:00000000003333002300000000000000
#0733b1:0000000000000013
#0743b1:33
#074381:0033333323000000
#0753b1:13330000000000000000000000000000
#075381:0023000000000000
#075321:00000000000000001333000000000000
#075351:0000000000230000
#076351:0013000000000000
#076321:00000033000023000000000000000000
#076351:0000000000133333
#076341:00000000000000000000003300330033
#077351:23
#078381:0013000000000000
#0783b1:0000002300000000
#078381:0000000000000013
#0793b1:0023000000000000
#079351:0000001300000000
#079321:0000000000230000
#082321:0000001300000000
#082351:0000000000230000
#082351:0000000000000013
#083321:0023000000000000
#0843a1:0014003400002400
#084381:00000000540000000054000000000000
#084320:0014003400002400
#084340:00000000540000000054000000000000
#086350:0013000000000000
#086320:0000002300000000
#086350:0000000000000013
#087320:0023000000000000
#087380:0000001300000000
#0873b0:0000000000230000
#0903b0:0000001300000000
#090380:0000000000230000
#090380:0000000000000013
#0913b0:0023000000000000
#091320:0000000000000013
#092350:0023000000000000
#0933b0:13
#095380:23
#093321:13
#095351:23
#097351:13230000
#098381:0013
#0983b1:00000033
#099381:23
#098320:0013
#098350:00000033
#099320:23
#101380:13230000
#1013b0:0000000000000013
#104380:23
#101351:0000000000000013
#104321:23
