This file was generated by Ched 2.6.4.0.
#TITLE ""
#ARTIST ""
#DESIGNER ""
#DIFFICULTY 0
#PLAYLEVEL
#SONGID ""
#WAVE ""
#WAVEOFFSET 0
#JACKET ""
#REQUEST "ticks_per_beat 480"
#00002: 4
#BPM01: 175
#00008: 01
#TIL00: ""
#HISPEED 00
#MEASUREHS 00
#00212:1300001300001300
#00218:00000013000000000013001300001300
#00215:00000000130000001300130000000013
#0021b:1300131300001300
#00312:1300130013000014
#00316:00000000000000000000130000140014
#0031b:2300130013130000
#0031a:00000014
#00315:0000001300000000
#00318:00000000001300130000000000000000
#00512:0000001313131300
#0051b:13131313
#00515:00000013000000000000000000000000
#00518:0013000000000000
#00517:0000001300130013
#0111b:13
#01112:2600130000130013
#01115:0013000000000000
#01118:0000261300000000
#01116:00001313
#01110:41
#0121b:1300001300001313
#01212:0013000000130000
#01216:1300130000141413
#01217:0013000000000000
#01312:1300131300130013
#01315:00000000000000000000001300000000
#01318:00000013
#0131b:0013000013000013
#01317:1300001300000000
#01316:00141300
#01417:0000001300000000
#0141b:0000000000130000
#01416:00001300000000000013130014001400
#01412:1300001300001300
#01419:00131300
#0151b:1313
#01515:0019001600000016
#01518:00130013
#01512:1300000013190000
#0161b:1300001300000013
#01612:0013000013001300
#01616:1414001300130013
#01617:00001313
#01712:1414000014140000
#01716:00140014140014000014001414001400
#0171a:00000000001400140000000000140014
#0261b:13131300
#02615:0013000000131300
#02612:13131300
#02618:00000000000013000000001300001300
#02812:1200001300130016
#0281b:00130013
#02817:0013
#02818:0000000000000016
#02816:00130000
#02819:0000001300130000
#02814:0013
#02810:41
#02912:0013000013130013
#02916:00130013
#02918:0000001300000000
#0291b:00131300
#02917:0013000000130013
#02915:13000000000000130000000000000000
#02914:00000000000000000000000000000033
#02919:00000000000000000000003300000000
#03017:00130013
#0301b:1300000013130013
#03012:0018131813181318
#03117:0013000000000000
#0311b:00130000
#03112:0013000000000000
#03116:00000000130000000012001200000000
#03118:0000000012121200
#03114:0000000000000012
#0311a:0000000000000012
#0321b:0013000013000000
#03219:00130000
#03217:0000001300000000
#0321c:12
#03212:1200001300001300
#03216:0013000013000000
#03214:00130000
#03218:0000000000130000
#03215:0000000000131300
#0341b:00130000
#03412:00231323
#03418:0013000000000000
#03415:00000013000000000000000000000000
#03615:00130000
#03618:2613001300000000
#03616:0013
#0361b:00001313
#03619:0000000000130013
#03614:0000000000000013
#03612:26
#03716:1313
#03719:0013001300130013
#03712:00130013
#0371b:13131313
#03714:0013001300130000
#0401b:00130013
#04017:1313
#04016:0014001400140014
#04012:13131313
#04116:0014000000000000
#0411a:0000001400000000
#0411b:13000013
#04117:0000000000000013
#04112:13131313
#06916:00001400000000001400001400001400
#06912:00140000
#0691a:14
#07012:1600161600000000
#07015:0013000016000000
#07018:00160013000000000000000000000000
#0701b:0000000000130013
#07017:00000013
#07112:13000000000016000016000000001600
#07114:0013000000000000
#07116:00130000
#07118:00000000000000131300160000000000
#07115:00000000000000000000001300000000
#07117:13
#07119:0013000000000000
#0711b:00130000
#07216:13130000
#07217:0000001300001300
#0721b:0000000013130000
#07212:0013001300001300
#07214:0000000000000013
#07219:0000000000000013
#07312:0013000000120012
#07316:1300120000141414
#07318:00000000001200001600000000000000
#0731c:00000012
#0741a:1414140000000000
#07416:00120000000000001400000013000000
#07414:00000012000000000000000000000000
#07412:00000000001200000000130000001300
#07612:0014001400000000
#07616:00000014000000001400000000000000
#0761a:1400000000141414
#07617:00000000000000000000001300130013
#0771a:00140000
#07712:1400260000130013
#07716:0014001413131313
#0771b:00001313
#07718:26
#0771f:21
#0041a:1414140000000000
#0041b:00001313
#00415:0000001300130013
#00412:00001313
#00418:00000000000000130000001300000013
#00416:00130013000000000000000000000000
#0061b:1300000013001313
#00617:0013000000000000
#00616:00130000
#00615:00000000000000000013001300000000
#00618:0000000000130000
#00612:0013001300001313
#02515:00130000000000000000000000130000
#0251b:13
#0251a:0013000000000000
#02514:00000013000000000000001300000000
#02519:00130013
#02513:00000000001300000013000000000000
#02518:0000001300130013
#02512:00000000000000130000000000000000
#02517:0013
#03815:00000000001300000000000000000000
#03817:0000000000000000000000130000000000000000000000000000000000000000
#03919:00000000000000130000000000000000
#0391b:0000000000000000000000000000001300000000000000000000000000000000
#04612:0000000000000000000000000000000000001417000000000000000000000000
#04712:00000000000000000000000000000000000000000000000000000000000000000000000000000000000014170000000000000000000000000000000000000000
#05212:29130013
#05217:0013
#0521b:0000000000130000
#05216:0000000000000013
#05215:0016291600000000
#0531b:1313001300000000
#05316:0014000000141414
#05312:1300140000130013
#05317:00130000
#05412:0013000014000000
#05416:13000000140014000000001414000000
#0541b:0000001300130013
#0541a:14
#05417:0013
#05517:1313131313131313
#0551b:00001300001300000013000000000000
#05512:1300001400001400
#05615:0016001600161316
#05618:00130000
#0561b:0013
#05612:13
#05712:1300001300000000
#05715:0013160000000000
#05717:0000001300130000
#05719:00000013
#05716:0000000013000013
#05714:00000013
#0571b:0000000013000013
#06514:00000013
#06519:00000013
#0651b:1300001300000000
#06518:0013000000000000
#06516:0000001300130000
#06515:00160000
#06512:0000000013000013
#06517:0000000013000013
#0781b:13130000
#07812:0013000000140000
#07814:00000014
#07818:00000000000000000000001400000000
#07816:1300130000000014
#07817:0013000000000000
#0781a:00000000000000000000000000140000
#07810:41
#07914:00000014000000000000001400000000
#07918:00140000
#07916:0000001413000014
#07912:14000000001400000000140000000000
#07917:13
#0791a:0014000014000000
#08016:14141424
#0801a:0014000000240000
#08012:0000002400000000
#08116:00001300001400000000000000140000
#08115:0000131300000000
#08112:13
#08117:0000000000130000
#08118:0000000000001313
#0811b:0013
#08217:0000001300001300
#0821b:0000000013130013
#08212:1300001300001300
#08216:0013140000000013
#0991c:00120000
#09918:2600000012120000
#09912:26232323
#10018:00120000
#1001a:0012
#1001c:00000012
#10012:23232323
#1011c:0000001200000000
#10118:0000000000120000
#10115:0000000000000019
#10112:2300230023002323
#0071b:13131300
#00717:0000000000130000
#0071a:0000000000000014
#00712:2300130013131400
#00715:00000000001300130000000000000000
#00718:0000001300000000
#00716:00000000000000000000000000140014
#00817:00130013000000000000000000000000
#00812:1414140013001300
#00818:0000001300130013
#0081b:00001313
#00815:00000000000000130000001300000013
#00912:13
#00917:00130000000000000000000000000000
#00913:0013000000000013
#00918:00000013000000000000000000000013
#00914:00130013
#00919:00000000001300000000000000130000
#00915:0000001300130000
#0091a:00000000000000130000001300000000
#00916:0013
#0091b:00000000000000000013000000000000
#01018:0013001313000013
#01015:00000013000000130000001300000013
#0101b:23000000230000000023000023000000
#01012:23000000230000000023000023000000
#01912:13260000
#0191b:0000130000130013
#01918:2613000000000000
#01915:0000001300000000
#01917:00001313
#02012:1300001300001313
#0201b:0013000000130000
#02016:0013000000141400
#02017:1300130000000013
#0211b:1300131300130013
#02118:00000000000000000000001300000000
#02115:00000013
#02112:0013000013000013
#02116:1300141300000000
#02117:0013
#02216:0000001300001414
#02212:0000000000130000
#0221b:1300001300001300
#02217:00001300000000000013130000000000
#02214:00131300
#02312:1319000013000000
#02315:0000131600191316
#0231b:1313
#02412:1300001300000013
#0241b:0013000013001300
#02416:1414000013001300
#02417:0000001300130013
#01815:0013001313000013
#01818:00000013000000130000001300000013
#01812:23000000230000000023000023000000
#0181b:23000000230000000023000023000000
#0271c:1200000012120000
#0271a:0012001200000000
#02718:00120000
#02717:00000000000000000012000012000012
#02712:0000000000001212
#03315:1300001313001300
#03318:1313001300001313
#0331b:0013000000000013
#03312:0013
#03515:00001300000013001326130000000000
#03518:00000013000000130000001300000000
#03512:23230023
#0351b:00230023
#0421b:13
#04219:0013001300000000
#04217:00130013
#04212:23130013
#04216:0013
#04214:0000000000130013
#04315:00001313000013130000001300001300
#04318:00000000230000001300130000000013
#0431b:23000023
#04312:00000000000000000023000000000000
#04418:00130000
#04415:0013001300000000
#04417:0013
#04412:23001313
#04414:0000000000130013
#04419:0000000000000013
#0441b:23
#04410:41
#04517:1313
#04514:0013001300130013
#0451b:00130013
#04512:13131313
#04519:0013001300130000
#04812:00130013
#04816:1314001413140014
#0481b:13131313
#04912:13001313
#04916:0000130000130013
#0491b:13131313
#04914:0013001300000000
#05012:13
#05014:0013001300000000
#05016:00130013
#0501b:23130013
#05017:0013
#05019:0000000000130013
#05118:00001313000000000013000000130000
#0511b:00000000000013130000001300000013
#05115:00231313
#05112:2300000000130013
#05918:0013001313000013
#05915:00000013000000130000001300000013
#0591b:23000000230000000023000023000000
#05912:23000000230000000023000023000000
#0601b:00130013
#06016:0013
#06012:0000290000130000
#06017:0000000000000013
#06015:2916001600000000
#06010:41
#06112:1313001300000000
#06116:0014130000141414
#0611b:1300000000130013
#0611a:00140000
#0621b:0013000000000000
#06216:00000000140014001300001414000000
#06212:1400001300130013
#0621a:0014
#06217:13
#06316:1313131313131313
#06312:00001300001300000013000000000000
#0631b:13
#0631a:0000001400001400
#06415:0016131600160016
#06412:0013
#06418:00000013
#0641b:13
#0671a:14140000
#06716:0000141400000000
#06712:0014000014000000
#0671b:0013
#06718:0000000000131300
#06715:00000000000000000000001300001300
#06812:1200000012120000
#06814:0012001200000000
#06816:00120000
#06817:00000000000000000012000012000012
#0681c:0000000000001212
#0681f:11
#0751a:1414140000001414
#07516:00180000000000000000000000000018
#07514:00000014000000000000000000140000
#07512:00000000001400141814001400000000
#07518:0000001400140000
#08312:1613001300000000
#08315:00000000131600001300160000001300
#0831b:00000013000000130000001300130000
#08318:00130000000000000013000013000016
#08415:0013001313000013
#08418:00000013260000130000001326000013
#08412:26000000230000000026000023000000
#0841b:23000000000000000023000000000000
#08512:26141313
#0851a:14
#08516:0014001400000000
#08517:0000000013131313
#0851b:0000000000130013
#08518:00260000
#08612:13000000130000000000000000140000
#0861b:0013000000000000
#0861a:0000000000140000
#08618:00000014
#08614:00000000000000000000001400000000
#08616:0013000000000014
#08617:13130000
#08718:00000014000000000000001400000000
#08714:00140000
#08716:1300001400000014
#0871a:14000000001400000000140000000000
#08717:0013
#08712:0014000014000000
#08816:14141424
#08812:0014000000240000
#0881a:0000002400000000
#08917:0013000000000000
#0891b:13130000
#08918:0000001300000000
#08915:00000000001600000000000000161300
#08916:0000000000130000
#08912:00001313
#09016:0000141300001300
#09012:0000000013130013
#0901b:1300001300001300
#09017:0013000000000013
#09215:0016001600000000
#09212:2300160000262300
#09218:26001626
#0921b:0000000000230000
#09312:00140000001400000014000000140000
#09314:2414141414141414
#09316:00140014001400140014001400140014
#09318:2414141414141414
#0931a:00000014000000140000001400000014
#09414:1414141414141414
#09412:00140000001400000014000000140000
#09416:00140014001400140014001400140014
#09418:1414141414141414
#0941a:00000014000000140000001400000014
#0951b:00130000
#09517:0000000000130000
#0951a:0000000000000014
#09512:0000000013131400
#09516:00000000000000000000000000140014
#09510:41
#0971b:0000001313131300
#09712:13131313
#09718:00000013000000000000000000000000
#09715:0013000000000000
#09716:0000002300230023
#09612:1414000014001400
#09616:00140000140014000000140000000000
#0961b:00001313
#09618:0000000000000013
#09614:00000000000000140000001400000000
#09615:00000000000000000000000000000013
#0961a:00000014000000000000000000000000
#09812:1300000013001313
#09816:0013000000000000
#09817:00130000
#09818:00000000000000000013001300000000
#09815:0000000000130000
#0981b:0013001300001313
#0581b:1313000000000000
#05818:00130013000000000000000000000000
#05819:0000131300000000
#05816:00000000001300130000000000000000
#05817:0000000013130000
#05814:00000000000000000013001300000000
#05815:0000000000001313
#05812:00000000000000000000000000130013
#06612:1313000000000000
#06615:00130013000000000000000000000000
#06614:0000131300000000
#06617:00000000001300130000000000000000
#06616:0000000013130000
#06619:00000000000000000013001300000000
#06618:0000000000001313
#0661b:00000000000000000000000000130013
#0911b:0013001300000000
#09118:1600130013000013
#09115:00130000001600000013160013000000
#09112:00000013000000130000001300130016
#0065b:00000013
#01252:0053003300000000
#0125b:0000004300000000
#01256:0000230000000053
#01452:0000001300001300
#01456:0013000000000000
#0165b:1300005300000000
#01652:0013000000000000
#01657:0023
#02858:0000000000000016
#02852:1200002300230016
#02856:00530000
#02854:0053
#0295b:0053
#02957:0000000000230000
#02952:0000000000000023
#02956:00000053
#03157:0053000000000000
#0315b:00230000
#03152:0053000000000000
#03156:00230000
#03656:0053
#03652:16
#03658:16
#03759:0000000000000013
#03754:0000005300530013
#03756:0023
#03752:00000023
#03855:00000000005300000000000000000000
#03857:0000000000000000000000230000000000000000000000000000000000000000
#03959:00000000000000530000000000000000
#0395b:0000000000000000000000000000002300000000000000000000000000000000
#0405b:00130000
#04057:0013
#04156:0054000000000000
#0415a:0000005400000000
#04652:0000000000000000000000000000000000005427000000000000000000000000
#04752:00000000000000000000000000000000000000000000000000000000000000000000000000000000000054270000000000000000000000000000000000000000
#05356:0054004400000054
#0535b:0000004300000000
#05352:00240000
#05755:0013000000000000
#05752:0000006300000000
#05756:0023
#07052:0000001600000000
#07656:00000054000000000000000000000000
#07852:0053003300000000
#07857:0053003300000000
#0785b:00230000
#07856:0000230000000054
#08252:0000006300000000
#08256:0013000000000000
#08052:0000001400000000
#08056:00000014
#10058:00120000
#1005a:0012
#1005c:00000012
#10155:0000000000000059
#0035b:13
#00752:13
#01352:23
#0135b:0023
#01357:0000006300000000
#0155b:1313
#01558:00130013
#0205b:0063004300000000
#02052:0000003300000000
#02057:0000230000000063
#0215b:23
#02152:0023
#02156:0000005300000000
#02352:1313
#02355:00130013
#02452:1300006300000013
#0245b:0013000000000000
#02456:0023
#02257:0013000000000000
#0225b:0000001300001300
#02558:0000000000000053
#02655:0053000000000000
#0265b:23
#02652:00230000
#0275c:0000000000120000
#03052:0000000000000018
#03258:0000000000530000
#03255:0000000000532300
#03252:00000023
#03355:6300005323006300
#03358:6323005300006323
#0335b:0023000000000023
#03352:0023
#0425b:23
#04257:00230000
#04259:0053005300000000
#04256:0023
#04254:0000000000530053
#04252:00000023
#04457:0063
#04559:0000006300630000
#04557:0023
#0455b:00000023
#05052:23
#05054:0063006300000000
#05056:00230000
#05057:0023
#05059:0000000000630063
#0505b:00000023
#05252:39
#05255:00490000
#0545a:24
#05456:0000006400000000
#05452:0024
#05552:0000003400003400
#05652:13
#05658:00130000
#0565b:0013
#05655:00000013
#06156:0064003400000064
#06152:0000003300000000
#0615a:00240000
#06455:00130000
#06452:0013
#06458:00000013
#0645b:13
#06558:0013000000000000
#0655b:0000005300000000
#06557:0023
#0635a:0000004400004400
#06252:24
#06256:0000005400000000
#0625a:0024
#06052:00390000
#06055:49
#0695a:14
#06956:00000000000000003400004400003400
#06852:0000000000120000
#0675a:54
#06756:00540000
#07252:0000005300000000
#07952:24
#0795a:0024
#07956:0000005400000000
#0865b:0063004300000000
#08656:0063004300000064
#08657:00230000
#08652:00230000
#08756:0000006400000000
#0875a:24
#08752:0024
#0885a:0000001400000000
#08856:00000014
#0905b:0000005300000000
#09057:0013000000000000
#09354:5454545454545454
#09352:00240000002400000024000000240000
#09356:00240024002400240024002400240024
#09358:5454545454545454
#0935a:00000024000000240000002400000024
#09454:5454545454545454
#09452:00240000002400000024000000240000
#09456:00240024002400240024002400240024
#09458:5454545454545454
#0945a:00000024000000240000002400000024
#09852:00000013
#09554:14
#09558:14
#09952:16
#09958:16
#07758:46
#07752:00360000
#08552:36
#08558:00460000
#04852:00130000
#04856:0013
#005320:1323000000000000
#005320:0000000000000013
#006320:23
#0063b0:0000132300000000
#0113b0:00001333
#011370:0000000000330023
#012320:0013002300000000
#012360:00530000
#012360:0000000000000013
#013320:53
#013360:0023000000000000
#013370:0000001300230000
#0133b0:0053
#014370:13
#0143b0:0023000000000000
#0163b0:0000001300230000
#016370:0053
#019320:00001333
#019360:0000000000330023
#0203b0:0013002300000000
#020370:00530000
#020370:0000000000000013
#0213b0:53
#021370:0023000000000000
#021360:0000001300230000
#021320:0053
#022360:13
#022320:0023000000000000
#024320:0000001300230000
#024360:0053
#025380:0000000000000013
#0263b0:53
#026380:0023000000000000
#026351:0013002300000000
#026321:00530000
#027321:12
#027371:0022
#028361:00130023
#028321:0000005300530000
#028341:0033
#0293b1:00001323
#029371:0000000000330000
#029391:00000000000000000000003300000000
#029360:00000013
#029320:0000000000000033
#029340:00000000000000000000000000000033
#030360:23
#031370:0013002300000000
#0313b0:00530000
#031321:0013002300000000
#031361:00530000
#032351:0000000000130033
#032321:00000053
#033351:3300333300333300
#033381:0053000000000053
#033321:0053
#034351:23
#032380:0000000000130023
#032350:00000053
#033380:13230000
#0333b0:0053000000000000
#033380:0000001300230000
#033350:0053
#033380:00000013
#0333b0:0000000000000053
#034380:23
#034370:0000001300000000
#0343b0:000000000053230000000000
#034360:0000000000140000
#0343a0:000000000000000054240000
#034350:0000000000000015
#034390:000000000000000000000055
#035390:25
#036360:0013
#036320:00000023
#037340:0000001300330023
#037360:0053
#037320:00000053
#038320:0000132300000000
#038371:0000000000000000130000530000000000000000000000000000000000000000
#038351:00000000005323000000000000000000
#0383b1:000000000000000000000000000000000000000000000000000000000000000000000000000000000000000000000000000000000000000000000000000000000000000000000000000000000000000000000000000000000000000000000000000000000000000000000000000000000000000000000000000000000000000000000000000000000000000000000000000000000000000000000000000000000000000000000000000000000000000000000000000000000000000000000000000000000000000000000000000000000000000000000000000000000000000000000000000000000000000000000000000000000000000000000000000000000000000000000000000000000000000000000000000000000000000000000000000000000000000000000000000000000000000000000000000000000000000000000000000000000000000000000000000000000000000000000000000000000000000000000000000000000000000000000000000000000000000000000000000000000000000000000000000000000000000000000000000000000000000000000000000000000000000000000000000000000000000000000000000000000000000000000000000000000000000000000000000000000000000000000000000000000000000000000000000000000000000000000000000000000000000000000000000000000000000000000000000000000000000000000000000000000000000000000000000000000000000000000000000000000000000000000000000000000000000000000000000000000000000000000000000000000000000000000000000000000000000000000000000000000000000000000000000000000000000000000000000000000000000000000000000000000000000000000000000000000000000000000000000000000000000000000000000000000000000000000000000000000000000000000000000000000000000000000000000000000000000000000000000000000000000000000000000000000000000000000000000000000000000000000000000000000000000000000000000000000000000000000000000000000000000000000000000000000000000000000000000000000000000000000000000000000000000000000000000000000000000000000000000000000000000000000000000000000000000000000000000000000000000000000000000000000000000000000000000000000000000000000000000000000000000000000000000000000000000000000000000000000000000000000000130000000000000000000000000000000000000000000000000000000000000000000000000000000000000000000000000000000000000000000000000000000000000000000000000000000000000000000000000000000000000000000000000000000000000000000000000000000000000000000000000000000000000000000000000000000000000000000000000000000053000000000000000000000000000000000000000000000000000000000000000000000000000000000000000000000000000000000000000000000000000000000000000000000000000000000000000000000000000000000000230000000000000000000000000000000000000000000000000000000000000000000000000000000000000000000000000000000000000000000000000000000000000000000000000000000000000000000000000000000000000000000000000000000000000000000000000000000000000000000000000000000000000000000000000000000000000000000000000000000000000000000000000000000000000000000000000000000000000000000000000000000000000000000000000000000000000000000000000000000000000000000000000000000000000000000000000000000000000000000000000000000000000000000000000000000000000000000000000000000000000000000000000000000000000000000000000000000000000000000000000000000000000000000000000000000000000000000000000000000000000000000000000000000000000000000000000000000000000000000000000000000000000000000000000000000000000000000000000000000000000000000000000000000000000000000000000000000000000000000000000000000000000000000000000000000000000000000000000000000000000000000000000000000000000000000000000000000000000000000000000000000000000000000000000000000000000000000000000000000000000000000000000000000000000000000000000000000000000000000000000000000000000000000000000000000000000000000000000000000000000000000000000000000000000000000000000000000000000000000000000000000000000000000000000000000000000000000000000000000000000000000000000000000000000000000000000000000000000000000000000000000000000000000000000000000000000000000000000000000000000000000000000000000000000000000000000000000000000000000000
#0383a1:00000000000000000000000000000000000000000000000000000000000000000000000000540000000000000000000000000000000000000000000000000000
#038360:000000000000000000000000000000000000000000000000000000000000000000000000000000000000000000000000000000000000000000000000000000000000000000000000000000000000000000000000000000000000000000000000000000000000000000000000000000000000000000000000000000000000000000000000000000000000000000000000000000000000000000000000000000000000000000000000000000000000000000000000000000000000000000000000000000000000000000000000000000000000000000000000000000000000000000000000000000000000000000000000000000000000000000000000000000000000000000000000000000000000000000000000000000000000000000000000000000000000000000000000000000000000000000000000000000000000000000000000000000000000000000000000000000000000000000000000000000000000000000000000000000000000000000000000000000000000000000000000000000000000000000000000000000000000000000000000000000000000000000000000000000000000000000000000000000000000000000000000000000000000000000000000000000000000000000000000000000000000000000000000000000000000000000000000000000000000000000000000000000000000000000000000000000000000000000000000000000000000000000000000000000000000000000000000000000000000000000000000000000000000000000000000000000000000000000000000000000000000000000000000000000000000000000000000000000000000000000000000000000000000000000000000000000000000000000000000000000000000000000000000000000000000000000000000000000000000000000000000000000000000000000000000000000000000000000000000000000000000000000000000000000000000000000000000000000000000000000000000000000000000000000000000000000000000000000000000000000000000000000000000000000000000000000000000000000000000000000000000000000000000000000000000000000000000000000000000000000000000000000000000000000000000000000000000000000000000000000000000000000000000000000000000000000000000000000000000000000000000000000000000000000000000000000000000000000000000000000000000000000000000000000000000000000000000000000000000000000000000000000000000130000000000000000000000000000000000000000000000000000000000000000000000000000000000000000000000000000000000000000000000000000000000000000000000000000000000000000000000000000000000000000000000000000000000000000000000000000000000000000000000000000000000000000000000000000000000000000000000000000000053540000000000000000000000000000000000000000000000000000000000000000000000000000000000000000000000000000000000000000000000000000000000000000000000000000000000000000000000000000000000230000000000000000000000000000000000000000000000000000000000000000000000000000000000000000000000000000000000000000000000000000000000000000000000000000000000000000000000000000000000000000000000000000000000000000000000000000000000000000000000000000000000000000000000000000000000000000000000000000000000000000000000000000000000000000000000000000000000000000000000000000000000000000000000000000000000000000000000000000000000000000000000000000000000000000000000000000000000000000000000000000000000000000000000000000000000000000000000000000000000000000000000000000000000000000000000000000000000000000000000000000000000000000000000000000000000000000000000000000000000000000000000000000000000000000000000000000000000000000000000000000000000000000000000000000000000000000000000000000000000000000000000000000000000000000000000000000000000000000000000000000000000000000000000000000000000000000000000000000000000000000000000000000000000000000000000000000000000000000000000000000000000000000000000000000000000000000000000000000000000000000000000000000000000000000000000000000000000000000000000000000000000000000000000000000000000000000000000000000000000000000000000000000000000000000000000000000000000000000000000000000000000000000000000000000000000000000000000000000000000000000000000000000000000000000000000000000000000000000000000000000000000000000000000000000000000000000000000000000000000000000000000000000000000000000000000000000000000000000000000
#038360:00000000000000000000000000000000000000000000000000000000000000000000000000000000000000000000000000000000000000000000000000000000000000000000000000000000000000000000000000000000000000000000000000000000000000000000000000000000000000000000000000000000000000000000000000000000000000000000000000000000000000000000000000000000000000000000000000000000000000000000000000000000000000000000000000000000000000000000000000000000000000000000000000000000000000000000000000000000000000000000000000000000000000000000000000000000000000000000000000000000000000000000000000000000000000000000000000000000000000000000000000000000000000000000000000000000000000000000000000000000000000000000000000000000000000000000000000000000000000000000000000000000000000000000000000000000000000000000000000000000000000000000000000000000000000000000000000000000000000000000000000000000000000000000000000000000000000000000000000000000000000000000000000000000000000000000000000000000000000000000000014000000000000000000000000000000000000000000000000000000000000000000000000000000000000000000000000000000000000000000000000000054000000000000000000000000000000000000000000000000000000000000000000000000000000000000000000000000000000000000000000000000000000000000000000000000000000000000000000000000000000000000000000000000
#038340:000000000000000000000000000000000000000000000000000000000000000000000000000000000000000000000000000000000000000000000000000000000000000000000000000000000000000000000000000000000000000000000000000000000000000000000000000000000000000000000000000000000000000000000000000000000000000000000000000000000000000000000000000000000000005800000000280000000000000000000000000000000000000000000000
#039340:0012000000000000
#039330:000000000000000000000000000000000000000000000000000000000000000000000000000000000000000000000000000000000000000000000000000000000000000000000000000000000000000000000000000000000000000000000000000000000000000000000000000000000000000000000000000000000000000000000000000000000000000000000000000000000000000000000000000000000000000000000000000000000000000000000000000000000000000000000000000000000000000000000000000000000000000000000000000000000000000000000000000000000000000000000000000000000000000000000000000000000000000000000000000000000000545200000000000000000000000000000000000000000000000000000000000000000000000000000000000000000000000000000000000000000000000000000000000000000000000000000000000000000000000000000000000000000000000000000000000000000000000000000000000000000052000000000000000000000000000000000000000000000000000000000000005200000000000000000000000000000000000000000000000000000000000000000000000000000000000000000000000000000000000000000000220000000000000000000000000000000000000000000000000000000000000000000000000000000000000000000000000000000000000000000000000000000000000000000000000000000000000000000000000000000000000000000000000000000000000000000000000000000000000000000000000000000000000000000000000000000000000000000000000000000000000000000000000000000000000000000000000000000000000000000000000000000000000000000000000000000000000000000000000000000000000000000000000000000000000000000000000000000000000000000000000000000000000000000000000000000000000000000000000000000000000000000000000000000000000000000000000000000000000000000000000000000000000000000000000000000000000000000000000000000000000000000000000000000000000000000000000000000000000000000000000000000000000000000000000000000000000000000000000000000000000000000000000000000000000000000000000000000000000000000000000000000000000000000000000000000000000000000000000000000000000000000000000000000000000000000000000000000000000000000000000000000000000000000000000000000000000000000000000000000000000000000000000000000000000000000000000000000000000000000000000000000000000000000000000000000000000000000000000000000000000000000000000000000000000000000000000000000000000000000000000000000000000000000000000000000000000000000000000000000000000000000000000000000000000000000000000000000000000000000000000000000000000000000000000000000000000000000000000000000000000000000000000000000000000000000000000000000000000000000000000000000000000000000000000000000000000000000000000000000000000000000000000000000000000000000000000000000000000000000000000000000000000000000000000000000000000000000000000000000000000000000000000000000000000000000000000000000000000000000000000000000000000000000000000000000000000000000000000000000000000000000000000000000000000000000000000000000000000000000000000000000000000000000000000000000000000000000000000000000000000000000000000000000000000000000000000000000000000000000000000000000000000000000000000000000000000000000000000000000000000000000000000000000000000000000000000000000000000000000000000000000000000000000000000000000000000000000000000000000000000000000000000000000000000000000000000000000000000000000000000000000000000000000000000000000000000000000000000000000000000000000000000000000000000000000000000000000000000000000000000000000000000000000000000000000000000000000000000000000000000000000000000000000000000000000000000000000000000000000000000000000000000000000000000000000000000000000000000000000000000000000000000000000000000000000000000000000000000000000000000000000000000000000000000000000000000000000000000000000000000000000000000000000000000000000000000000000000000000000000000000000000000000000000000000000000000000000000000000000000000000000000000000000000000000000000000000000000000000000000000000000000000000000000000000000000000000000000000000000000000000000000000000000000000000000000000000000000000000000000
#039320:00000000000000000000000000545400000000000000000000000000000000000000000000000000000000000000000000000000000000000000000000000000
#0393b1:0012000000000000
#0393a1:000000000000000000000000000000000000000000000000000000000000000000000000000000000000000000000000000000000000000000000000000000000000000000000000000000000000000000000000000000000000000000000000000000000000000000000000000000000000000000000000000000000000000000000000000000000000000000000000000000000000000000000000000000000000000000000000000000000000000000000000000000000000000000000000000000000000000000000000000000000000000000000000000000000000000000000000000000000000000000000000000000000000000000000000000000000000000000000000000000000000545200000000000000000000000000000000000000000000000000000000000000000000000000000000000000000000000000000000000000000000000000000000000000000000000000000000000000000000000000000000000000000000000000000000000000000000000000000000000000000052000000000000000000000000000000000000000000000000000000000000005200000000000000000000000000000000000000000000000000000000000000000000000000000000000000000000000000000000000000000000220000000000000000000000000000000000000000000000000000000000000000000000000000000000000000000000000000000000000000000000000000000000000000000000000000000000000000000000000000000000000000000000000000000000000000000000000000000000000000000000000000000000000000000000000000000000000000000000000000000000000000000000000000000000000000000000000000000000000000000000000000000000000000000000000000000000000000000000000000000000000000000000000000000000000000000000000000000000000000000000000000000000000000000000000000000000000000000000000000000000000000000000000000000000000000000000000000000000000000000000000000000000000000000000000000000000000000000000000000000000000000000000000000000000000000000000000000000000000000000000000000000000000000000000000000000000000000000000000000000000000000000000000000000000000000000000000000000000000000000000000000000000000000000000000000000000000000000000000000000000000000000000000000000000000000000000000000000000000000000000000000000000000000000000000000000000000000000000000000000000000000000000000000000000000000000000000000000000000000000000000000000000000000000000000000000000000000000000000000000000000000000000000000000000000000000000000000000000000000000000000000000000000000000000000000000000000000000000000000000000000000000000000000000000000000000000000000000000000000000000000000000000000000000000000000000000000000000000000000000000000000000000000000000000000000000000000000000000000000000000000000000000000000000000000000000000000000000000000000000000000000000000000000000000000000000000000000000000000000000000000000000000000000000000000000000000000000000000000000000000000000000000000000000000000000000000000000000000000000000000000000000000000000000000000000000000000000000000000000000000000000000000000000000000000000000000000000000000000000000000000000000000000000000000000000000000000000000000000000000000000000000000000000000000000000000000000000000000000000000000000000000000000000000000000000000000000000000000000000000000000000000000000000000000000000000000000000000000000000000000000000000000000000000000000000000000000000000000000000000000000000000000000000000000000000000000000000000000000000000000000000000000000000000000000000000000000000000000000000000000000000000000000000000000000000000000000000000000000000000000000000000000000000000000000000000000000000000000000000000000000000000000000000000000000000000000000000000000000000000000000000000000000000000000000000000000000000000000000000000000000000000000000000000000000000000000000000000000000000000000000000000000000000000000000000000000000000000000000000000000000000000000000000000000000000000000000000000000000000000000000000000000000000000000000000000000000000000000000000000000000000000000000000000000000000000000000000000000000000000000000000000000000000000000000000000000000000000000000000000000000000000000000000000000000000000000000000000000000000000000
#039391:00000000000000000000000000545400000000000000000000000000000000000000000000000000000000000000000000000000000000000000000000000000
#039361:0000001323000000
#0393b0:0000000000000000000000001300005300000000000000000000000000000000
#039390:00000000000000532300000000000000
#039370:000000000000000000000000000000000000000000000000000000000000000000000000000000000000000000000000000000000000000000000000000000000000000000000000000000000000000000000000000000000000000000000000000000000000000000000000000000000000000000000000000000000000000000000000000000000000000000000000000000000000000000000000000000000000000000000000000000000000000000000000000000000000000000000000000000000000000000000000000000000000000000000000000000000000000000000000000000000000000000000000000000000000000000000000000000000000000000000000000000000000000000000000000000000000000000000000000000000000000000000000000000000000000000000000000000000000000000000000000000000000000000000000000000000000000000000000000000000000000000000000000000000000000000000000000000000000000000000000000000000000000000000000000000000000000000000000000000000000000000000000000000000000000000000000000000000000000000000000000000000000000000000000000000000000000000000000000000000000000000000000000000000000000000000000000000000000000000000000000000000000000000000000000000000000000000000000000000000000000000000000000000000000000000000000000000000000000000000000000000000000000000000000000000000000000000000000000000000000000000000000130000000000000000000000000000000000000000000000000000000000000000000000005300000000000000000000000000000000000000000000230000000000000000000000000000000000000000000000000000000000000000000000000000000000000000000000000000000000000000000000000000000000000000000000000000000000000000000000000000000000000000000000000000000000000000000000000000000000000000000000000000000000000000000000000000000000000000000000000000000000000000000000000000000000000000000000000000000000000000000000000000000000000000000000000000000000000000000000000000000000000000000000000000000000000000000000000000000000000000000000000000000000000000000000000000000000000000000000000000000000000000000000000000000000000000000000000000000000000000000000
#039360:0000000000000000000000000000000000000000000000000000000000000000000000000000000000000000000000000000000000000000000000000000000000000000000000000000000000000000000000000054000000000000000000000000000000000000000000000000000000000000000000000000000000000000
#039321:000000000000000000000000000000000000000000000000000000000000000000000000000000000000000000000000000000000000000000000000000000000000000000000000000000000000000000000000000000000000000000000000000000000000000000000000000000000000000000000000000000000000000000000000000000000000000000000000000000000000000000000000000000000000000000000000000000000000000000000000000000000000000000000000000000000000000000000000000000000000000000000000000000000000000000000000000000000000000000000000000000000000000000000000000000000000000000000000000000000000000000000000000000000000000000000000000000000000000000000000000000000000000000000000000000000000000000000000000000000000000000000000000000000000000000000000000000000000000000000000000000000000000000000000000000000000000000000000000000000000000000000000000000000000000000000000000000000000000000000000000000000000000000000000000000000000000000000000000000000000000000000000000000000000000000000000000000000000000000000000000000000000000000000000000000000000000000000000000000000000000000000000000000000000000000000000000000000000000000000000000000000000000000000000000000000000000000000000000000000000000000000000000000000000000000000000000000000000000000000000000000000000000000000000000000000000000000000000000000000000000000000000000000000000000000000000000000000000000000000000000000000000000000000000000000000000000000000000000000000000000000000000000000000000000000000000000000000000000000000000000000000000000000000000000000000000000000000000000000000000000000000000000000000000000000000000000000000000000000000000000000000000000000000000000000000000000000000000000000000000000000000000000000000000000000000000000000000000000000000000000000000000000000000000000000000000000000000000000000000000000000000000000000000000000000000000000000000000000000000000000000000000000000000000000000000000000000000000000000000000000000000000000000000000000000000000000000000000000000000000000000000000000000000000000000000000000000000000000000000000000000000000000000000000000000000000000000000000000000000000000000000000000000000000000000000000000000000000000000000000000000000000000000000000000000000000000000000000000000000000000000000000000000000000000000000000000000000000000000000000000000000000000000000000000000000000000000000000000000000000000000000000000000000000000000000000000000000000000000000000000000000000000000000000000000000000000000000000000000000000130000000000000000000000000000000000000000000000000000000000000000000000000000000000000000000000000000000000000000000000000000000000000000000000000053540000000000000000000000000000000000000000000000000000000000000000000000000000000000000000230000000000000000000000000000000000000000000000000000000000000000000000000000000000000000000000000000000000000000000000000000000000000000000000000000000000000000000000000000000000000000000000000000000000000000000000000000000000000000000000000000000000000000000000000000000000000000000000000000000000000000000000000000000000000000000000000000000000000000000000000000000000000000000000000000000000000000000000000000000000000000000000000000000000000000000000000000000000000000000000000000000000000000000000000000000000000000000000000000000000000000000000000000000000000000000000000000000000000000000000000000000000000000000000000000000000000000000000000000000000000000000000000000000000000000000000000000000000000000000000000000000000000000000000000000000000000000000000000000000000000000000000000000000000000000000000000000000000000000000000000000000000000000000000000000000000000000000000000000000000000000000000000000000000000000000000000000000000000000000000000000000000000000000000000000000000000000000000000000000000000000000000000000000000000000000000000000000000000000000000000000000000000000000000000000000000000000000000000000000000000000000000000000000000000000000000000000000000000000000000
#039361:00000000000000000000000000000000000000000000000000000000000000000000000000000000000000000000000000000000000000000000000000000000000000000000000000000000000000000000000000000000000000000000000000000000000000000000000000000000000000000000000000000000000000000000000000000000000000000000000000000000000000000000000000000000000000000000000000000000000000000000000000000000000000000000000000000000000000000000000000000000000000000000000000000000000000000000000000000000000000000000000000000000000000000000000000000000000000000000000000000000000000000000000000000000000000000000000000000000000000000000000000000000000000000000000000000000000000000000000000000000000000000000000000000000000000000000000000000000000000000000000000000000000000000000000000000000000000000000000000000000000000000000000000000000000000000000000000000000000000000000000000000000000000000000000000000000000000000000000000000000000000000000000000000000000000000000000000000000000000000000000014000000000000000000000000000000000000000000000000000000000000000000000000000000000000000000000000000000000000000000000000000054000000000000000000000000000000000000000000000000000000000000000000000000000000000000000000000000000000000000000000000000000000000000000000000000000000000000000000000000000000000000000000000000
#039341:000000000000000000000000000000000000000000000000000000000000000000000000000000000000000000000000000000000000000000000000000000000000000000000000000000000000000000000000000000000000000000000000000000000000000000000000000000000000000000000000000000000000000000000000000000000000000000000000000000000000000000000000000000000000005800000000280000000000000000000000000000000000000000000000
#041361:0014000000240000
#0413a1:0000003400000000
#0423b1:1323
#042391:0053005300000000
#042371:00330000
#042360:0013
#042340:0000000000530053
#042320:00000033
#043360:23
#044370:0013
#0443b0:00000023
#045390:0000001300330023
#045370:0053
#0453b0:00000053
#046370:130000000000000000000000000000000000000000000000000000000000000000000000005300000000000000000000000000000000000000000000230000000000000000000000000000000000000000000000000000000000000000000000000000000000000000000000000000000000000000000000000000000000000000000000000000000000000000000000000000000000000000000000000000000000000000000000000000000000000000000000000000000000000000000000000000000000000000000000000000000000000000000000000000000000000000000000000000000000000000000000000000000000000000000000000000000000000000000000000000000000000000000000000000000000000000000000000000000000000000000000000000000000000000000000000000000000000000000000000000000000000000000000000000000000000000000000000000000000000000000000000000000000000000000000000000000000000000000000000000000000000000000000000000000000000000000000000000000000000000000000000000000000000000000000000000000000000000000000000000000000000000000000000000000000000000000000000000000000000000000000000000000000000000000000000000000000000000000000000000000000000000000000000000000000000000000000000000000000000000000000000000000000000000000000000000000000000000000000000000000000000000000000000000000000000000000000000000000000000000000000000000000000000000000000000000000000000000000000000000000000000000000000000000000000000000000000000000000000000000000000000000000000000000000000000000000000000000000000000000000000000000000000000000000000000000000000000000000000000000000000000000000000000000000000000000000000000000000000000000000000000000000000000000000000000000000000000000000000000000000000000000000000000000000000000000000000000000000000000000000000000000000000000000000000000000000000000000000000000000000000000000000000000000000000000000000000000000000000000000000000000000000000000000000000000000000000000000000000000000000000000000000000000000000000000000000000000000000000000000000000000000000000000000000000000000000000000000000000000000000000
#046360:0000000000540000000000000000000000000000000000000000000000000000000000000000000000000000000000000000000000000000000000000000000000000000000000000000000000000000000000000000000000000000000000000000000000000000000000000000000000000000000000000000000000000000
#046321:130000000000000000000000000000000000000000000000000000000000000000000000000000000000000000000000000000000000000000000000000000000000000000000000000053540000000000000000000000000000000000000000000000000000000000000000000000000000000000000000230000000000000000000000000000000000000000000000000000000000000000000000000000000000000000000000000000000000000000000000000000000000000000000000000000000000000000000000000000000000000000000000000000000000000000000000000000000000000000000000000000000000000000000000000000000000000000000000000000000000000000000000000000000000000000000000000000000000000000000000000000000000000000000000000000000000000000000000000000000000000000000000000000000000000000000000000000000000000000000000000000000000000000000000000000000000000000000000000000000000000000000000000000000000000000000000000000000000000000000000000000000000000000000000000000000000000000000000000000000000000000000000000000000000000000000000000000000000000000000000000000000000000000000000000000000000000000000000000000000000000000000000000000000000000000000000000000000000000000000000000000000000000000000000000000000000000000000000000000000000000000000000000000000000000000000000000000000000000000000000000000000000000000000000000000000000000000000000000000000000000000000000000000000000000000000000000000000000000000000000000000000000000000000000000000000000000000000000000000000000000000000000000000000000000000000000000000000000000000000000000000000000000000000000000000000000000000000000000000000000000000000000000000000000000000000000000000000000000000000000000000000000000000000000000000000000000000000000000000000000000000000000000000000000000000000000000000000000000000000000000000000000000000000000000000000000000000000000000000000000000000000000000000000000000000000000000000000000000000000000000000000000000000000000000000000000000000000000000000000000000000000000000000000000000000000000000000000000000000000000000000000000000000000000000000000000000000000000000000000000000000000000000000000000000000000000000000000000000000000000000000000000000000000000000000000000000000000000000000000000000000000000000000000000000000000000000000000000000000000000000000000000000000000000000000000000000000000000000000000000000000000000000000000000000000000000000000000000000000000000000000000000000000000000000000000000000000000000000000000000000000000000000000000000000000000000000000000000000000000000000000000000000000000000000000000000000000000000000000000000000000000000000000000000000000000000000000000000000000000000000000000000000000000000000000000000000000000000000000000000000000000000000000000000000000000000000000000000000000000000000000000000000000000000000000000000000000000000000000000000000000000000000000000000000000000000000000000000000000000000000000000000000000000000000000000000000000000000000000000000000000000000000000000000000000000000000000000000000000000000000000000000000000000000000000000000000000000000000000000000000000000000000000000000000000000000000000000000000000000000000000000000000000000000000000000000000000000000000000000000000000000000000000000000000000000000000000000000000000000000000000000000000000000000000000000000000000000000000000000000000000000000000000000000000000000000000000000000000000000000000000000000000000000000000000000000000000000000000000000000000000000000000000000000000000000000000000000000000000000000000000000000000000000000000000000000000000000000000000000000000000000000000000000000000000000000000000000000000000000000000000000000000000000000000000000000000000000000000000000000000000000000000000000000000000000000000000000000000000000000000000000000000000000000000000000000000000000000000000000000000000000000000000000000000000000000000000000000000000000000000000000000000000000000000000000000000000000000000000000000000000000000000000000000000000000000000000000000000000000000
#046391:000000000000000000000000000000000000000000000000000000000000000000000000000000000000000000000000000000000000000000000000000000000000000000000000000000000000000000000000000000000000000000000000000000000000000000000000000000000000000000000000130000000000000000000000000000000000000000000000000000000000000000000000005300000000000000000000000000000000000000000000230000000000000000000000000000000000000000000000000000000000000000000000000000000000000000000000000000000000000000000000000000000000000000000000000000000000000000000000000000000000000000000000000000000000000000000000000000000000000000000000000000000000000000000000000000000000000000000000000000000000000000000000000000000000000000000000000000000000000000000000000000000000000000000000000000000000000000000000000000000000000000000000000000000000000000000000000000000000000000000000000000000000000000000000000000000000000000000000000000000000000000000000000000000000000000000000000000000000000000000000000000000000000000000000000000000000000000000000000000000000000000000000000000000000000000000000000000000000000000000000000000000000000000000000000000000000000000000000000000000000000000000000000000000000000000000000000000000000000000000000000000000000000000000000000000000000000000000000000000000000000000000000000000000000000000000000000000000000000000000000000000000000000000000000000000000000000000000000000000000000000000000000000000000000000000000000000000000000000000000000000000000000000000000000000000000000000000000000000000000000000000000000000000000000000000000000000000000000000000000000000000000000000000000000000000000000000000000000000000000000000000000000000000000000000000000000000000000000000000000000000000000000000000000000000000000000000000000000000000000000000000000000000000000000000000000000000000000000000000000000000000000000000000000000000000000000000000000000000000000000000000000000000000000000000000000000000000000000000000000000
#046381:0000000000000000000000000000000000000000005400000000000000000000000000000000000000000000000000000000000000000000000000000000000000000000000000000000000000000000000000000000000000000000000000000000000000000000000000000000000000000000000000000000000000000000
#046340:000000000000000000000000000000000000000000000000000000000000000000000000000000000000000000000000000000000000000000000000000000000000000000000000000000000000000000000000000000000000000000000000000000000000000000000000000000000000000000000000000000000000000000000000000000000000000000000000000000000000000000000000000000000000000000000000000000000000000000000000000000000000000000000000000000000000000000000000000000000000000000000000000000000000000000000000000000000000000000000000130000000000000000000000000000000000000000000000000000000000000000000000000000000000000000000000000000000000000000000000000000000000000000000000000053540000000000000000000000000000000000000000000000000000000000000000000000000000000000000000230000000000000000000000000000000000000000000000000000000000000000000000000000000000000000000000000000000000000000000000000000000000000000000000000000000000000000000000000000000000000000000000000000000000000000000000000000000000000000000000000000000000000000000000000000000000000000000000000000000000000000000000000000000000000000000000000000000000000000000000000000000000000000000000000000000000000000000000000000000000000000000000000000000000000000000000000000000000000000000000000000000000000000000000000000000000000000000000000000000000000000000000000000000000000000000000000000000000000000000000000000000000000000000000000000000000000000000000000000000000000000000000000000000000000000000000000000000000000000000000000000000000000000000000000000000000000000000000000000000000000000000000000000000000000000000000000000000000000000000000000000000000000000000000000000000000000000000000000000000000000000000000000000000000000000000000000000000000000000000000000000000000000000000000000000000000000000000000000000000000000000000000000000000000000000000000000000000000000000000000000000000000000000000000000000000000000000000000000000000000000000000000000000000000000000000000000000000000000000000000000000000000000000000000000000000000000000000000000000000000000000000000000000000000000000000000000000000000000000000000000000000000000000000000000000000000000000000000000000000000000000000000000000000000000000000000000000000000000000000000000000000000000000000000000000000000000000000000000000000000000000000000000000000000000000000000000000000000000000000000000000000000000000000000000000000000000000000000000000000000000000000000000000000000000000000000000000000000000000000000000000000000000000000000000000000000000000000000000000000000000000000000000000000000000000000000000000000000000000000000000000000000000000000000000000000000000000000000000000000000000000000000000000000000000000000000000000000000000000000000000000000000000000000000000000000000000000000000000000000000000000000000000000000000000000000000000000000000000000000000000000000000000000000000000000000000000000000000000000000000000000000000000000000000000000000000000000000000000000000000000000000000000000000000000000000000000000000000000000000000000000000000000000000000000000000000000000000000000000000000000000000000000000000000000000000000000000000000000000000000000000000000000000000000000000000000000000000000000000000000000000000000000000000000000000000000000000000000000000000000000000000000000000000000000000000000000000000000000000000000000000000000000000000000000000000000000000000000000000000000000000000000000000000000000000000000000000000000000000000000000000000000000000000000000000000000000000000000000000000000000000000000000000000000000000000000000000000000000000000000000000000000000000000000000000000000000000000000000000000000000000000000000000000000000000000000000000000000000000000000000000000000000000000000000000000000000000000000000000000000000000000000000000000000000000000000000000000000000000000000000000000000000000000000000000000000000000000000000000000000000000000000000000000000000000000000000000000000000000000000
#0463b0:000000000000000000000000000000000000000000000000000000000000000000000000000000000000000000000000000000000000000000000000000000000000000000000000000000000000000000000000000000000000000000000000000000000000000000000000000000000000000000000000000000000000000000000000000000000000000000000000000000000000000000000000000000000000000000000000000000000000000000000000000000000000000000000000000000000000000000000000000000000000000000000000000000000000000000000000000000000000000000000000000000000000000000000000000000000000000000000000000000000000000000000000000000000000000000000000000000000000000000000000000000000000000000000000000000000000000000000000000000000000000000000000000000000000000000000000000000000000000000000000000000000000000000000000000000000000000000000000000000000000000000000000000000000000000000000000000000000000000000000000000000000000000000000000000000000000000000000000000000000000000000000000000000000000000000000000000000000000000000000000130000000000000000000000000000000000000000000000000000000000000000000000000000000000000000000000000000000000000000000000000000000000000000000000000000000000000000000000000000000000000000000000000000000000000000000000000000000000000000000000000000000000000000000000000000000000000000000000000000000053000000000000000000000000000000000000000000000000000000000000000000000000000000000000000000000000000000000000000000000000000000000000000000000000000000000000000000000000000000000000230000000000000000000000000000000000000000000000000000000000000000000000000000000000000000000000000000000000000000000000000000000000000000000000000000000000000000000000000000000000000000000000000000000000000000000000000000000000000000000000000000000000000000000000000000000000000000000000000000000000000000000000000000000000000000000000000000000000000000000000000000000000000000000000000000000000000000000000000000000000000000000000000000000000000000000000000000000000000000000000000000000000000000000000000000000000000000000000000000000000000000000000000000000000000000000000000000000000000000000000000000000000000000000000000000000000000000000000000000000000000000000000000000000000000000000000000000000000000000000000000000000000000000000000000000000000000000000000000000000000000000000000000000000000000000000000000000000000000000000000000000000000000000000000000000000000000000000000000000000000000000000000000000000000000000000000000000000000000000000000000000000000000000000000000000000000000000000000000000000000000000000000000000000000000000000000000000000000000000000000000000000000000000000000000000000000000000000000000000000000000000000000000000000000000000000000000000000000000000000000000000000000000000000000000000000000000000000000000000000000000000000000000000000000000000000000000000000000000000000000000000000000000000000000000000000000000000000000000000000000000000000000000000000000000000000000000000000000000000000000000000000000000000000000000000000000000000000000000000000000000000000000000000000000000000000000000000000000000000000000000000000000000000000000000000000000000000000000000000000000000000000000000000000000000000000000000000000000000000000000000000000000000000000000000000000000000000000000000000000000000000000000000000000000000000000000000000000000000000000000000000000000000000000000000000000000000000000000000000000000000000000000000000000000000000000000000000000000000000000000000000000000000000000000000000000000000000000000000000000000000000000000000000000000000000000000000000000000000000000000000000000000000000000000000000000000000000000000000000000000000000000000000000000000000000000000000000000000000000000000000000000000000000000000000000000000000000000000000000000000000000000000000000000000000000000000000000000000000000000000000000000000000000000000000000000000000000000000000000000000000000000000000000000000000000000000000000000000000000000000
#0463a0:00000000000000000000000000000000000000000054000000000000000000000000000000000000000000000000000000000000000000000000000000000000
#046361:000000000000000000000000000000000000000000000000000000000000000000000000000000000000000000000000000000000000000000000000000000000000000000000000000000000000000000000000000000000000000000000000000000000000000000000000000000000000000000000000000000000000000000000000000000000000000000000000000000000000000000000000000000000000000000000000000000000000000000000000000000000000000000000000000000000000000000000000000000000000000000000000000000000000000000000000000000000000000000000000000000000000000000000000000000000000000000000000000000000000000000000000000000000000000000000000000000000000000000000000000000000000000000000000000000000000000000000000000000000000000000000000000000000000000000000000000000000000000000000000000000000000000000000000000000000000000000000000000000000000000000000000000000000000000000000000000000000000000000000000000000000000000000000000000000000000000000000000000000000000000000000000000000000000000000000000000000000000000000000000130000000000000000000000000000000000000000000000000000000000000000000000000000000000000000000000000000000000000000000000000000000000000000000000000000000000000000000000000000000000000000000000000000000000000000000000000000000000000000000000000000000000000000000000000000000000000000000000000000000053540000000000000000000000000000000000000000000000000000000000000000000000000000000000000000000000000000000000000000000000000000000000000000000000000000000000000000000000000000000000230000000000000000000000000000000000000000000000000000000000000000000000000000000000000000000000000000000000000000000000000000000000000000000000000000000000000000000000000000000000000000000000000000000000000000000000000000000000000000000000000000000000000000000000000000000000000000000000000000000000000000000000000000000000000000000000000000000000000000000000000000000000000000000000000000000000000000000000000000000000000000000000000000000000000000000000000000000000000000000000000000000000000000000000000000000000000000000000000000000000000000000000000000000000000000000000000000000000000000000000000000000000000000000000000000000000000000000000000000000000000000000000000000000000000000000000000000000000000000000000000000000000000000000000000000000000000000000000000000000000000000000000000000000000000000000000000000000000000000000000000000000000000000000000000000000000000000000000000000000000000000000000000000000000000000000000000000000000000000000000000000000000000000000000000000000000000000000000000000000000000000000000000000000000000000000000000000000000000000000000000000000000000000000000000000000000000000000000000000000000000000000000000000000000000000000000000000000000000000000000000000000000000000000000000000000000000000000000000000000000000000000000000000000000000000000000000000000000000000000000000000000000000000000000000000000000000000000000000000000000000000000000000000000000000000000000000000000000000000000000000000000000000000000000000000000000000000000000000000000000000000000000000000000000000000000000000000000000000000000000000000000000000000000000000000000000000000000000000000000000000000000000000000000000000000000000000000000000000000000000000000000000000000000000000000000000000000000000000000000000000000000000000000000000000000000000000000000000000000000000000000000000000000000000000000000000000000000000000000000000000000000000000000000000000000000000000000000000000000000000000000000000000000000000000000000000000000000000000000000000000000000000000000000000000000000000000000000000000000000000000000000000000000000000000000000000000000000000000000000000000000000000000000000000000000000000000000000000000000000000000000000000000000000000000000000000000000000000000000000000000000000000000000000000000000000000000000000000000000000000000000000000000000000000000000000000000000000000000000000000000000000000000000000000000000000000000000000000000000000000
#046321:0000000000000000000000000000000014005457240000000000000000000000
#0463b1:0000000000001323
#046391:00000000000000000000000000530000
#046370:0000000000001222
#047370:000000000000000000000000000000000000000000000000000000000000000000000000000000000000000000000000000000000000000000000000000000000000000000000000000000000000000000000000000000000000000000000000000000000000000000000000000000000000000000000000000000000000000000000000000000000000000000000000000000000000000000000000000000000000000000000000000000000000000000000000000000000000000000000000000000000000000000000000000000000000000000000000000000000000000000000000000000000000000000000000130000000000000000000000000000000000000000000000000000000000000000000000005300000000000000000000000000000000000000000000230000000000000000000000000000000000000000000000000000000000000000000000000000000000000000000000000000000000000000000000000000000000000000000000000000000000000000000000000000000000000000000000000000000000000000000000000000000000000000000000000000000000000000000000000000000000000000000000000000000000000000000000000000000000000000000000000000000000000000000000000000000000000000000000000000000000000000000000000000000000000000000000000000000000000000000000000000000000000000000000000000000000000000000000000000000000000000000000000000000000000000000000000000000000000000000000000000000000000000000000000000000000000000000000000000000000000000000000000000000000000000000000000000000000000000000000000000000000000000000000000000000000000000000000000000000000000000000000000000000000000000000000000000000000000000000000000000000000000000000000000000000000000000000000000000000000000000000000000000000000000000000000000000000000000000000000000000000000000000000000000000000000000000000000000000000000000000000000000000000000000000000000000000000000000000000000000000000000000000000000000000000000000000000000000000000000000000000000000000000000000000000000000000000000000000000000000000000000000000000000000000000000000000000000000000000000000000000000000000000000000000000000000000000000000000000000000000000000000000000000
#047360:0000000000000000000000000000000000000000000000000000000000000000000000000054000000000000000000000000000000000000000000000000000000000000000000000000000000000000000000000000000000000000000000000000000000000000000000000000000000000000000000000000000000000000
#047321:000000000000000000000000000000000000000000000000000000000000000000000000000000000000000000000000000000000000000000000000000000000000000000000000000000000000000000000000000000000000000000000000000000000000000000000000000000000000000000000000000000000000000000000000000000000000000000000000000000000000000000000000000000000000000000000000000000000000000000000000000000000000000000000000000000000000000000000000000000000000000000000000000000000000000000000000000000000000000000000000000000000000000000000000000000000000000000000000000000000000000000000000000000000000000000000000000000000000000000000000000000000000000000000000000000000000000000000000000000000000000000000000000000000000000000000000000000000000000000000000000000000000000000000000000000000000000000000000000000000000000000000000000000000000000000000000000000000000000000000000000000000000000000000000000000000000000000000000000000000000000000000000000000000000000000000000000000000000000000000000130000000000000000000000000000000000000000000000000000000000000000000000000000000000000000000000000000000000000000000000000000000000000000000000000053540000000000000000000000000000000000000000000000000000000000000000000000000000000000000000230000000000000000000000000000000000000000000000000000000000000000000000000000000000000000000000000000000000000000000000000000000000000000000000000000000000000000000000000000000000000000000000000000000000000000000000000000000000000000000000000000000000000000000000000000000000000000000000000000000000000000000000000000000000000000000000000000000000000000000000000000000000000000000000000000000000000000000000000000000000000000000000000000000000000000000000000000000000000000000000000000000000000000000000000000000000000000000000000000000000000000000000000000000000000000000000000000000000000000000000000000000000000000000000000000000000000000000000000000000000000000000000000000000000000000000000000000000000000000000000000000000000000000000000000000000000000000000000000000000000000000000000000000000000000000000000000000000000000000000000000000000000000000000000000000000000000000000000000000000000000000000000000000000000000000000000000000000000000000000000000000000000000000000000000000000000000000000000000000000000000000000000000000000000000000000000000000000000000000000000000000000000000000000000000000000000000000000000000000000000000000000000000000000000000000000000000000000000000000000000000000000000000000000000000000000000000000000000000000000000000000000000000000000000000000000000000000000000000000000000000000000000000000000000000000000000000000000000000000000000000000000000000000000000000000000000000000000000000000000000000000000000000000000000000000000000000000000000000000000000000000000000000000000000000000000000000000000000000000000000000000000000000000000000000000000000000000000000000000000000000000000000000000000000000000000000000000000000000000000000000000000000000000000000000000000000000000000000000000000000000000000000000000000000000000000000000000000000000000000000000000000000000000000000000000000000000000000000000000000000000000000000000000000000000000000000000000000000000000000000000000000000000000000000000000000000000000000000000000000000000000000000000000000000000000000000000000000000000000000000000000000000000000000000000000000000000000000000000000000000000000000000000000000000000000000000000000000000000000000000000000000000000000000000000000000000000000000000000000000000000000000000000000000000000000000000000000000000000000000000000000000000000000000000000000000000000000000000000000000000000000000000000000000000000000000000000000000000000000000000000000000000000000000000000000000000000000000000000000000000000000000000000000000000000000000000000000000000000000000000000000000000000000000000000000000000000000000000000000000000000000000000000000000000000000000000000000000000000000000000
#0473b1:000000000000000000000000000000000000000000000000000000000000000000000000000000000000000000000000000000000000000000000000000000000000000000000000000000000000000000000000000000000000000000000000000000000000000000000000000000000000000000000000000000000000000000000000000000000000000000000000000000000000000000000000000000000000000000000000000000000000000000000000000000000000000000000000000000000000000000000000000000000000000000000000000000000000000000000000000000000000000000000000000000000000000000000000000000000000000000000000000000000000000000000000000000000000000000000000000000000000000000000000000000000000000000000000000000000000000000000000000000000000000000000000000000000000000000000000000000000000000000000000130000000000000000000000000000000000000000000000000000000000000000000000005300000000000000000000000000000000000000000000230000000000000000000000000000000000000000000000000000000000000000000000000000000000000000000000000000000000000000000000000000000000000000000000000000000000000000000000000000000000000000000000000000000000000000000000000000000000000000000000000000000000000000000000000000000000000000000000000000000000000000000000000000000000000000000000000000000000000000000000000000000000000000000000000000000000000000000000000000000000000000000000000000000000000000000000000000000000000000000000000000000000000000000000000000000000000000000000000000000000000000000000000000000000000000000000000000000000000000000000000000000000000000000000000000000000000000000000000000000000000000000000000000000000000000000000000000000000000000000000000000000000000000000000000000000000000000000000000000000000000000000000000000000000000000000000000000000000000000000000000000000000000000000000000000000000000000000000000000000000000000000000000000000000000000000000000000000000000000000000000000000000000000000000000000000000000000000000000000000000000000000000000000000000000000000000000000000000000000000000
#0473a1:0000000000000000000000000000000000000000000000000000000000000000000000000000000000000000000000000000000000540000000000000000000000000000000000000000000000000000000000000000000000000000000000000000000000000000000000000000000000000000000000000000000000000000
#047360:000000000000000000000000000000000000000000000000000000000000000000000000000000000000000000000000000000000000000000000000000000000000000000000000000000000000000000000000000000000000000000000000000000000000000000000000000000000000000000000000000000000000000000000000000000000000000000000000000000000000000000000000000000000000000000000000000000000000000000000000000000000000000000000000000000000000000000000000000000000000000000000000000000000000000000000000000000000000000000000000000000000000000000000000000000000000000000000000000000000000000000000000000000000000000000000000000000000000000000000000000000000000000000000000000000000000000000000000000000000000000000000000000000000000000000000000000000000000000000000000000000000000000000000000000000000000000000000000000000000000000000000000000000000000000000000000000000000000000000000000000000000000000000000000000000000000000000000000000000000000000000000000000000000000000000000000000000000000000000000000000000000000000000000000000000000000000000000000000000000000000000000000000000000000000000000000000000000000000000000000000000000000000000000000000000000000000000000000000000000000000000000000000000000000000000000000000000000000000000000000000000000000000000000000000000000000000000000000000000000000000000000000000000000000000000000000000000000000000000000000000000000000000000000000000000000000000000000000000000000000000000000000000000000000000000000000000000000000000000000000130000000000000000000000000000000000000000000000000000000000000000000000000000000000000000000000000000000000000000000000000000000000000000000000000053540000000000000000000000000000000000000000000000000000000000000000000000000000000000000000230000000000000000000000000000000000000000000000000000000000000000000000000000000000000000000000000000000000000000000000000000000000000000000000000000000000000000000000000000000000000000000000000000000000000000000000000000000000000000000000000000000000000000000000000000000000000000000000000000000000000000000000000000000000000000000000000000000000000000000000000000000000000000000000000000000000000000000000000000000000000000000000000000000000000000000000000000000000000000000000000000000000000000000000000000000000000000000000000000000000000000000000000000000000000000000000000000000000000000000000000000000000000000000000000000000000000000000000000000000000000000000000000000000000000000000000000000000000000000000000000000000000000000000000000000000000000000000000000000000000000000000000000000000000000000000000000000000000000000000000000000000000000000000000000000000000000000000000000000000000000000000000000000000000000000000000000000000000000000000000000000000000000000000000000000000000000000000000000000000000000000000000000000000000000000000000000000000000000000000000000000000000000000000000000000000000000000000000000000000000000000000000000000000000000000000000000000000000000000000000000000000000000000000000000000000000000000000000000000000000000000000000000000000000000000000000000000000000000000000000000000000000000000000000000000000000000000000000000000000000000000000000000000000000000000000000000000000000000000000000000000000000000000000000000000000000000000000000000000000000000000000000000000000000000000000000000000000000000000000000000000000000000000000000000000000000000000000000000000000000000000000000000000000000000000000000000000000000000000000000000000000000000000000000000000000000000000000000000000000000000000000000000000000000000000000000000000000000000000000000000000000000000000000000000000000000000000000000000000000000000000000000000000000000000000000000000000000000000000000000000000000000000000000000000000000000000000000000000000000000000000000000000000000000000000000000000000000000000000000000000000000000000000000000000000000000000000000000000000000000000000000000000000000000000000000000000000000000000000000000
#047320:00000000000000000000000000000000000000000000000000000000000000000000000000000000140054572400000000000000000000000000000000000000
#0473b0:0000000000001323
#047390:00000000000000000000000000530000
#047371:0000000000001222
#050321:1323
#050341:0053005300000000
#050361:00330000
#050370:0013
#050390:0000000000530053
#0503b0:00000033
#051370:23
#052320:0014
#052360:000000000000000000000000005400240000000000000000
#052360:00000014
#0523a0:000000000000000000000000000000000000005400240000
#053360:0014002400000000
#053320:00540000
#053360:0000000000000014
#0543a0:54
#054360:0024000000000000
#054360:0000001400240000
#054320:0054
#054320:0000000000001323
#0563b0:1323000000000000
#056320:0000000013230000
#0573b0:13
#057380:0023000000000000
#057320:0000001300230000
#057360:0053
#0603a0:0014
#060360:000000000000000000000000005400240000000000000000
#060360:00000014
#060320:000000000000000000000000000000000000005400240000
#061360:0014002400000000
#0613a0:00540000
#061360:0000000000000014
#062320:54
#062360:0024000000000000
#062360:0000001400240000
#0623a0:0054
#0623b0:0000000000001323
#064320:1323000000000000
#0643b0:0000000013230000
#065320:13
#065350:0023000000000000
#0653b0:0000001300230000
#065370:0053
#0673a0:14
#067360:0024000000000000
#067360:00140000
#067320:0000002400000000
#0683c0:12
#068370:0022
#0693a0:0000001424000000
#069320:00000000000000000000142400000000
#0693a0:00000000000000000000000000142400
#070380:00000000001626000000000000000000
#070360:0000000000130023
#070320:00000033
#071380:0000000000001626
#0723b0:13230000
#072370:0033000000000000
#072320:0000001300000000
#072360:0000000053230000
#0733b0:1323000000000000
#073360:0000001222000000
#0743a0:0000001424000000
#074370:0000000000130023
#0743b0:00000033
#076360:00000014000000000000000000000000
#0763a0:0000002400000000
#078320:0013002300000000
#078360:00530000
#078371:0013002300000000
#0783b1:00530000
#078361:0000000000000014
#079321:54
#079361:0024000000000000
#079361:0000001400240000
#0793a1:0054
#079361:00000014
#0793a1:0000000000000024
#080321:14
#080361:0024000000000000
#080361:0000001400000000
#0803a1:0024
#080361:0000000000140000
#080321:00000024
#0813a1:1424000000000000
#081321:0000000014240000
#0823a1:1424000000000000
#082321:0000001300000000
#082361:0000000053230000
#0863b1:0013002300000000
#086371:00530000
#086360:0013002300000000
#086320:00530000
#086360:0000000000000014
#0873a0:54
#087360:0024000000000000
#087360:0000001400240000
#087320:0054
#087360:00000014
#087320:0000000000000024
#0883a0:14
#088360:0024000000000000
#088360:0000001400000000
#088320:0024
#088360:0000000000140000
#0883a0:00000024
#089320:1424000000000000
#0893a0:0000000014240000
#090320:1424000000000000
#0903b0:0000001300000000
#090370:0000000053230000
#093340:1454545454545454
#093320:00540000005400000054000000540000
#093360:00000054000000540000005400000054
#094340:5454545454545454
#094320:00540000005400000054000000540000
#094360:00000054000000540000005400000054
#095340:24
#093381:1454545454545454
#093361:00540000005400000054000000540000
#0933a1:00000054000000540000005400000054
#094381:5454545454545454
#094361:00540000005400000054000000540000
#0943a1:00000054000000540000005400000054
#095381:24
#095321:00000000132300000000000000000000
#095380:00000000001323000000000000000000
#095351:00000000000013230000000000000000
#0953b0:00000000000000132300000000000000
#0973b0:1323000000000000
#0973b0:0000000000000013
#0983b0:23
#098320:0000132300000000
#0993c0:0000000000000012
#1003c0:0022000000000000
#101380:12220000
#101350:0000000000000019
#1043c0:22
