This file was generated by Ched 2.6.4.0.
#TITLE ""
#ARTIST ""
#DESIGNER ""
#DIFFICULTY 0
#PLAYLEVEL
#SONGID ""
#WAVE ""
#WAVEOFFSET 0
#JACKET ""
#REQUEST "ticks_per_beat 480"
#00002: 4
#BPM01: 175
#00008: 01
#TIL00: ""
#HISPEED 00
#MEASUREHS 00
#0021a:14
#00312:00140014
#00318:0014
#0041a:1414
#00414:00140014
#0071a:00140014
#00714:1414
#00812:1414
#00818:00140014
#0111a:14
#01112:00140000
#01118:0014
#01114:00000014
#01110:41
#0121a:14
#01212:00140000
#01218:0014
#01214:00000014
#01418:1414
#01412:00140014
#0171a:14
#01714:00140000
#01718:0014
#01712:00000014
#0181a:14
#01818:00343400
#01912:14
#0191a:00140000
#01914:0014
#01918:00000014
#02012:14
#0201a:00140000
#02014:0014
#02018:00000014
#02214:1414
#0221a:00140014
#02512:14
#02518:00140000
#02514:0014
#0251a:00000014
#02612:14
#02614:00343434
#0281a:1414
#02814:00140000
#02810:41
#02912:1414
#02918:00140000
#0301a:1414
#03014:00140000
#03112:1414
#03118:00140000
#0321a:14
#03214:00140000
#03218:0014
#03212:00000014
#0331a:14
#03314:00140000
#03318:0014
#03312:00000014
#0341a:14343434
#03517:14
#0351a:00343434
#03614:00140014
#0361a:0014
#03718:1414
#03712:00140014
#0401a:14
#04014:00140000
#04018:0014
#04012:00000014
#04118:1414
#04112:00140000
#04114:00000014
#04418:00140014
#04412:1414
#04410:41
#04514:1414
#0451a:00140014
#04812:14
#04818:00140000
#04814:0014
#0481a:00000014
#04914:1414
#0491a:00140000
#04918:00000014
#0521a:14
#05212:00140000
#05218:0014
#05214:00000014
#0531a:14
#05312:00140000
#05318:0014
#05314:00000014
#05518:1414
#05512:00140014
#0581a:14
#05814:00140000
#05818:0014
#05812:00000014
#0591a:14
#05918:00343400
#06012:14
#0601a:00140000
#06014:0014
#06018:00000014
#06010:41
#06112:14
#0611a:00140000
#06114:0014
#06118:00000014
#06314:1414
#0631a:00140014
#06612:14
#06618:00140000
#06614:0014
#0661a:00000014
#06712:14
#06714:00343434
#0691a:14140000
#06914:00001414
#07018:14140000
#07012:00001414
#07418:1414
#07412:00140014
#0731a:1414
#07314:00140014
#07714:0014
#07718:00000014
#07712:24
#0771a:00240000
#0771f:21
#07812:14
#0781a:00140000
#07814:0014
#07818:00000014
#07810:41
#08014:1414
#0801a:00140014
#08312:14
#08318:00140000
#08314:0014
#0831a:00000014
#08414:14
#08412:00343400
#08518:0014
#08514:00000014
#0851a:24
#08512:00240000
#0861a:14
#08612:00140000
#08618:0014
#08614:00000014
#08818:1414
#08812:00140014
#0911a:14
#09114:00140000
#09118:0014
#09112:00000014
#09218:1414
#09212:00140000
#09214:00000014
#09514:00140000
#0951a:0014
#09512:00000014
#09510:41
#0961a:14
#09612:00140000
#09618:0014
#09614:00000014
#09718:14343434
#0971a:0000000000000014
#09918:00140000
#09912:0014
#0991a:00000014
#09914:14
#10012:14
#1001a:00140000
#10014:0014
#10018:00000014
#10114:14343434
#0681f:11
#0931a:24
#0151a:00343400
#01612:00343400
#02312:00343400
#0241a:00343400
#0561a:00343400
#05712:00343400
#06412:00343400
#0651a:00343400
#08114:00343400
#08218:00343400
#08918:00343400
#09014:00343400
#09818:34343400
#0025a:54
#0115a:14
#01152:00140000
#0185a:54
#01952:14
#0195a:00140000
#02652:64
#0345a:54
#03557:24
#0525a:14
#05252:00140000
#0595a:54
#06052:14
#0605a:00140000
#06752:64
#07752:14
#0775a:00140000
#08454:54
#0855a:14
#08552:00140000
#0935a:54
#09758:54
#0975a:0000000000000024
#10154:64
#0023a0:14
#003380:24
#0053a0:1400003400340034
#006380:0034340034002400
#009320:1400003400340034
#010340:0034340034002400
#0133a0:14240000
#013340:00001424
#0153a0:14343400
#015380:00000024
#016320:14343400
#016340:00000024
#0183a0:14
#018380:00343424
#021320:14240000
#021380:00001424
#023320:14343400
#023340:00000024
#0243a0:14343400
#024380:00000024
#026320:14
#026340:00343434
#027340:34000024
#0343a0:14343434
#035370:34
#0353a0:00343434
#0363a0:24
#0383a0:14240000
#038340:00001424
#039380:14240000
#039320:00001424
#0423a0:14
#042380:0034
#0433a0:34
#043380:0024
#046320:14240000
#046380:00001424
#047340:14240000
#0473a0:00001424
#050320:14
#050340:0034
#051320:34
#051340:0024
#0543a0:14240000
#054340:00001424
#0563a0:14343400
#056380:00000024
#057320:14343400
#057340:00000024
#0593a0:14
#059380:00343424
#062320:14240000
#062380:00001424
#064320:14343400
#064340:00000024
#0653a0:14343400
#065380:00000024
#067320:14
#067340:00343434
#068340:34000024
#0713a0:14000024
#071380:00343400
#072340:14000024
#072320:00343400
#0753a0:14240000
#075340:00001424
#076380:14240000
#076320:00001434
#077320:24
#079320:14
#079340:00240000
#079380:0014
#0793a0:00000024
#081340:14343400
#081320:00000024
#082380:14343400
#0823a0:00000024
#084340:14
#084320:00343424
#0873a0:14
#087380:00240000
#087340:0014
#087320:00000024
#089380:14343400
#0893a0:00000024
#090340:14343400
#090320:00000024
#0933a0:14
#095380:24
#097380:14343434
#0973a0:0000000000000054
#098380:34343424
#101340:14343434
#101320:0000000000000034
#104320:24
