This file was generated by Ched 2.7.0.0.
#TITLE ""
#ARTIST ""
#DESIGNER ""
#DIFFICULTY 0
#PLAYLEVEL
#SONGID ""
#WAVE ""
#WAVEOFFSET 0
#JACKET ""
#REQUEST "ticks_per_beat 480"
#00002: 4
#BPM01: 180
#00008: 01
#TIL00: ""
#VOLUME: ""
#HISPEED 00
#MEASUREHS 00
#02012:14
#02518:14
#0271a:14
#02614:14
#03014:14
#02812:14
#02918:14
#0311a:14
#03212:14
#04118:14
#0411f:11
#04218:14
#04314:14
#04414:14
#04918:14
#04914:0014
#01718:14
#01918:14
#01812:14
#00918:14
#00910:41
#01018:14
#01114:14
#01214:14
#0131a:14
#01512:14
#0141a:14
#01612:14
#00814:14
#00012:14
#0011a:14
#00214:14
#00318:14
#00412:14
#0051a:14
#00614:14
#00718:14
#02414:14
#0211a:14
#02110:41
#0231a:14
#02214:14
#05112:1616
#05110:41
#05018:2616
#0501f:21
#05212:0016
#05218:16
#05412:1616
#05518:1616
#05612:1616
#05718:1616
#05918:1616
#05812:2616
#06018:0016
#06012:16
#06218:1616
#06312:1616
#06418:1616
#06512:1616
#06618:14
#06714:14
#0681a:14
#06912:14
#07018:14
#07114:14
#08418:1616
#08012:0016
#08018:26
#08010:41
#08612:1616
#08512:16
#08518:0016
#08718:16
#08712:0016
#08212:16
#08218:0016
#09212:1616
#09210:41
#08818:0016
#08812:26
#09418:1616
#09318:16
#09312:0016
#09512:16
#09518:0016
#09018:16
#09012:0016
#10412:0000000000000016
#03310:41
#10452:0000000000000066
#033380:14
#034380:24
#035340:14
#036340:24
#0373a0:14
#0383a0:24
#039320:14
#040320:24
#0453a0:14
#0463a0:24
#047320:14
#048320:24
#053380:1626
#061320:1626
#0723a0:14
#073380:0034
#074380:34
#0753a0:0024
#076320:14
#077340:0034
#078340:34
#079320:0024
#081380:1626
#083320:1626
#089320:1626
#091380:1626
#096340:14
#097340:24
#098380:14
#099380:24
#100320:14
#101320:24
#1023a0:14
#1033a0:24
#104320:1600360036003636
#108320:24
