This file was generated by Ched 2.7.0.0.
#TITLE ""
#ARTIST ""
#DESIGNER ""
#DIFFICULTY 0
#PLAYLEVEL
#SONGID ""
#WAVE ""
#WAVEOFFSET 0
#JACKET ""
#REQUEST "ticks_per_beat 480"
#00002: 4
#BPM01: 180
#00008: 01
#TIL00: ""
#VOLUME: ""
#HISPEED 00
#MEASUREHS 00
#0411f:11
#0411b:1300001323001300
#04112:13
#04116:0013
#04115:0000130000000013
#04118:0013000000000000
#01318:1300001300000000
#01312:1300001300000000
#0131b:00000000130000000000001300000000
#01315:0000000000131300
#0121b:0000001300001300
#01215:0000001300001300
#01212:0000000000130000
#01219:0013000000000000
#0121a:00130000
#01213:0013000000000000
#01214:00130000
#01218:13
#10016:13000000000000000000001300000000
#10017:00000013000000000000000000000000
#10014:0000000000000013
#10012:0000131300000000
#1001b:1300000000131300
#0661b:1300000000131300
#06616:13000000000000000000001300000000
#06612:0000001300000000
#06617:0000131300000000
#0251b:13
#02512:0000000000000013
#02519:0013000000130000
#02517:0000130000001313
#02516:1313
#02514:0000001300000000
#07118:00000000001200130014001500160000
#07113:00000015
#07112:0000000000000016
#07115:0013
#07114:0000000000140000
#07116:0000121200000000
#08812:2400000014000014
#08816:0000000000140014
#0881a:24240014
#0481b:13000013
#04816:00000000000000000013000000000000
#04817:0013000000000000
#04812:0000131300000000
#04712:0000141400000013
#0471a:14000014
#04716:00001400000000000014000000000000
#04615:00000000000000000015000000000000
#04612:0000151500000014
#04616:0015000000000000
#04619:15000015
#04512:0000161600000015
#04515:00001600000000000016000000000000
#04518:16000016
#04412:0000130023000016
#04417:0000130000130000
#04416:13
#04419:0000001300000000
#04414:0013000000000000
#0441b:1313
#03116:1400000000001313
#03114:0000001300000000
#0311b:0000130000000013
#03119:0013000000000000
#03112:13
#03016:00001414
#03019:13130000
#0301b:0000001300000000
#03014:00130000
#03012:0000000000140000
#0301a:0000000000000014
#03017:0013000000000000
#02716:14000000000000000000001300000000
#02714:0013000000000000
#0271b:13000000000000000000001300000000
#02717:0000001313000013
#02712:0000130013000013
#02616:0013000014001400
#02614:13130000
#02612:0000001300000014
#02619:00130000
#0261a:0000000000140000
#0231a:14
#02316:1313
#02314:0000000000130000
#02317:0000130000001313
#02319:0000000000130000
#02312:0000000000001313
#02216:00000014
#02212:0014
#02218:0000000000000014
#02214:0000000000140000
#01912:1413
#01919:00000000000013000000001300000000
#01917:1313
#01916:0000130000000013
#0191b:0000000000000013
#01914:00000000000000000000001300000000
#01816:00000014
#0181a:0014
#01814:0000000000000014
#01818:0000000000140000
#1041b:0000000000001313
#10412:0000000000000013
#10418:00000000000000000013000000000000
#10415:0000000000000000000000000000000013000000003300000000000000000000
#1041a:0000000000000000003300000000000000000000000000000000000000000000
#10413:0033000000000000000000000000000000000000000000000000000000000000
#03219:0000000000130000
#03214:0000001300000000
#03217:00130023
#03212:00130013
#0321b:0013
#03216:0023
#02814:0000000000130000
#02819:0000001300000000
#02816:00130023
#0281b:00130013
#02812:0013
#02817:0023
#0291b:0000000000000013
#02916:0000130000001313
#02912:13
#02914:0013000000130000
#02917:1313
#02919:0000001300000000
#00615:1300000000131313
#00618:00000013000000000000001300130000
#0061b:0023
#00418:0000000000131313
#00415:00000000000000000000001300130000
#00412:0023
#00215:00000013000000000000001300130000
#00218:1300000000131313
#00212:0023
#02117:13
#02112:1313
#02116:0000000000000013
#0211b:0000130000001313
#02110:41
#01612:0000001300001300
#01618:0000001300001300
#0161b:0000000000130000
#01614:0013000000000000
#01613:00130000
#0161a:0013000000000000
#01619:00130000
#01615:13
#03917:00130000
#03912:00130013
#0391b:0000000013000013
#03916:13
#08916:0014001414141414
#0891b:00000013
#08912:0013
#08016:0000000000140014
#0801a:2400000014000014
#08012:24240014
#08010:41
#08116:0014001414141414
#08112:00000013
#0811b:0013
#07018:1313000000000000
#07015:00130013000000000000000000000000
#07017:0000000000130000
#0701b:0013
#05612:13000013
#0561b:1300130000000013
#05616:00130000
#05617:0013
#06412:1300130000000013
#0641b:13000013
#06417:00130000
#06416:0013
#09412:1300001300001300
#0941b:1300130013000013
#09416:0000130000000013
#08612:1300130013000013
#0861b:1300001300001300
#08617:0000130000000013
#0841b:1300001300001313
#08412:1300130000130000
#08416:0000000000000013
#08415:0013
#08417:00130000
#09212:1300001300001313
#0921b:1300130000130000
#09217:0000000000000013
#09218:0013
#09216:00130000
#09210:41
#00812:00000013
#00815:00000000000000000013000000000000
#00818:0000000000000000000000000000000013000000003300000000000000000000
#0081b:0000000000000013
#00814:0000000000000000003300000000000000000000000000000000000000000000
#00819:0033000000000000000000000000000000000000000000000000000000000000
#0621b:1300130013000013
#06212:13000013
#06216:00130000
#09512:0013000013000000
#09517:1313
#09514:0000000000000013
#09519:0000000000130000
#0951b:0000001300001300
#09516:00000013
#09316:0013000000130000
#09314:00130000
#09317:0000001300000013
#09312:0000001300000000
#09319:00130013
#0931b:0000000000130000
#0871b:0013000013000000
#08716:1313
#08719:0000000000000013
#08714:0000000000130000
#08712:0000001300001300
#08717:00000013
#07517:00000013
#07519:00000000000000000013000000000000
#0751b:13000013000013000000000000000000
#07512:00000000001300001300001300000000
#07514:0013000000000000
#0741b:00000000000000130000130000130000
#07419:00130000
#07412:13000013000013000013000000000000
#07417:00130000000000000000000000000000
#07416:00000000000000000000000000000013
#07414:00000013
#07316:00000013
#07314:00000000000000000013000000000000
#07312:13000013000013000000000000000000
#0731b:00000000001300001300001300000000
#07319:0013000000000000
#0691b:1300131300001300
#06912:0013130000130000
#06916:0000001300001300
#06917:0013000000000000
#06812:1300000000131300
#06817:00000000000000000000001300000000
#06816:0000001300000000
#0681b:0000131300000000
#06717:0000000000131300
#06712:13000000000000000000001300000000
#0671b:0000131300000000
#06716:0000131300000000
#06714:0013000000000000
#0651a:0000000000000013
#06513:0000000000130000
#06514:00000013
#06519:00000013
#06517:0013
#06512:0000001313000000
#0651b:0013000000000000
#09116:0014000014000024
#0911a:1400141400002400
#09112:1400000000240000
#09016:0014001400140014
#0901a:00240024
#09012:2424
#08517:0013000000130000
#08519:00130000
#08516:0000001300000013
#0851b:0000001300000000
#08514:00130013
#08512:0000000000130000
#08316:0014000014000024
#08312:1400141400002400
#0831a:1400000000240000
#08216:0014001400140014
#08212:00240024
#0821a:2424
#10312:13
#1031b:00000013
#10317:0000000000130000
#10316:0000001300001300
#10212:00000013000000000000130013000000
#1021b:1300131300000013
#10216:13
#10217:00000000000000000000001300000000
#1011b:1300001300000013
#10116:0000001300000000
#10112:1300130000131300
#10117:00000000130000000000001300000000
#10119:0013000000000000
#0991b:13
#09912:00000013
#09916:0000000000130000
#09917:0000001300001300
#0981b:00000013000000000000130013000000
#09812:1300131300000013
#09817:13
#09816:00000000000000000000001300000000
#09616:00000013000000000000000000000000
#09619:0000000000000013
#0961b:0000131300000000
#09612:1300000000131300
#09617:23000000000000000000001300000000
#09712:1300001300000013
#09717:0000001300000000
#0971b:1300130000131300
#09716:00000000130000000000001300000000
#09714:0013000000000000
#05817:2300000000130013
#05812:1300000013001313
#0581b:00130000
#05816:00230000
#04318:00131300
#04315:0013000000130000
#0431b:1300001300001300
#04312:1300000023000013
#04218:0000001300130000
#04215:0013000000001300
#04212:1300000000000013
#0421b:0023
#04016:13000013
#0401b:00130000
#04012:0000001300000000
#04017:0013
#05712:0013000000000000
#0571b:0000001313000000
#05713:0000000000000013
#0571a:0000000000130000
#05719:00000013
#05714:00000013
#05716:0013
#05412:1300130013000013
#0541b:13000013
#05417:00130000
#0631b:0000130000130000
#06312:0013000000000000
#06316:0000001300000000
#06315:0000000000000013
#06318:00000013
#06016:0000001300000000
#06012:13
#0601b:00000013
#06013:0013
#0601a:00130000
#06015:0000000000000013
#06018:0000000000130000
#06017:0013000000000000
#05217:0000001300000000
#0521b:13
#05212:00000013
#0521a:0013
#05213:00130000
#05218:0000000000000013
#05215:0000000000130000
#05216:0013000000000000
#0791b:1300001300001300
#07912:0013000013000000
#07916:00000000000000000000001300000000
#07917:00000000000000000013000000000000
#07915:00000000001300000000000000000000
#07918:00000013000000000000000000000000
#0781b:0000130000130000
#07813:00000013000000000000000000000000
#0781a:00130000000000000000000000000000
#07812:1300001300001300
#07815:00000000000000000000000000000013
#07818:00000000000000000000000000130000
#07814:00000000000000000013000000000000
#07819:00000000000000130000000000000000
#07712:1300001300001300
#0771b:0013000013000000
#07717:00000000000000000000001300000000
#07716:00000000000000000013000000000000
#07718:00000000001300000000000000000000
#07715:00000013000000000000000000000000
#07612:0000130000130000
#0761a:00000013000000000000000000000000
#07613:00130000000000000000000000000000
#0761b:1300001300001300
#07618:00000000000000000000000000000013
#07615:00000000000000000000000000130000
#07619:00000000000000000013000000000000
#07614:00000000000000130000000000000000
#07212:00000000000000130000130000130000
#07214:00130000
#0721b:13000013000013000013000000000000
#07216:00130000000000000000000000000000
#07217:00000000000000000000000000000013
#07219:00000013
#05517:0000001300000000
#05518:0000000000000013
#05515:00000013
#05512:0000130000130000
#0551b:0013000000000000
#06112:1300131300000000
#06116:0013
#06117:0013000000000000
#0611b:1300000000230000
#06118:0000000000000023
#06115:00000023
#05917:0000001313000000
#05912:0013
#05919:0000000000130000
#05916:0013000000001300
#0591b:00000013
#05914:0000000000000013
#0531b:1300131300000000
#05317:0013
#05316:0013000000000000
#05312:1300000000230000
#05315:0000000000000023
#05318:00000023
#05116:0000001313000000
#0511b:0013
#05114:0000000000130000
#05117:0013000000001300
#05112:00000013
#05119:0000000000000013
#05110:41
#0381b:1313
#03817:00130013
#03812:00130013
#03816:0013
#03712:13130013
#0371b:1313
#0361b:1313
#03617:00130000
#03612:00130000
#03616:0013
#03412:1313
#03416:00130013
#0341b:00130013
#03417:0013
#03516:00130013
#03517:1313
#02416:00130000000000000000000013000000
#0241b:00130000000000000000000023000000
#02417:0013
#02412:0023
#02017:00130000000000000000000013000000
#02012:00130000000000000000000023000000
#02016:0013
#0201b:0023
#00712:0000000000000016
#00718:13141516
#00713:0000000000150000
#00714:0000001400000000
#00715:0013000000000000
#01717:0000000000000013
#01712:0000130000000013
#0171b:1313
#01719:00000000000000000000001300000000
#01714:00000000000000000000001300000000
#01716:23
#01515:00000000130000000000001300000000
#0151b:0000000000130000
#01518:1300001300001300
#01512:0000001300000000
#01412:0000130000131300
#01418:00000000130000000000001300000000
#0141b:1300001300000000
#01415:0013001300000000
#01118:00000000130000000000001300000000
#01112:0000000000130000
#01115:1300001300001300
#0111b:0000001300000000
#0101b:0000130000131300
#01015:00000000130000000000001300000000
#01012:1300001300000000
#01018:0013001300000000
#0091b:1300001300000000
#00912:00000000130000000000001300000000
#00918:0000000000131300
#00915:2300001300000000
#00910:41
#0051b:0000000000000013
#00518:00002313
#00515:0000000000130000
#00015:0000000000131313
#00018:00000000000000000000001300130000
#0001b:0023
#05016:0000000000130013
#0501b:1300000013001313
#05012:26130000
#0501f:21
#05017:00230000
#04918:0012001300140015
#04913:00000015
#04914:0014
#04915:00130000
#04916:12
#0331b:13130013
#03312:1313
#03310:41
#00112:0000000000000013
#00115:00002313
#00118:0000000000130000
#0031b:0023
#08856:0000140000000054
#0885a:14640000
#08852:64
#03657:00530013
#03652:00000013
#0365b:5353
#03656:0053
#08056:0000140000000064
#08052:14540000
#0805a:54
#0445b:00005343
#04457:0000000000230000
#0705b:00006343
#07057:0000000000230000
#05856:00130000
#05857:1300000000000063
#0585b:00530000
#05852:63
#05057:00130000
#05052:36630000
#0505b:53
#05056:0000000000000053
#00155:0013
#0065b:0013
#00658:00000063000000000000000000000000
#00655:53
#0905a:00140014
#09052:1414
#08252:00140014
#0825a:1414
#00558:0013
#00252:0013
#00255:00000053000000000000000000000000
#00258:63
#00452:0013
#0005b:0013
#0035b:0013
#04756:00002400000000000024000000000000
#04752:0000005400000000
#0475a:64
#04856:00000000000000000023000000000000
#04857:0023000000000000
#04852:0000005300000000
#0485b:63
#04655:00000000000000000025000000000000
#04652:0000005500000000
#04656:0025000000000000
#04659:65
#04552:0000005600000000
#04555:00002600000000000026000000000000
#04558:66
#02356:53
#02357:0000630000000063
#02352:0000000000000063
#1045b:0000000000000053
#10452:0000000000000053
#0315b:0000530000000063
#03152:63
#03156:0000000000000063
#02956:0000630000000063
#02957:5353
#01652:0000006300000000
#04156:0063
#08956:0064000000000000
#08156:0054000000000000
#02557:0000530000000053
#02556:6363
#02757:0000000000000053
#02752:0000000000000053
#0275b:53
#09552:0053000000000000
#09557:23
#0945b:0000000063000063
#09456:00630000
#09452:0000002300000000
#09257:0000000000000053
#09258:0053
#09252:0000002300000000
#0925b:0000000000230000
#09256:00630000
#09352:0000005300000000
#09356:0000000000230000
#0875b:0063000000000000
#08756:23
#08652:0000000053000053
#08657:00530000
#0865b:0000002300000000
#06852:63000063
#0685b:0000005300000000
#06757:00000063
#06756:0000005300000000
#0665b:00000053
#06656:53
#06652:0000006300000000
#0695b:0000005300000000
#09156:0024000024000000
#0915a:0000005400000000
#09152:64
#08456:0000000000000063
#08455:0063
#0845b:0000002300000000
#08452:0000000000230000
#08457:00530000
#0855b:0000006300000000
#08557:0000000000230000
#08356:0024000024000000
#08352:0000006400000000
#0835a:54
#10356:0000005300000000
#10252:00000023000000000000000000000000
#10256:63
#1025b:0000006300000000
#10057:00000023000000000000000000000000
#10052:0000006300000000
#1005b:63
#1015b:0000006300000000
#09957:0000006300000000
#0985b:00000023000000000000000000000000
#09857:53
#09852:0000005300000000
#09656:00000023000000000000000000000000
#0965b:0000005300000000
#09652:53
#04056:53
#04057:0053
#0565b:0000000000000053
#05656:00530000
#05657:0063
#05752:0053000000000000
#06452:0000000000000063
#06457:00630000
#06456:0053
#0655b:0063000000000000
#06256:00530000
#0625b:0000000053000053
#06356:0000006300000000
#06052:13
#0605b:00000013
#06053:0013
#0605a:00130000
#0525b:13
#05252:00000013
#0525a:0013
#05253:00130000
#0795b:4300004300004300
#07957:00000000000000000043000000000000
#07958:00000043000000000000000000000000
#0785b:0000430000430000
#0785a:00430000000000000000000000000000
#07858:00000000000000000000000000430000
#07859:00000000000000430000000000000000
#07752:3300003300003300
#07756:00000000000000000033000000000000
#07755:00000033000000000000000000000000
#07652:0000330000330000
#07653:00330000000000000000000000000000
#07655:00000000000000000000000000330000
#07654:00000000000000330000000000000000
#05557:0000005300000000
#05452:0000000063000063
#05457:00630000
#06152:0000006300000000
#06156:0023
#06157:0023000000000000
#0615b:53
#05956:0063000000000000
#0535b:0000005300000000
#05357:0023
#05356:0023000000000000
#05352:63
#03952:00230000
#03956:63
#0385b:6363
#03857:00630063
#03752:00230023
#0375b:0063
#03452:5353
#03456:00530053
#03556:00230023
#03557:5353
#02152:6353
#02156:0000000000000053
#0215b:0000630000000053
#02456:00230000000000000000000000000000
#0245b:00230000000000000000000000000000
#02057:00230000000000000000000000000000
#02052:00230000000000000000000000000000
#01956:0000000000000053
#0195b:0000000000000053
#01957:63
#01757:0000000000000063
#01752:0000530000000063
#0175b:53
#0125b:0000005300000000
#01452:00000063
#0145b:0000005300000000
#01352:63
#01355:00000053
#01358:0000006300000000
#01558:63000053
#01552:0000006300000000
#0105b:00000053
#01052:0000006300000000
#0095b:53
#00958:00000063
#00955:0000005300000000
#09752:0000005300000000
#01155:53000063
#0115b:0000005300000000
#0335b:00230023
#03352:0053
#05157:0053000000000000
#000350:13000023000000000000000000000000
#000381:00000013000023000000000000000000
#000320:0000001323000000
#0013b0:13000023000000000000000000000000
#001321:00000013000023000000000000000000
#001380:0000001323000000
#002380:13
#0023b0:00000023000000000000000000000000
#002351:00000013000000000000000000000000
#002321:0000002300000000
#0023b0:0000001323000000
#003350:13000023000000000000000000000000
#003381:00000013000023000000000000000000
#003320:0000001323000000
#003350:00000013
#004350:23
#004381:13000023000000000000000000000000
#004350:00000013000023000000000000000000
#0043b1:0000001323000000
#005321:13000023000000000000000000000000
#0053b0:00000013000023000000000000000000
#005351:0000001323000000
#006351:13
#006321:00000023000000000000000000000000
#006380:00000013000000000000000000000000
#0063b0:0000002300000000
#006321:0000001323000000
#0083b1:13
#008391:0033000000000000000000000000000000000000000000000000000000000000
#008381:00330000230000000000000000000000
#008320:00130000
#008340:0000000000000000003300000000000000000000000000000000000000000000
#008350:00000000003300002300000000000000
#008380:0000000000000000000000000000000000000000133300000000000000000000
#0083b0:00000023
#0093b0:13
#009380:00230000
#009350:0000001300000000
#009320:0000000000230000
#009380:00000013
#0103b0:23
#010320:0000001300000000
#010350:0000000000230000
#0103b0:00000013
#011380:23
#011351:13
#011321:00230000
#0113b1:0000001300000000
#011381:0000000000230000
#011351:00000013
#012321:23
#0123b1:0000001300000000
#012381:0000000000230000
#013321:13
#013351:00230000
#013381:0000001300000000
#0133b1:0000000000230000
#013351:00000013
#014321:23
#0143b1:0000001300000000
#014381:0000000000230000
#014321:00000013
#015351:23
#015380:13
#0153b0:00230000
#015320:0000001300000000
#015350:0000000000230000
#015380:00000013
#0163b0:23
#016320:0000001300000000
#016350:0000000000230000
#0173b0:13
#017370:00230000
#017321:00130000
#017361:0023
#017371:0000000000000013
#0183b1:00230000
#017320:0000000000000013
#018360:00230000
#019370:13
#0193b0:00230000
#019360:0000000000000013
#020320:00530000000000000000000000000000
#020360:00230000
#0193b1:0000000000000013
#020371:00530000000000000000000000000000
#0203b1:00230000
#021321:13
#021361:00230000
#0213b0:00130000
#021370:0023
#021321:0013
#021361:00000023
#021361:0000000000000013
#022321:00230000
#0213b0:0000000000000013
#022370:00230000
#023360:13
#023320:00230000
#023371:00130000
#0233b1:0023
#023371:0000000000000013
#0243b1:00530000000000000000000000000000
#024371:00230000
#023320:0000000000000013
#024360:00530000000000000000000000000000
#024320:00230000
#025360:13
#025320:00230000
#025371:00130000
#0253b1:0023
#025360:0013
#025320:00000023
#025370:0000000000000013
#0263b0:0023000000000000
#0273b0:13
#027370:00230000
#027370:0000000000000013
#0283b0:0023000000000000
#027321:0000000000000013
#028361:0023000000000000
#029371:13
#0293b1:00230000
#029360:00130000
#029320:0023
#029371:0013
#0293b1:00000023
#029361:0000000000000013
#030321:0023000000000000
#031321:13
#031361:00230000
#0313b0:00130000
#031370:0023
#031321:0000000013230000
#0313b0:0000000000132300
#031360:0000000000000013
#032320:0023000000000000
#0313b1:0000000000000013
#032371:0023000000000000
#0333b1:00130000
#033371:0023
#033320:0013
#033360:00000023
#0333b1:00000013
#034371:23
#034320:1333
#034360:00330033
#035320:23
#035371:13
#0353b1:00230000
#035360:00130000
#035320:0023
#035371:0013
#0353b1:00000023
#035360:00000013
#036320:23
#0363b1:1333
#036371:00330023
#036360:0013
#036320:00000023
#037320:00130000
#037360:0023
#0373b1:0013
#037371:00000023
#037320:00000013
#038360:23
#0383b1:1333
#038371:00330033
#0393b1:23
#039360:1323
#039320:00530000
#040360:13
#040320:00230000
#040370:0013
#0403b0:00000023
#041360:0013
#041320:00000023
#042380:13230000
#0423b0:0033000000000000
#042351:00132300
#042321:0000003300000000
#0443b1:00001323
#044371:0000000000530000
#045381:16260000
#045351:0056000000000000
#045321:0000001600002600
#045351:00000000000000000056000000000000
#046391:15250000
#046361:0055000000000000
#046321:0000001500002500
#046351:00000000000000000055000000000000
#0473a1:14240000
#047361:0054000000000000
#047321:0000001400002400
#047361:00000000000000000054000000000000
#0483b1:13230000
#048371:0053000000000000
#048321:0000001300002300
#048361:00000000000000000053000000000000
#0503b1:13
#050371:00230000
#050320:00130000
#050360:0023
#050360:0000000000000013
#051320:0023000000000000
#051371:0013000000000000
#0513b1:0000002300000000
#053321:13230000
#053361:0053000000000000
#0533b1:0000001300230000
#053371:0053
#054371:00130000
#0543b1:0023
#054320:0013
#054360:00000023
#054320:0000000000000013
#055360:0023000000000000
#055370:0000001300000000
#0553b0:0000000000230000
#056360:00130000
#056320:0023
#056371:0013
#0563b1:00000023
#0563b1:0000000000000013
#057371:0023000000000000
#057320:0013000000000000
#057360:0000002300000000
#058320:13
#058360:00230000
#0583b1:00130000
#058371:0023
#058371:0000000000000013
#0593b1:0023000000000000
#059360:0013000000000000
#059320:0000002300000000
#0613b0:13230000
#061370:0053000000000000
#061320:0000001300230000
#061360:0053
#062360:00130000
#062320:0023
#0623b1:0013
#062371:00000023
#0623b1:0000000000000013
#063371:0023000000000000
#063361:0000001300000000
#063321:0000000000230000
#064371:00130000
#0643b1:0023
#064360:0013
#064320:00000023
#064320:0000000000000013
#065360:0023000000000000
#0653b1:0013000000000000
#065371:0000002300000000
#066361:13
#066321:00230000
#066321:0000001300000000
#066361:0000000000230000
#0663b1:00000013
#067371:23
#067361:0000001300000000
#067321:0000000000230000
#067371:00000013
#0683b1:23
#068320:13
#068360:00230000
#0683b0:0000001300000000
#068370:0000000000230000
#068320:00000013
#069360:23
#0693b0:0000001300000000
#069370:0000000000230000
#0703b0:00130000
#070370:0000002300000000
#070321:0000001300000000
#070331:0000000000000000000000000033000000000000000000000000000000000000
#070341:00000000000000330000000000000000
#070351:0000000000000000000000000000003300000000000000000000000000000000
#070361:0023
#0703b0:00001323
#070370:0000000000530000
#070321:00000013
#071321:23
#071380:12220000
#0803a0:14
#080360:00240000
#080321:00140000
#080361:0024
#080361:0000000000000014
#081321:0024000000000000
#081360:0014000000000000
#0813a0:0000002400000000
#0833a0:14240000
#083360:0054000000000000
#083320:0000001400240000
#083360:0054
#084370:00130000
#0843b0:0000005300000000
#084380:0023
#084351:0013
#084321:0000000000530000
#084361:00000023
#084361:0000000000000013
#085321:0023000000000000
#0853b1:0000001300000023
#085371:0000000000530000
#086371:00132300
#0863b1:0000005300000000
#086320:0013
#086360:00000023
#086320:0000000000000013
#087360:53
#087320:0023000000000000
#0873b1:0013000000000000
#087371:0000002300000000
#088321:14
#088361:00240000
#0883a0:00140000
#088360:0024
#088360:0000000000000014
#0893a0:0024000000000000
#089361:0014000000000000
#089321:0000002400000000
#091321:14240000
#091361:0054000000000000
#0913a1:0000001400240000
#091361:0054
#092361:00130000
#092321:0000005300000000
#092351:0023
#092380:0013
#0923b0:0000000000530000
#092370:00000023
#092370:0000000000000013
#0933b0:0023000000000000
#093320:0000001300000023
#093360:0000000000530000
#094360:00132300
#094320:0000005300000000
#0943b1:0013
#094371:00000023
#0943b1:0000000000000013
#095371:53
#0953b1:0023000000000000
#095320:0013000000000000
#095360:0000002300000000
#096320:1300002300000000
#096360:00000053000000000000000000000000
#0963b1:0000001300000000
#096371:0000000000230000
#097321:0000001300000000
#097361:0000000000230000
#098371:1300002300000000
#0983b1:00000053000000000000000000000000
#098320:0000001300000000
#098360:0000000000230000
#099360:1323000000000000
#0993b1:0013230000000000
#099320:0000132300000000
#099371:0000001300000000
#0993b1:0000000000230000
#1003b1:1300002300000000
#100371:00000053000000000000000000000000
#100320:0000001300000000
#100360:0000000000230000
#1013b0:0000001300000000
#101370:0000000000230000
#102360:1300002300000000
#102320:00000053000000000000000000000000
#1023b1:0000001300000000
#102371:0000000000230000
#103371:1323000000000000
#103320:0013230000000000
#1033b1:0000132300000000
#103360:0000001300000000
#103320:0000000000230000
#104350:13
#104330:0033000000000000000000000000000000000000000000000000000000000000
#104320:00330000230000000000000000000000
#104381:00130000
#1043a1:0000000000000000003300000000000000000000000000000000000000000000
#1043b1:00000000003300002300000000000000
#104351:0000000000000000000000000000000000000000133300000000000000000000
#104321:00000023
#1043b1:0000000000000013
#105381:0000005300000000
#108381:22
#104320:0000000000000013
#105350:0000005300000000
#108360:22
