This file was generated by Ched 2.7.0.0.
#TITLE ""
#ARTIST ""
#DESIGNER ""
#DIFFICULTY 0
#PLAYLEVEL
#SONGID ""
#WAVE ""
#WAVEOFFSET 0
#JACKET ""
#REQUEST "ticks_per_beat 480"
#00002: 4
#BPM01: 180
#00008: 01
#TIL00: ""
#VOLUME: ""
#HISPEED 00
#MEASUREHS 00
#01815:0000000000130000
#01812:0000000000000013
#01818:00000013
#0181b:0013
#05518:00130013
#05512:0000001300000000
#05515:0000000000000013
#03312:13
#0331b:13130013
#03318:0013
#03310:41
#03712:13
#0371b:13130000
#03718:0013
#04415:1300001300000013
#04418:0013000023000000
#04412:00130000
#00215:00002313
#00218:0000000000130000
#00214:00000033000000000000000000000000
#00918:0000001300000000
#0091b:13
#00915:00000013
#00910:41
#0171b:13
#01715:0000000000000013
#01714:00000000000000000000003300000000
#04218:0000130000130013
#04215:0013000023001300
#04212:13
#0421b:0000001300000000
#04312:13000013
#0431b:0000001300000013
#04318:0013000000130000
#04315:00132300
#04915:13130000
#04918:0013001300140014
#04914:00001414
#05718:00001313
#05712:0000001300000000
#05715:0000000000130013
#0801a:24000014
#08014:0000000000140000
#08018:0014
#08012:0000240000000014
#08010:41
#08515:00000013
#08518:1300001300000013
#08512:00130000
#0851b:0013
#00015:0000000000130000
#00018:00002313
#00019:00000033000000000000000000000000
#05116:0000000000000013
#05119:00000013
#05114:0000000000130000
#05117:0013
#05112:0000001300000000
#05110:41
#05212:0013000000130000
#0521b:1313
#05215:0000001300000013
#05218:00130013
#04112:0000001300001300
#04115:0013000000000000
#04118:0000130000000013
#0411b:1323
#0411f:11
#0811a:0000001400140000
#08112:0000000014000014
#08116:00000014
#08215:0014000000000000
#08214:0000001400000000
#08213:0000000000140000
#08212:0000000000000014
#0821a:24
#08219:00240000
#08218:0024
#08217:00000024
#08412:00130000
#08415:00000013
#0841b:0000000000000013
#08418:00130000
#1041a:0000000000000014
#10415:0013
#1041b:13130000
#10412:13130014
#10418:0000000000130000
#00118:0000000000130000
#00115:00000013
#0011b:0000000000000013
#00112:0023
#00113:00000033000000000000000000000000
#00618:00002313
#00615:0000000000130000
#00619:00000033000000000000000000000000
#00418:0000000000130000
#00415:00002313
#00414:00000033000000000000000000000000
#00515:0000000000130000
#00518:00000013
#00512:0000000000000013
#0051b:0023
#0051a:00000033000000000000000000000000
#00715:13131313
#00718:0013001300130013
#00818:0013
#00812:1300130000000013
#0081b:13130013
#00815:0000000000130000
#0101b:13
#01018:00000013
#01012:0000001300000000
#01218:00130013
#01215:0013001300000000
#01112:0000001300000000
#01115:13
#0111b:00000013
#01315:0000001300000000
#01312:13
#01318:00000013
#01412:13
#01415:00000013
#0141b:0000001300000000
#01615:00130013
#01618:0013001300000000
#0151b:0000001300000000
#01518:13
#01512:00000013
#01918:1300000000000013
#01915:0000001300000000
#01919:00000000000000000000003300000000
#02515:0000000013000013
#02518:13000013
#03418:1313
#0341b:00130013
#03515:00130013
#03512:1313
#03612:1313
#03615:00130000
#02315:0000000000130013
#02318:00001313
#02312:13
#02018:00001323
#02012:00002313
#02415:00001323
#0241b:00002313
#02115:13
#0211b:0000000000000013
#02110:41
#02218:0000000000000013
#0221b:0000000000130000
#02212:00000013
#02215:0013
#02618:0000001300000013
#02612:0013
#02715:13
#02718:0000000000000013
#03916:00130000
#03912:13
#03915:0000000000000013
#0391b:00000013
#03812:13
#0381b:0013
#0401b:13
#04018:0000001300000000
#04012:00131300
#04518:0000000000000013
#0451b:13
#04512:0000001300000000
#04612:1300000000000013
#0461b:0000001300000000
#0471b:0000000000000013
#04715:0000001300000000
#04718:13
#04815:13
#04818:0000001300000000
#05012:24000013
#05015:0013
#05018:0000000000130000
#0501b:0000000000000013
#0501a:00240000
#0501f:21
#05315:0000001300002300
#0531b:13
#05318:0000000000230023
#05412:00130000
#05415:0000000000000013
#0541b:00000013
#05618:00130000
#05615:00000013
#0561b:0000000000000013
#06315:00130013
#0631b:0000001300000000
#06318:0000000000000013
#05917:0000000000000013
#05914:00000013
#05919:0000000000130000
#05916:0013
#0591b:0000001300000000
#0601b:0013000000130000
#06012:1313
#06018:0000001300000013
#06015:00130013
#0581b:00000013
#05818:0013
#05815:0000000000130000
#05812:0000240000000013
#0581a:24
#06118:0000001300002300
#06112:13
#06115:0000000000230023
#06212:00000013
#0621b:00130000
#06218:0000000000000013
#06415:00130000
#06418:00000013
#06412:0000000000000013
#06515:00001313
#0651b:0000001300000000
#06518:0000000000130013
#06718:00130013
#06715:13
#06712:0000001300000000
#06612:13
#06618:00130000
#0661b:00000013
#06615:0000001300000000
#06812:13
#06818:00130000
#0681b:00000013
#06815:0000001300000000
#06912:13
#06915:00130013
#06918:0013000000000000
#0691b:0000001300000000
#08316:14000024
#08312:0000001400000024
#0831a:0000000000240000
#08612:00130013
#0861b:0000130000000013
#08812:24000014
#08818:0000000000140000
#08814:0014
#0881a:0000240000000014
#09318:00000013
#09315:1300001300000013
#0931b:00130000
#09312:0013
#08912:0000001400140000
#0891a:0000000014000014
#08916:00000014
#09017:0014000000000000
#09018:0000001400000000
#09019:0000000000140000
#0901a:0000000000000014
#09012:24
#09013:00240000
#09014:0024
#09015:00000024
#0921b:00130000
#09218:00000013
#09212:0000000000000013
#09215:00130000
#09210:41
#09116:14000024
#0911a:0000001400000024
#09112:0000000000240000
#0941b:00130013
#09412:0000130000000013
#0701b:0013
#07012:00000016
#08712:0013
#08718:0013000000001300
#08715:0000000000130000
#0871b:0000000000000013
#09918:00130013
#09912:1300001300000000
#0991b:13
#09915:0013000000000000
#0951b:0013
#09515:0013000000001300
#09518:0000000000130000
#09512:0000000000000013
#09618:1300000000131300
#09612:0000001300000000
#09615:00000000000000000000001300000000
#09718:0000001300000000
#09715:0000000000131300
#0971b:00000000000000000000001300000000
#09712:13
#09815:00000000000013000000001300000000
#0981b:0000000000131300
#09818:13
#10315:00130013
#1031b:1300001300000000
#10312:13
#10318:0013000000000000
#10015:1300000000131300
#1001b:0000001300000000
#10018:00000000000000000000001300000000
#10115:0000001300000000
#10118:0000000000131300
#10112:00000000000000000000001300000000
#1011b:13
#10218:00000000000013000000001300000000
#10212:0000000000131300
#10215:13
#03118:0000000000130013
#03115:00001313
#0311b:13
#02918:13
#02912:0000000000000013
#03015:0000000000000013
#03012:0000000000130000
#0301b:00000013
#03018:0013
#0281b:00000013
#02812:0013
#02818:0023
#02815:00000023
#03212:00000013
#0321b:0013
#03215:0023
#03218:00000023
#0031b:0023
#0031a:00000033000000000000000000000000
#07112:00000000003333333333333333330000
#00958:0000005300000000
#0095b:63
#0175b:53
#01755:0000000000000063
#00058:0013
#08452:00530000
#0845b:0000000000000063
#08458:00530000
#1045a:0000000000000054
#0505a:00140000
#05052:14
#0505b:0000000000000063
#00152:0013
#00255:0013
#0035b:0013
#00455:0013
#0055b:0013
#00658:0013
#0105b:63
#01052:0000005300000000
#01152:0000005300000000
#01155:63
#0115b:00000063
#01255:0000005300000000
#01355:0000006300000000
#01352:53
#01452:53
#0145b:0000006300000000
#0155b:0000006300000000
#01558:53
#01552:00000053
#01658:0000006300000000
#01958:5300000000000053
#02555:0000000000000063
#02558:63
#03458:6363
#0345b:00630063
#0335b:00630063
#03358:0063
#03555:00530053
#03552:5353
#03652:5353
#03655:00530000
#02355:0000000000000063
#02352:53
#02155:63
#0215b:0000000000000063
#02652:0063
#02755:63
#02758:0000000000000053
#03758:0063
#0375b:00630000
#03956:00230000
#03952:53
#03852:63
#0385b:0053
#0455b:63
#04552:0000005300000000
#04652:53
#0465b:0000006300000000
#04755:0000006300000000
#04758:53
#04855:63
#04858:0000005300000000
#0535b:63
#05452:00530000
#05455:0000000000000063
#05552:0000005300000000
#05658:00530000
#0565b:0000000000000063
#06152:53
#05852:0000140000000053
#0585a:14
#0625b:00630000
#06258:0000000000000053
#0635b:0000006300000000
#06455:00630000
#06452:0000000000000053
#06655:0000006300000000
#06752:0000005300000000
#06855:0000006300000000
#0695b:0000006300000000
#0805a:44
#08052:0000340000000054
#08356:54
#08558:2300005300000000
#0855b:0023
#08652:00530000
#0865b:0000630000000063
#0925b:00630000
#09252:0000000000000053
#09255:00630000
#0885a:0000440000000064
#08852:34
#09156:64
#09355:2300006300000000
#09352:0023
#0945b:00630000
#09452:0000530000000053
#0705b:0023
#07052:00000066
#08758:0053000000000000
#09555:0063000000000000
#09658:53
#09752:53
#09858:53
#10055:63
#1015b:63
#10255:63
#09952:0000005300000000
#03158:0000000000000053
#0315b:63
#02958:53
#02952:0000000000000053
#1035b:0000006300000000
#0003b0:13
#000390:00000033000000000000000000000000
#000380:0000003323000000
#001350:13
#001330:00000033000000000000000000000000
#001320:0000003323000000
#002320:13
#002340:00000033000000000000000000000000
#002350:0000003323000000
#003380:13
#0033a0:00000033000000000000000000000000
#0033b0:0000003323000000
#003320:00000013
#004320:33
#004340:00000033000000000000000000000000
#004350:0000003323000000
#005380:13
#0053a0:00000033000000000000000000000000
#0053b0:0000003323000000
#0063b0:13
#006390:00000033000000000000000000000000
#006380:0000003323000000
#0093b0:1300000000230000
#009380:0000333300000000
#0103b0:13
#010380:00230000
#010320:0000001300000000
#010350:0000000000230000
#011350:1300000000230000
#011320:0000333300000000
#0113b0:00000013
#012380:23
#012350:0000001300000000
#012320:0000000000230000
#013320:1300000000230000
#013350:0000333300000000
#014320:13
#014350:00230000
#0143b0:0000001300000000
#014380:0000000000230000
#015380:1300000000230000
#0153b0:0000333300000000
#015320:00000013
#016350:23
#016380:0000001300000000
#0163b0:0000000000230000
#0173b0:13
#017380:00230000
#017320:0013
#017340:00000000000000000000003300000000
#017350:0000000000000033
#018320:00230000
#019380:13
#0193b0:00230000
#0193b0:0013
#019390:00000000000000000000003300000000
#019380:0000000000000033
#0203b0:00230000
#021350:13
#021320:00230000
#021380:0013
#0213b0:0000000000003333
#022380:00230000
#023320:13
#023350:00230000
#023350:0000000000000013
#024320:00230000
#025380:13
#0253b0:00230000
#025350:0000000000000013
#026320:00230000
#026320:0013
#026350:00000023
#027350:13
#027320:00230000
#027380:0000001333000033
#0273b0:00000000000000000000003300000000
#0283b0:00230000
#029380:13
#0293b0:00230000
#029350:0013
#029320:0000000000003333
#030350:00230000
#0313b0:13
#031380:00230000
#031380:0000000000000013
#0323b0:00230000
#0333b0:00130033
#033380:0033
#034380:3333
#0343b0:00330033
#035380:23
#035321:1333
#035351:00330033
#036321:3333
#036351:00330023
#0373b1:00130023
#037381:0033
#038321:13
#038351:00230000
#0383b1:0013
#038381:00000023
#039321:1323
#039361:00530000
#0453b1:13
#045381:00230000
#045321:0000001300000000
#045351:00000023
#046321:13
#046351:00230000
#0463b1:0000001300000000
#046381:00000023
#047381:13
#0473b1:00230000
#047351:0000001300000000
#047321:00000023
#048351:13
#048321:00230000
#048381:0000001300000000
#0483b1:00000023
#0503b1:0000000000000013
#051381:0023000000000000
#0533b1:13
#053381:00230000
#054321:00130000
#054351:0023
#054351:0000000000000013
#055321:0023000000000000
#055321:0000001300000000
#055351:0000000000230000
#056381:00130000
#0563b1:0023
#0563b1:0000000000000013
#057381:0023000000000000
#058321:0000000000000013
#059351:0023000000000000
#061321:13
#061351:00230000
#0623b1:00130000
#062381:0023
#062381:0000000000000013
#0633b1:0023000000000000
#0633b1:0000001300000000
#063381:0000000000230000
#064351:00130000
#064321:0023
#064321:0000000000000013
#065351:0023000000000000
#066351:0000001300000000
#066321:0000000000230000
#067321:0000001300000000
#067351:0000000000230000
#068351:0000001300000000
#068321:0000000000230000
#0693b1:0000001300000000
#069381:0000000000230000
#0703b1:1300330033003300330000003333333333000000000000000000000000000000
#070381:00000026
#070320:00000016
#071320:33000000333333333333333333332600
#0723b0:13330000000000000000000033330000
#072390:00000033330000000033330000000033
#072370:00000000000033330000000000000000
#073390:33000000003333000000003323000000
#073370:00003333000000000000000000000000
#0733b0:00000000000000003333000000000000
#074320:13330000000000000000000033330000
#074340:00000033330000000033330000000033
#074360:00000000000033330000000000000000
#075340:33000000003333000000003323000000
#075360:00003333000000000000000000000000
#075320:00000000000000003333000000000000
#0763b0:13330000000033330000000033330000
#076380:00000033330000000033330000000033
#077380:33000000003333000000003323000000
#0773b0:00003333000000003333000000000000
#078320:13330000000033330000000033330000
#078350:00000033330000000033330000000033
#079350:33000000003333000000003323000000
#079320:00003333000000003333000000000000
#080320:0000000000000014
#081360:0024000000000000
#083360:14
#0833a0:00240000
#084320:00130000
#084350:0023
#084381:00130000
#0843b1:0023
#0843b1:0000000000000013
#085381:53
#0853b1:0023000000000000
#085381:0000001300230000
#0853b1:0053
#086321:00130000
#086351:0023
#0863b0:00130000
#086380:0023
#0863b0:0000000000000013
#087380:0033000000000000
#0873b0:0000002300000000
#0883a0:0000000000000014
#089360:0024000000000000
#091360:14
#091320:00240000
#0923b0:00130000
#092380:0023
#092351:00130000
#092321:0023
#092321:0000000000000013
#093351:53
#093321:0023000000000000
#093351:0000001300230000
#093321:0053
#0943b1:00130000
#094381:0023
#094320:00130000
#094350:0023
#094320:0000000000000013
#095350:0033000000000000
#095320:0000002300000000
#096380:13
#0963b0:00230000
#097320:13
#097350:00230000
#098380:13
#0983b0:00230000
#099320:0000001300000000
#099350:0000000000230000
#100350:13
#100320:00230000
#1013b0:13
#101380:00230000
#102350:13
#102320:00230000
#1033b0:0000001300000000
#103380:0000000000230000
#1043a0:0000000000000014
#105360:0000005400000000
#108370:22
