This file was generated by Ched 2.7.0.0.
#TITLE ""
#ARTIST ""
#DESIGNER ""
#DIFFICULTY 0
#PLAYLEVEL
#SONGID ""
#WAVE ""
#WAVEOFFSET 0
#JACKET ""
#REQUEST "ticks_per_beat 480"
#00002: 4
#BPM01: 180
#00008: 01
#TIL00: ""
#VOLUME: ""
#HISPEED 00
#MEASUREHS 00
#00812:0000000000001313
#0081b:0000000000001313
#0081a:1212
#00818:0000120000000000001200000000000000000000120000000000000000000000
#00816:0012000000000000000012000000000000000000001200000000000000000000
#00814:00000000120000000012000000000000
#01812:0000130013131300
#0181b:00130000000000001300000013001300
#01816:0000000000000013
#01817:0000000000130000
#05019:0000000000130000
#05017:0000001300001300
#05016:0013000013000014
#05012:13230013
#05014:0000000000130000
#0501b:2300130000000013
#0501f:21
#05116:0014000000000000
#05115:0000001200000012
#05112:00131300
#05119:0000000000120000
#05117:00001212
#0511b:13000013
#05110:41
#05312:1300001300000013
#0531b:1300001300001300
#05317:0013000000230023
#05316:00131323
#05319:0013
#05412:1c130013
#0541b:0000130013000013
#05417:0000001300130000
#05416:0000000013000013
#05517:0013001300000013
#05512:0000131300000013
#05516:0000000000130000
#05519:13000013
#05514:00001313
#0551b:00130000
#0561b:0000130000130013
#05617:0013
#05612:1c130013
#05616:0000001300000013
#05717:1313
#0571b:0013000000000000
#05716:0013000000001300
#05719:0000000000000013
#05712:0013
#05714:0000000000130000
#0761b:13
#07612:001c00001c00001c00131c00001c0000
#07618:00000013000000000000000000000013
#07615:0000001300001300
#07712:1c00001c00001c00001c00131c000000
#0771b:0013000000000000
#07718:00000000001300000000000000000000
#07715:0013
#0801b:00000013
#08012:2400001400130013
#0801a:2414
#08016:0014240000141414
#08010:41
#08212:141b261914172215
#08218:00140000
#08214:00000014
#08216:2824
#08312:14141414
#0831a:0014001400000014
#08316:1400001414242424
#08416:0000000000001313
#0841b:0000130023001313
#08412:16231300
#08418:16
#08414:0000000000130000
#08417:0000001300000000
#08517:0013001300000000
#08516:0000000000130013
#08512:00000013
#0851b:00130000
#08519:13
#08514:0013
#08612:1600000023000013
#08616:00130013
#08617:0000000013000013
#08618:16
#08614:0000001300000000
#08619:0000000000130000
#0861b:00230013
#08717:0000001300000013
#08716:13131300
#08712:0013001300130000
#0871b:13130013
#0961b:23131300
#09612:0000001300001313
#09617:00001300000013000000001313000000
#09616:0013
#09614:0000000000130000
#09717:0013000013000000
#09718:00000013
#0971b:0000000000130013
#09716:0000130000000013
#09715:00000000000000000000001300000000
#09712:00000013
#10412:0000000000001616
#10418:0000000000001616
#10415:0000120000000000001200000000000012000000000000000000000000000000
#10419:0012000000000000000012000000000000000000120000000000000000000000
#10417:1200000000000000120000000000000000001200001200000000000000000000
#0251a:12000000000000000000000000000012
#02514:12
#02518:00001200000000000000000000120000
#02516:00000012000000000000000000001200
#02512:00240024
#02618:00000000001200000012000000000012
#02616:0012001200120012
#0261a:00000012000000120000000000120000
#0261c:00120000000000000000001200000000
#02614:12
#02612:00241224
#03714:1300000000000016
#03719:13
#03712:0000131814001500
#03717:00000017
#03713:0000000000170000
#03716:0018
#03715:00190000
#0411b:1313
#04117:0000130000130000
#04116:13000013
#04112:00132600
#04119:0013001300000000
#04114:0000000000000013
#0411f:11
#04317:00130013
#04312:13132613
#04319:0013001300130013
#0431b:1313
#04412:1300000013000013
#04417:0000000000001313
#04416:0000130000130000
#0441b:13130000
#04414:0013001300000000
#04418:0026
#04517:13
#04512:1300131300000000
#04516:00000000000000000013000000001300
#0451b:0000000013000013
#04915:1200000000160000
#04917:0012000000000000
#04914:0000130000000018
#04916:0000001400000000
#04913:0014
#04912:00000015
#04919:12131415
#07215:00000000000000130000000019000000
#0721b:13130000
#07212:00130013000000000016000000130019
#07218:0000001600130000
#0111b:1300001300001300
#01118:0000000000130000
#01116:1300001300000000
#01114:0013000000000013
#01112:00130000
#01115:00000000000000000000001300000000
#06712:00001300000013000000001300000000
#06716:00130000
#0671b:0000000000130000
#06717:00000013
#06714:0000000000000013
#06719:0013
#06817:0000131300001300
#06812:00000000000013000000001300000000
#06816:1300000000130013
#06819:0013000000000000
#06814:0013
#0691b:0013001300000000
#06917:0000130000131300
#06916:0013001300000000
#06912:13130013
#06919:0013
#09814:0000000000000013
#09817:1313130000000000
#0981b:00000000000013000000001313000000
#09816:00000013
#09812:0000130000130000
#00112:1300001300140000
#0011b:13000013000000000000000000000000
#00116:00000014
#0011a:0000000024000014
#00212:1800001600140000
#00216:00000018000000002400000000001400
#0021a:00000000000000000000000000140000
#00214:00000014
#00218:00000000000000000000001400000000
#0031b:1300001300000000
#00312:13000013000000002400000000000000
#00316:00000014
#00416:1300001324140000
#00417:00000013000000000000000000000000
#00412:0000000000000014
#00418:00000000000000000000000000140000
#00414:00000014
#0041a:00000000000000000000001400000000
#00618:0000001600001400
#00612:00000018000000000000000000140000
#00616:1800000024000014
#0061a:0000000000140000
#00614:00000000000000000000001400000000
#01018:00000000000000000000001300000000
#01014:0000000000000013
#01015:0000000000130000
#01017:0000001300000000
#01012:00000013
#0101b:00000013
#00917:0000131300001300
#00916:13
#0091b:2300000000130000
#00912:00000000000013000000001300000000
#00919:0013000000000000
#00910:41
#0121b:0013001300001300
#01217:00130000
#01216:0013001300001300
#01212:1300130000130000
#01512:1300001300001300
#01515:0000000000130000
#01517:1300001300000000
#01519:0013000000000013
#0151b:00130000
#01518:00000000000000000000001300000000
#01415:00000000000000000000001300000000
#01419:0000000000000013
#01418:0000000000130000
#0141b:00000013
#01412:00000013
#01416:0000001300000000
#01316:0000131300001300
#01317:13
#01312:0000000000130000
#0131b:00000000000013000000001300000000
#01314:0013000000000000
#01612:0013001300001300
#01616:00130000
#01617:0013001300001300
#0161b:1300130000130000
#0171b:0000001300001300
#01712:0000130013000013
#01714:0013000000000000
#01716:23000000000000000000001300000000
#01719:0013000000000000
#01717:0000130000000013
#0331a:1214
#03314:12
#0331b:00130000
#03319:0000001400001500
#03318:0000000000140000
#03317:0000000000000014
#03312:00191817
#03310:41
#03418:16
#03417:0013170000000000
#03416:0000001318000000
#03415:0000000000131900
#03414:0000000000000013
#03412:16151413
#03512:00191817
#03519:0013000000001500
#03518:0000001300000000
#03517:0000000000130000
#03516:0000000000000013
#0351a:0014
#0351b:00130000
#0351c:12
#03612:16151413
#03615:0014000000000000
#03614:0000001400000000
#03613:0000000000140000
#03616:0018
#03617:00170000
#03618:16
#05218:1600000000120000
#05216:0012000000000000
#05219:0000150000000012
#05212:13
#05217:0000001200000000
#0521b:00000013
#05215:00000013
#05213:00130000
#05214:0013
#0521a:0014
#07112:0000000000000016
#07812:131c00001c00001c00001c00001c0000
#07815:00000013000000000000000000000013
#07818:0000001300001300
#0781b:00000000000000000013000000000000
#07912:1c00131c00001c00001c00001c000000
#07915:00000000001300000000000000000000
#07918:0013
#0791b:00000000000000000000001300000000
#0191b:1300131313000013
#01916:0013001313000000
#01917:00000000000000000000001300000000
#01912:13000013
#0201b:00131300
#02012:00000013
#02018:0023
#02015:00000023
#02117:1313
#02112:13001313
#02119:0013001300000000
#02114:0013001300000000
#02116:0000130000000013
#0211b:0000130000000013
#02110:41
#0221b:0000130013131300
#02212:00130000000000001300000013001300
#02217:0000000000000013
#02216:0000000000130000
#02312:1300130013000013
#02317:0013000000000000
#02314:0000000000130000
#02319:0000000000130000
#0231b:13130013
#02316:00000013
#02412:00131300
#0241b:00000013
#02415:0023
#02418:00000023
#0051a:0000000000140000
#00516:00000014
#00512:13000013000000002400000000001400
#0051b:1300001300000000
#00017:1300001300000000
#00016:00000013000000002400140000000000
#00012:13000000000000000000001400000000
#0001a:0000000000000014
#00014:00000000000000000000000000140000
#00018:00000014
#04212:13001313
#0421b:13130000
#04214:0000001300000000
#04216:0014140000141400
#04219:0000000000000013
#04218:0026
#05814:0000000000130000
#05816:0000001300001314
#0581b:13230013
#05819:0000000000130000
#05812:2300130000000013
#05817:0013000013000000
#05916:0014000000000000
#05919:0000001200000012
#0591b:00131300
#05915:0000000000120000
#05917:00001212
#05912:13000013
#0611b:1300001300000013
#06112:1300001300001300
#06116:0013000000230023
#06117:00131323
#06114:0013
#0621b:00130013
#06212:1c00130013000013
#06216:0000001300130000
#06217:0000000013000013
#06316:0013001300000013
#0631b:0000131300000013
#06317:0000000000130000
#06314:13000013
#06319:00001313
#06312:00130000
#06412:1c00130000130013
#06416:0013
#0641b:00130013
#06417:0000001300000013
#06516:1313
#06512:0013000000000000
#06517:0013000000001300
#06514:0000000000000013
#0651b:0013
#06519:0000000000130000
#06012:16151413
#06018:0012000000001300
#06015:0000000000000012
#0601b:13
#06017:0000001200000000
#06016:0000000000120000
#0601a:00130000
#06019:0013
#06617:0000131300000000
#06616:0000000000130000
#0661b:00001300000000000000001300000000
#06612:00000013
#06614:0013
#07018:00120012000000001200000000000000
#07016:1212000012000000
#0701c:0000001200000000
#07012:0000001200000000
#0701a:00000000120000320000000000000000
#07014:00000000120000320000000000000000
#07019:0000000000000000000000000000003200000000000000000000000000000000
#0701b:0000000000000000000000000032000000000000000000000000000000000000
#07015:0000000000000000000000000000003200000000000000000000000000000000
#07013:0000000000000000000000000032000000000000000000000000000000000000
#07315:00000013000000000000000000000000
#07312:00001c00001c00001c13001c00000000
#0731b:13000013
#07318:0000001300000000
#09912:1313000000130000
#09917:0013130000000000
#0991b:0000131300001300
#09919:0000000000000013
#09916:00000013
#04012:0000002616000000
#04014:000000000000000000000000000000000000000000000000000000000000000000000000000000000000000000000000000000000000000000000000000000000000000000000000000000000000000000000000000000000000000000000000000000000000000000000000000000000000000000000000000000000000000000000000000000000000000000000000000000000000000000000000000000000000000000000000000000000000000000000000000000000000000000000000000000000000000000000000000000000000000000000000000000000000000000000000000000000000000000000000000000000000000000000000000000000000000000000000000000000000000000000000000000000000000000000000000000000000000000000000000000000000000000000000000000000000000000000000000000000000000000000000000000000000000000000000000000000000000000000000000000000000000000000000000000000000000000000000000000000000000000000000000000000000000000000000000000000000000000000000000000000000000000000000000000000000000000000000000000000000000000000000000000000000000000000000000000000000000000000000000000000000000000000000000000000000000000000000000000000000000000000000000000000000000000000000000000000000000000000000000000000000000000000000000000000000000000000000000000000000000000000000000000000000000000000000000000000000000000000000000000000000000000000000000000000000000000000000000000000000000000000000000000000000000000000000000000000000000000000000000000000000000000000000000000000000000000000000000000000000000000000000000000000000000000000000000000000000000000000000000000000000000000000000000000000000000000000000000000000000000000000000000000000000000000000000000000000000000000000000000000000000000000000000000000000000000000000000000000000000000000000000000000000000000000000000000000000000000000000000000000000000000000000000000000000000000000000000000000000000000000000000000000000000000000000000000000000000000000000000000000000000000000000000000000000000000000000000000000000000000000000000000000000000000000000000000000000000000000000000000000000000000000000000000000000000000000000000000000000000000000000000000000000000000000000000000000000000000000000000000000000000000000000000000000000000001400000000000000000000000000000000000000000000000000000000000000000000000000000000000000000000000000000000000000000000000000000000000000000000000000000000000000000000000000000014000000000000000000000000000000000000000000000000000000000000000000000000000000000000000000000000000000000000000000000000000000000000000000000000000000000000000000000000140000000000000000000000000000000000000000000000000000000000000000000000000000000000000000000000000000000000000000000000000000000000000000000000000000000000000000000000000000000000000000000000000000000000000000000000000000000000000000000000000000000000000000000000000000000000000000000000000000000000000000000000000000000000001400000000000000000000000000000000000000000000000000000000000000000000000000000000000000000000000000000000000000000000000000000000000000000000000000000000000000000000000000000000000000000000000000000000000000000000000000000000000000000000000000000000000000000000000000000000000000000000000000000000000000000000000000000000000000000000000000000000000000000000000000000000000000000000000000000000000000000000000000000000000000000000000000000000000000000000000000000000000000000000000000000000000000000000000000000000000000000000000000000000000000000000000000000000000000000000000000000000000000000000000000000000000000000000000000000000000000000000000000000000000000000000000000000000000000000000000000000000000000000000000000000000000000000000000000000000000000000000000000000000000000000000000000000000000000000000000000000000000000000000000000000000000000000000000000000000000000000000000000000000000000000000000000000000000000000000000000000000000000000000000000000000000000000000000000000000000000000000000000000000000000000000000000000000000000000000000000000000000000000000000000000000
#04015:000000000000000000000000000000000000000000000000000000000000000000000000000000000000000000000000000000000000000000000000000000000000000000000000000000000000000000000000000000000000000000000000000000000000000000000000000000000000000000000000000000000000000000000000000000000000000000000000000000000000000000000000000000000000000000000000000000000000000000000000000000000000000000000000000000000000000000000000000000000000000000000000000000000000000000000000000000000000000000000000000000000000000000000000000000000000000000000000000000000000000000000000000000000000000000000000000000000000000000000000000000000000000000000000000000000000000000000000000000000000000000000000000000000000000000000000000000000000000000000000000000000000000000000000000000000000000000000000000000000000000000000000000000000000000000000000000000000000000000000000000000000000000000000000000000000000000000000000000000000000000000000000000000000000000000000000000000000000000000000000000000000000000000000000000000000000000000000000000000000000000000000000000000000000000000000000000000000000000000000000000000000000000000000000000000000000000000000000000000000000000000000000000000000000000000000000000000000000000000000000000000000000000000000000000000000000000000000000000000000000000000000000000000000000000000000000000000000000000000000000000000000000000000000000000000000000000000000000000000000000000000000000000000000000000000000000000000000000000000000000000000000000000000000000000000000000000000000000000000000000000000000000000000000000000000000000000000000000000000000000000000000000000000000000000000000000000000000000000000000000000000000000000000000000000000000000000000000000000000000000000000000000000000000000000000000000000000000000000000000000000000000000000000000000000000000000000000000000000000000000000000000000000000000000000000000000000000000000000000000000000000000000000000000000000000000000000000000000000000000000000000000000000000000000000000000000000000000000000000000000000000000000000000000000000000000000000000000000000000000000000000000000000000000000000000000000000000000000000000000000000000000000000000000000000000000000000000000000000000001300000000000000000000000000000000000000000000000000000000000000000000000000000000000000000000000000000000000000000000000000000000000000000000000000000000000000000000000000000000000000000000000000000000000000000000000000000000000000000000000000000000000000000000000000000000000000000000000000000000000000000000000000000000000000000000000000000000000000000000000000000000000000000000000000000000000000000000000000000000000000000000000000000000000000000000000000000000000000000000000000000000000000000000130000000000000000000000000000000000000000000000000000000000000000000000000000000000000000000000000000000000000000000000000000000000000000000000000000000000000000000000000000000000000000000000000000000000000000000000000000000000000000000000000000000000000000000000000000000000000000000000000000000000000000000000000000000000000000000000000000000000000000000000000000000000000000000000000000000000000000000000000000000000000000000000000000000000000000000000000000000000000000000000000000000000000000000000000000000000000000000000000000000000000000000000000000000000000000000000000000000000000000000000000000000000000000000000000000000000000000000000000000000000000000000000000000000000000000000000000000000000000000000000000000000000000000000000000000000000000000000000000000000000000000000000000000000000000000000000000000000000000000000000000000000000000000000000000000000000000000000000000000000000000000000000000000000000000000000000000000000000000000000000000000000000000000000000000000000000000000000000000000000000000000000000000000000000000000000000000000000000000000000000000000000000000000000000000000000000000000000000000000000000000000000000000000000000000000000000000000
#04013:0000000000000000000000000000000000000000000000000000000000000000000000000000000000000000000000000015000000000000000000000000000000000000000000000000000000000000
#04016:00000000000000000000000000000000000000000000000000000000000000000000000000000000000000000000000000000000000000000000000000000000000000000000000000000000000000000000000000000000000000000000000000000000000000000000001200000000000000000000000000000000000000000000000000000000000000000000000000000000000000000000000000000000
#04018:000000000000000000000000000000000000000000000000000000000000000000000000000000000000000000000000000000000000000000000000000000000000000000000000000000000000000000000000000000000000000000000000000000000000000000000000000000000000000000000000000000000000000000000000000000000000000000000000000000000000000000000000000000000000000000000000000000000000000000000000000000000000000000000000000000000000000000000000000000000000000000000000000000000000000000000000000000000000000000000000000000000000000000000000000000000000000000000000000000000000000000000000000000000000000000000000000000000000000000000000000000000000000000000000000000000000000000000000000000000000000000000000000000000000000000000000000000000000000000000000000000000000000000000000000000000000000000000000000000000000000000000000000000000000000000000000000000000000000000000000000000000000000000000000000000000000000000000000000000000000000000000000000000000000000000000000000000000000000000000000260000000000000000000000000000000000000000000000000000000000000000000000000000000000000000000000000000000000000000000000000000000000000000000000000000000000000000000000000000000000000000000000000000000000000000000000000000000000000000000000000000000000000000000000000000000000000000000000000000000000000000000000000000000000000000000000000000000000000000000000000000000000000000000000000000000000000000000000000000000000000000000000000000000000000000000000000000000000000000000000000000000000000000000000000000000000000000000000000000000000000000000000000000000000000000000000000000000000000000000000000000000000000000000000000000000000000000000000000000000000000000000000000000000000000000000000000000000000000000000000000000000000000000000000000000000000000000000000000000000000000000000000000000000000000000000000000000000000000000000000000000000000000000000000000000000000000000000000000000000000000000000000000000000000000000000000000000000000000000000000160000000000000000000000000000000000000000000000000000000000000000000000000000000000000000000000000000000000000000000000000000000000000000000000000000000000001400000000000000000000000000000000000000000000000000000000000000000000000000001300000000000000000000000000000000000000000000000000000000000000000000000000000000000000000000000014000000000000000000000000000000000000000000000000000000000000000000000000000000000000000000000000150000000000000000000000000000000000000000000000000000000000000000000000140000000000000000000000000000000000000000000000000000000000000000000000000000000000000000000000000000000000000000000000000000000000000000000000120000000000000000000000000000000000000000000000000000000000000000000000000000000000000000130000000000000000000000000000000000000000000000000000000000000000000000000000000000000000001400000000000000000000000000000000000000000000000000000000000000000000000000000000000000000000000000000000000000000000000000000000000000000000000000000000000000000000000000000000000000000000000000000000000000000000000000000000000000000000000000000000000000000000000000000000000000000000000000000000000000000000000000000000000000000000000000000000000000000000000000000000000000000000000000000000000000000000000000000000000000000000000000000000000000000000000000000000000000000000000000000000000000000000000000000000000000000000000000000000000000000000000000000000000000000000000000000000000000000000000000000000000000000000000000000000000000000000000000000000000000000000000000000000000000000000000000000000000000000000000000000000000000000000000000000000000000000000000000000000000000000000000000000000000000000000000000000000000000000000000000000000000000000000000000000000000000000000000000000000000000000000000000000000000000000000000000000000000000000000000000000000000000000000000000000000000000000000000000000000000000000000000000000000000000000000000000000000000000000000000000000000
#03817:00170000
#03816:0015001418130012
#03815:00000019
#03812:16151413
#03912:00130000
#03916:00131300
#0391b:13
#03918:0000000000000026
#02714:12000000000000000000000000000012
#0271a:12240024
#02716:00001200000000000000000000120000
#02718:00000012000000000000000000001200
#02816:00000000001200000012000000000012
#02818:0012001200120012
#02814:00000012000000120000000000120000
#02812:00120000000000000000001200000000
#0281a:12240024
#0281c:0012
#0311a:12240024
#03114:12
#03118:00000012000000000000000000001200
#03116:0012001200000000
#03112:00000000120000000000000000120000
#07418:00000000000000130016000000000000
#07412:1300131600001900
#0741b:00130013000000000000000000130000
#07415:00000000000000000000130000000019
#07518:00000013000000000000000000000000
#07512:13001c00001c00001c00001c13000000
#0751b:00000000000000000013000000000000
#07515:0000001300000000
#00712:0000000000001c1c
#00714:0018
#00716:1414000000000000
#00715:0000161600000000
#00713:00000000001a0000
#08114:13130000
#08119:13130000
#08116:0014000013001300
#0811b:0013000000000000
#08112:0000001300130013
#08812:24001413
#0881b:0000000000130013
#0881a:2400001400000000
#08816:0014240000141414
#0901a:1414
#09013:001b000000000000
#09014:00140000
#09015:0000001900000000
#09017:0000000000170000
#09018:00260014
#09019:0000000000000015
#09012:28
#09016:0024
#0901c:00000022
#0911a:14141414
#09112:0014001400000014
#09116:1400001414242424
#09217:0000000000001313
#09212:1600130023001313
#09218:16
#09219:0000000000130000
#09216:0000001300000000
#0921b:00231300
#09210:41
#09316:0013001300000000
#09317:0000000000130013
#0931b:00000013
#09312:00130000
#09314:13
#09319:0013
#0941b:0000000023000013
#09417:00130013
#09416:0000000013000013
#09418:16
#09412:16230013
#09419:0000001300000000
#09414:0000000000130000
#09516:0000001300000013
#09517:13131300
#0951b:0013001300130000
#09512:13130013
#08919:13130000
#08914:13130000
#08916:0014000000000000
#08912:0013000000000000
#0891b:0000001300130013
#08917:00001313
#03216:00120000000000000000120000120012
#03212:00000000000000000012000000000000
#0321a:1200241200002400
#03214:00000000000000120000000000000000
#03218:00000012000000000000000000000000
#04616:13
#0461b:1300131300000000
#04617:00000000000000000013000000001300
#04612:0000000013000013
#04812:1313
#0481b:0000131300000000
#04816:00000013000000000000000000000000
#04817:13
#0471b:1300000013000013
#04716:1300000000000013
#04712:0000131300000000
#04717:00000013000000000000000000000000
#10012:00131300
#1001b:0000001300001313
#10016:00001300000013000000001313000000
#10017:0013
#10019:0000000000130000
#10116:0013000013000000
#10115:00000013
#10112:0000000000130013
#10117:0000130000000013
#10118:00000000000000000000001300000000
#1011b:00000013
#10219:0000000000000013
#10216:1313130000000000
#10212:00000000000013000000001313000000
#10217:00000013
#1021b:0000130000130000
#1031b:1313000000130000
#10316:0013130000000000
#10312:0000131300001300
#10314:0000000000000013
#10317:00000013
#02914:12
#0291a:12
#02916:00000012000000000000000000001200
#02918:0012001200000000
#0291c:00000000120000000000000000120000
#02912:00240024
#03018:00120000000000000000120000120012
#0301c:00000000000000000012000000000000
#03014:1200001200000000
#0301a:00000000000000120000000000000000
#03016:00000012000000000000000000000000
#03012:00240024
#05056:0023000000000054
#05052:63330000
#05057:0000002300000000
#0505b:43530000
#05156:0054000000000000
#0535b:53
#05357:0023000000000000
#05356:0023
#05352:0000006300000000
#0545b:00535300
#05457:0000002300230000
#05456:0000000033000053
#05452:00330000
#05557:0000005300000000
#05657:0063
#0565b:0000430000230053
#05652:00633300
#05656:0000002300000000
#05757:2323
#0575b:0063000000000000
#05756:0063000000002300
#07652:001c00001c00001c00001c00001c0000
#07752:1c00001c00001c00001c00001c000000
#08456:0000000000000053
#08452:00330000
#0845b:00634300
#08457:0000002300000000
#08557:0000005300000000
#08052:3400002400000000
#08056:0024640000000044
#0805a:64440000
#0865b:00430000
#08652:0033
#08657:0000000000000053
#10458:0000000000000056
#10452:0000000000000056
#04557:53
#04552:0000005300000000
#04556:00000000000000000023000000000000
#0455b:0023
#07255:00000000000000330000000000000000
#07252:00330000000000000000000000330000
#0725b:00430000
#07258:0000000000430000
#01156:0000006300000000
#0115b:53000063
#06857:0000005300005300
#06856:53
#0015a:0014
#00152:6300006300000000
#0015b:00000053000000000000000000000000
#00252:6800006600000000
#00256:00000058000000001400000000000000
#0035b:5300005300000000
#00352:00000063000000001400000000000000
#00456:5300005314000000
#00457:00000063000000000000000000000000
#00658:0000005600000000
#00652:00000068000000000000000000000000
#00656:5814
#00957:00000063
#00956:63
#00952:0000006300000000
#01057:0000005300000000
#01557:0000005300000000
#01552:53000053
#01357:53
#01356:00000063
#0135b:0000006300000000
#01456:0000006300000000
#0175b:0000002300000000
#01757:0000530000000053
#03652:00000013
#03655:0024000000000000
#03654:0000002400000000
#03653:0000000000240000
#03658:66
#03657:00670000
#03656:0068
#03359:0000002400000000
#03358:0000000000240000
#03357:0000000000000024
#03352:00595857
#03457:0023000000000000
#03456:0000002300000000
#03455:0000000000230000
#03454:0000000000000023
#03452:56555453
#03559:0023000000006500
#03558:0000002300000000
#03557:0000000000230000
#03556:0000000000000023
#0355c:62
#0355b:00630000
#0355a:0064
#05252:33
#05255:00000033
#05253:00330000
#05254:0033
#07058:00002216
#07052:0000005200001600
#07056:0022
#0705c:0000006200000000
#07852:001c00001c00001c00001c00001c0000
#07952:1c00001c00001c00001c00001c000000
#01956:0023000000000000
#01952:53
#0185b:00230000000000000000000000000000
#01652:0000005300000000
#01657:00000053
#01256:00000063
#0125b:0000006300000000
#02157:0053
#02156:0000000000000063
#02252:00230000000000000000000000000000
#02357:0023000000000000
#0235b:63630000
#00057:6300006300000000
#00056:00000053000000001400000000000000
#00552:00000063000000001400000000000000
#0055b:5300005300000000
#04457:00000013
#04456:0000000000230000
#04452:0053
#05856:0000002300000064
#05857:0023000000000000
#05852:33630000
#0585b:53430000
#05956:0064000000000000
#06152:63
#06156:0023000000000000
#06157:0023
#0615b:0000005300000000
#06252:00636300
#06256:0000002300230000
#06257:0000000043000063
#0625b:00430000
#06356:0000006300000000
#06456:0053
#06452:0000330000230063
#0645b:00534300
#06457:0000002300000000
#06556:2323
#06552:0053000000000000
#06557:0053000000002300
#0605b:43
#06058:00000043
#0605a:00430000
#06059:0043
#06657:0000006300000000
#06652:00000063
#06752:0000005300000000
#06757:00000053
#07355:00000033000000000000000000000000
#07352:00000000000000000033000000000000
#0735b:43000043
#07358:0000004300000000
#04157:0000000000230000
#0415b:0063
#08256:4844
#08252:00360032
#0835a:0024006400000000
#08356:5424
#0875b:23
#09657:00000053
#09652:00000013
#09756:0000000000000023
#09752:00000053
#09758:00000013
#04052:0026
#04054:000000000000000000000000000000000000000000000000000000000000000000000000000000000000000000000000000000000000000000000000000000000000000000000000000000000000000000000000000000000000000000000000000000000000000000000000000000000000000000000000000000000000000000000000000000000000000000000000000000000000000000000000000000000000000000000000000000000000000000000000000000000000000000000000000000000000000000000000000000000000000000000000000000000000000000000000000000000000000000000000000000000000000000000000000000000000000000000000000000000000000000000000000000000000000000000000000000000000000000000000000000000000000000000000000000000000000000000000000000000000000000000000000000000000000000000000000000000000000000000000000000000000000000000000000000000000000000000000000000000000000000000000000000000000000000000000000000000000000000000000000000000000000000000000000000000000000000000000000000000000000000000000000000000000000000000000000000000000000000000000000000000000000000000000000000000000000000000000000000000000000000000000000000000000000000000000000000000000000000000000000000000000000000000000000000000000000000000000000000000000000000000000000000000000000000000000000000000000000000000000000000000000000000000000000000000000000000000000000000000000000000000000000000000000000000000000000000000000000000000000000000000000000000000000000000000000000000000000000000000000000000000000000000000000000000000000000000000000000000000000000000000000000000000000000000000000000000000000000000000000000000000000000000000000000000000000000000000000000000000000000000000000000000000000000000000000000000000000000000000000000000000000000000000000000000000000000000000000000000000000000000000000000000000000000000000000000000000000000000000000000000000000000000000000000000000000000000000000000000000000000000000000000000000000000000000000000000000000000000000000000000000000000000000000000000000000000000000000000000000000000000000000000000000000000000000000000000000000000000000000000000000000000000000000000000000000000000000000000000000000000000000000000000000000000000000000006400000000000000000000000000000000000000000000000000000000000000000000000000000000000000000000000000000000000000000000000000000000000000000000000000000000000000000000000000000064000000000000000000000000000000000000000000000000000000000000000000000000000000000000000000000000000000000000000000000000000000000000000000000000000000000000000000000000640000000000000000000000000000000000000000000000000000000000000000000000000000000000000000000000000000000000000000000000000000000000000000000000000000000000000000000000000000000000000000000000000000000000000000000000000000000000000000000000000000000000000000000000000000000000000000000000000000000000000000000000000000000000002400000000000000000000000000000000000000000000000000000000000000000000000000000000000000000000000000000000000000000000000000000000000000000000000000000000000000000000000000000000000000000000000000000000000000000000000000000000000000000000000000000000000000000000000000000000000000000000000000000000000000000000000000000000000000000000000000000000000000000000000000000000000000000000000000000000000000000000000000000000000000000000000000000000000000000000000000000000000000000000000000000000000000000000000000000000000000000000000000000000000000000000000000000000000000000000000000000000000000000000000000000000000000000000000000000000000000000000000000000000000000000000000000000000000000000000000000000000000000000000000000000000000000000000000000000000000000000000000000000000000000000000000000000000000000000000000000000000000000000000000000000000000000000000000000000000000000000000000000000000000000000000000000000000000000000000000000000000000000000000000000000000000000000000000000000000000000000000000000000000000000000000000000000000000000000000000000000000000000000000000000000000
#04055:000000000000000000000000000000000000000000000000000000000000000000000000000000000000000000000000000000000000000000000000000000000000000000000000000000000000000000000000000000000000000000000000000000000000000000000000000000000000000000000000000000000000000000000000000000000000000000000000000000000000000000000000000000000000000000000000000000000000000000000000000000000000000000000000000000000000000000000000000000000000000000000000000000000000000000000000000000000000000000000000000000000000000000000000000000000000000000000000000000000000000000000000000000000000000000000000000000000000000000000000000000000000000000000000000000000000000000000000000000000000000000000000000000000000000000000000000000000000000000000000000000000000000000000000000000000000000000000000000000000000000000000000000000000000000000000000000000000000000000000000000000000000000000000000000000000000000000000000000000000000000000000000000000000000000000000000000000000000000000000000000000000000000000000000000000000000000000000000000000000000000000000000000000000000000000000000000000000000000000000000000000000000000000000000000000000000000000000000000000000000000000000000000000000000000000000000000000000000000000000000000000000000000000000000000000000000000000000000000000000000000000000000000000000000000000000000000000000000000000000000000000000000000000000000000000000000000000000000000000000000000000000000000000000000000000000000000000000000000000000000000000000000000000000000000000000000000000000000000000000000000000000000000000000000000000000000000000000000000000000000000000000000000000000000000000000000000000000000000000000000000000000000000000000000000000000000000000000000000000000000000000000000000000000000000000000000000000000000000000000000000000000000000000000000000000000000000000000000000000000000000000000000000000000000000000000000000000000000000000000000000000000000000000000000000000000000000000000000000000000000000000000000000000000000000000000000000000000000000000000000000000000000000000000000000000000000000000000000000000000000000000000000000000000000000000000000000000000000000000000000000000000000000000000000000000000000000000000000000000002300000000000000000000000000000000000000000000000000000000000000000000000000000000000000000000000000000000000000000000000000000000000000000000000000000000000000000000000000000000000000000000000000000000000000000000000000000000000000000000000000000000000000000000000000000000000000000000000000000000000000000000000000000000000000000000000000000000000000000000000000000000000000000000000000000000000000000000000000000000000000000000000000000000000000000000000000000000000000000000000000000000000000000000630000000000000000000000000000000000000000000000000000000000000000000000000000000000000000000000000000000000000000000000000000000000000000000000000000000000000000000000000000000000000000000000000000000000000000000000000000000000000000000000000000000000000000000000000000000000000000000000000000000000000000000000000000000000000000000000000000000000000000000000000000000000000000000000000000000000000000000000000000000000000000000000000000000000000000000000000000000000000000000000000000000000000000000000000000000000000000000000000000000000000000000000000000000000000000000000000000000000000000000000000000000000000000000000000000000000000000000000000000000000000000000000000000000000000000000000000000000000000000000000000000000000000000000000000000000000000000000000000000000000000000000000000000000000000000000000000000000000000000000000000000000000000000000000000000000000000000000000000000000000000000000000000000000000000000000000000000000000000000000000000000000000000000000000000000000000000000000000000000000000000000000000000000000000000000000000000000000000000000000000000000000000000000000000000000000000000000000000000000000000000000000000000000000000000000000000000000
#04053:0000000000000000000000000000000000000000000000000000000000000000000000000000000000000000000000000025000000000000000000000000000000000000000000000000000000000000
#04056:00000000000000000000000000000000000000000000000000000000000000000000000000000000000000000000000000000000000000000000000000000000000000000000000000000000000000000000000000000000000000000000000000000000000000000000002200000000000000000000000000000000000000000000000000000000000000000000000000000000000000000000000000000000
#04058:000000000000000000000000000000000000000000000000000000000000000000000000000000000000000000000000000000000000000000000000000000000000000000000000000000000000000000000000000000000000000000000000000000000000000000000000000000000000000000000000000000000000000000000000000000000000000000000000000000000000000000000000000000000000000000000000000000000000000000000000000000000000000000000000000000000000000000000000000000000000000000000000000000000000000000000000000000000000000000000000000000000000000000000000000000000000000000000000000000000000000000000000000000000000000000000000000000000000000000000000000000000000000000000000000000000000000000000000000000000000000000000000000000000000000000000000000000000000000000000000000000000000000000000000000000000000000000000000000000000000000000000000000000000000000000000000000000000000000000000000000000000000000000000000000000000000000000000000000000000000000000000000000000000000000000000000000000000000000000000000000000000000000000000000000000000000000000000000000000000000000000000000000000000000000000000000000000000000000000000000000000000000000000000000000000000000000000000000000000000000000000000000000000000000000000000000000000000000000000000000000000000000000000000000000000000000000000000000000000000000000000000000000000000000000000000000000000000000000000000000000000000000000000000000000000000000000000000000000000000000000000000000000000000000000000000000000000000000000000000000000000000000000000000000000000000000000000000000000000000000000000000000000000000000000000000000000000000000000000000000000000000000000000000000000000000000000000000000000000000000000000000000000000000000000000000000000000000000000000000000000000000000000000000000000000000000000000000000000000000000000000000000000000000000000000000000000000000000000000000000000000000000000000000000000000000000000000000000000000000000000000000000000000000000000000000000000000000000000000000000260000000000000000000000000000000000000000000000000000000000000000000000000000000000000000000000000000000000000000000000000000000000000000000000000000000000005400000000000000000000000000000000000000000000000000000000000000000000000000002300000000000000000000000000000000000000000000000000000000000000000000000000000000000000000000000054000000000000000000000000000000000000000000000000000000000000000000000000000000000000000000000000250000000000000000000000000000000000000000000000000000000000000000000000540000000000000000000000000000000000000000000000000000000000000000000000000000000000000000000000000000000000000000000000000000000000000000000000220000000000000000000000000000000000000000000000000000000000000000000000000000000000000000530000000000000000000000000000000000000000000000000000000000000000000000000000000000000000002400000000000000000000000000000000000000000000000000000000000000000000000000000000000000000000000000000000000000000000000000000000000000000000000000000000000000000000000000000000000000000000000000000000000000000000000000000000000000000000000000000000000000000000000000000000000000000000000000000000000000000000000000000000000000000000000000000000000000000000000000000000000000000000000000000000000000000000000000000000000000000000000000000000000000000000000000000000000000000000000000000000000000000000000000000000000000000000000000000000000000000000000000000000000000000000000000000000000000000000000000000000000000000000000000000000000000000000000000000000000000000000000000000000000000000000000000000000000000000000000000000000000000000000000000000000000000000000000000000000000000000000000000000000000000000000000000000000000000000000000000000000000000000000000000000000000000000000000000000000000000000000000000000000000000000000000000000000000000000000000000000000000000000000000000000000000000000000000000000000000000000000000000000000000000000000000000000000000000000000000000000000
#03752:0000002800000000
#03753:0000000000270000
#03754:0000000000000026
#03755:00690000
#03756:0068
#03757:00000067
#03856:0025002400230022
#03852:56555453
#03956:00230000
#0395b:63
#09956:00000023
#0995b:00000013
#07458:00000000000000430000000000000000
#0745b:00430000000000000000000000430000
#07452:00330000
#07455:0000000000330000
#07558:00000043000000000000000000000000
#0755b:00000000000000000043000000000000
#07552:33000033
#07555:0000003300000000
#08156:0034000000000000
#09257:0000000000000063
#09252:00533300
#09256:0000002300000000
#0925b:00430000
#09356:0000006300000000
#0885a:4400002400000000
#08856:0024540000000034
#08852:54340000
#09152:0024005400000000
#09156:6424
#09456:0000000000000063
#0945b:0043
#09452:00330000
#09552:23
#08956:0044000000000000
#09052:38
#09058:00460000
#09056:0034
#0905c:00000042
#03156:0000002200000000
#03152:00520000
#04656:63
#0465b:0000006300000000
#04657:00000000000000000023000000000000
#04652:0023
#04852:5353
#0485b:0000006300000000
#04856:00000023000000000000000000000000
#0475b:6363
#04752:0000005300000000
#04757:00000023000000000000000000000000
#06956:0000005300000000
#06957:00000063
#09856:00000013
#0985b:00000063
#1005b:00000013
#10056:00000063
#10155:00000013
#10157:0000000000000023
#1015b:00000063
#10352:00000013
#10357:00000023
#10257:00000013
#10252:00000053
#02958:0000002200000000
#0295c:00620000
#000370:13
#0003b0:00000023000000000000000000000000
#000361:00000013000000000000000000000000
#000321:0000002300000000
#000370:0000001300000000
#0003b0:0023
#001320:13
#001360:00000023000000000000000000000000
#0013b1:00000013000000000000000000000000
#001371:0000002300000000
#001320:0000001300000000
#001360:0023
#002320:18000022000000000000000000000000
#002361:00000018000000000000000000000000
#0023c1:0000002200000000
#002320:0000001622000000
#0033b0:13
#003370:00000023000000000000000000000000
#003321:00000013000000000000000000000000
#003361:0000002300000000
#0033b0:0000001300000000
#003370:0023
#0033b0:00000013
#0043b0:23
#004361:13
#004321:00000023000000000000000000000000
#004370:00000013000000000000000000000000
#0043b0:0000002300000000
#004361:0000001300000000
#004321:0023
#0053b1:13
#005371:00000023000000000000000000000000
#005320:00000013000000000000000000000000
#005360:0000002300000000
#0053b1:0000001300000000
#005371:0023
#006361:18
#0063c1:00000022000000000000000000000000
#006320:00000018000022000000000000000000
#006381:0000001600000000
#0063c1:0022
#009361:13
#009321:00230000
#009321:0000001300000000
#009361:0000000000230000
#009371:00000013
#0103b1:23
#010370:13
#010350:0023000000000000
#0103a1:0013000000000000
#010381:00230000
#010340:00130000
#010320:0000002300000000
#010371:0000001300000000
#0103b1:0000000000230000
#0113b1:13
#011371:00230000
#011361:0000001300000000
#011321:0000000000230000
#0113b1:00000013
#012371:23
#0123b1:0000001300000000
#012371:0000000000230000
#012361:00000013
#013321:23
#013370:13
#0133b0:00230000
#0133b0:0000001300000000
#013370:0000000000230000
#013360:00000013
#014320:23
#014361:13
#014381:0023000000000000
#014330:0013000000000000
#014350:00230000
#014391:00130000
#0143b1:0000002300000000
#014360:0000001300000000
#014320:0000000000230000
#015320:13
#015360:00230000
#015370:0000001300000000
#0153b0:0000000000230000
#015320:00000013
#016360:23
#016320:0000001300000000
#016360:0000000000230000
#016370:00000013
#0173b0:23
#017370:00132300
#0173b0:0000005300000000
#017370:0000000000000013
#0183b0:00530000000000000000000000000000
#018370:00230000
#019320:13230000
#019360:0053000000000000
#019320:0000000000000013
#020360:00230000
#021370:0013
#0213b0:00000023
#021360:0000000000000013
#022320:00530000000000000000000000000000
#022360:00230000
#0233b0:13330000
#023370:0053000023000000
#0233b0:0000000000000013
#024370:00230000
#025380:00120000
#0253c0:0022
#025361:0000000012220000
#025380:0000000000122200
#027360:00120000
#027320:0022
#027381:0000000012220000
#027360:0000000000122200
#0293c0:00122200
#029380:0000005200000000
#029361:0012
#029321:0000000000220000
#029380:0000000000120000
#0293c0:00000022
#0293a0:00000000000000000000000000000012
#0303a0:22
#030320:00001222000000000000000000000000
#030380:00000000001222000000000000000000
#030360:00000000000000001222000000000000
#0303a0:00000000000000000000001222000000
#030360:00000000000000000000000000001222
#031320:00122200
#031360:0000005200000000
#031381:0012
#0313c1:0000000000220000
#031360:0000000000120000
#031320:00000022
#031340:00000000000000000000000000000012
#032340:22
#0323c0:00001222000000000000000000000000
#032360:00000000001222000000000000000000
#032380:00000000000000001222000000000000
#032340:00000000000000000000001222000000
#032380:00000000000000000000000000001222
#033320:00193837
#033390:0000005400000000
#033380:0000000000540000
#033370:0000000000000054
#034320:36353433
#034370:0053000000000000
#034360:0000005300000000
#034350:0000000000530000
#034340:0000000000000053
#035320:22
#0353c1:12
#035391:0053000000003500
#0353b1:00330000
#035381:0000005300000000
#0353a1:0034
#035371:0000000000530000
#035361:0000000000000053
#036381:36
#036351:0054000000002900
#036371:00370000
#036341:0000005400000000
#036361:0038
#036331:0000000000540000
#037351:00190000
#037321:0000005800000000
#037361:0038
#037331:0000000000570000
#037371:00000037
#037341:0000000000000056
#038381:26
#038320:16353433
#038360:0055005400530052
#039320:22
#0393b1:1323
#039361:00530000
#039321:000000000000000000000000000000000000000000000000000000000000000000000000000000000000000000000000000000000000000000000000000000000000000000000000000000000000000000000000000000000000000000000000000000000000000000000000000000000000000000000000000000000000000000000000000000000000000000000000000000000000000000000000000000000000000000000000000000000000000000000000000000000000000000000000000000000000000000000000000000000000000000000000000000000000000000000000000000000000000000000000000000000000000000000000000000000000000000000000000000000000000000000000000000000000000000000000000000000000000000000000000000000000000000000000000000000000000000000000000000000000000000000000000000000000000000000000000000000000000000000000000000000000000000000000000000000000000000000000000000000000000000000000000000000000000000000000000000000000000000000000000000000000000000000000000000000000000000000000000000000000000000000000000000000000000000000000000000000000000000000000000000000000000000000000000000000000000000000000000000000000000000000000000000000000000000000000000000000000000000000000000000000000000000000000000000000000000000000000000000000000000000000000000000000000000000000000000000000000000000000000000000000000000000000000000000000000000000000000000000000000000000000000000000000000000000000000000000000000000000000000000000000000000000000000000000000000000000000000000000000000000000000000000000000000000000000000000000000000000000000000160000000000000000000000000000000000000000000000000000000000000000000000000000000000000000000000000000000000000000000000000000000000000000000000000000000000000000000000000000000000000000000000000000000000000000000000000000000000000000000000565c0000000000000000000000000000000000000000000000000000000000000000000000000000000000000000000000000000000000000000000000000000000000000000000000000000000000000000000000000000000000000000000000000000000000000000000000000000000000000000005c
#040381:26
#039380:0000000000000016
#039320:000000000000000000000000000000000000000000000000000000000000000000000000000000000000000000000000000000000000000000000000000000000000000000000000000000000000000000000000000000000000000000000000000000000000000000000000000000000000000000000000000000000000000000000000000000000000000000000000000000000000000000000000000000000000000000000000000000000000000000000000000000000000000000000000000000000000000000000000000000000000000000000000000000000000000000000000000000000000000000000000000000000000000000000000000000000000000000000000000000000000000000000000000000000000000000000000000000000000000000000000000000000000000000000000000000000000000000000000000000000000000000000000000000000000000000000000000000000000000000000000000000000000000000000000000000000000000000000000000000000000000000000000000000000000000000000000000000000000000000000000000000000000000000000000000000000000000000000000000000000000000000000000000000000000000000000000000000000000000000000000000000000000000000000000000000000000000000000000000000000000000000000000000000000000000000000000000000000000000000000000000000000000000000000000000000000000000000000000000000000000000000000000000000000000000000000000000000000000000000000000000000000000000000000000000000000000000000000000000000000000000000000000000000000000000000000000000000000000000000000000000000000000000000000000000000000000000000000000000000000000000000000000000000000000000000000000000000000000000000000000000000000000000000000000000000000000000000000000000000000000000000000000000000000000000000000000000000000000000000000000000000000000000000000000000000000000000000000000000000000000000000000000000000000000000000000000000000000000000000000000000000000000000000000000000000000000000000000000000000000000000000000000000000000000000000000000000000000000000000000000000000000000000000000000000000000000000000000000000000000000000000000000000000000000000000000000000000000000000000000000000000000000000000000000000000000000000000000000000000000000000000000000000000000000000000000000000000000000000000000000000000000000000000000000000000000000000000000000000000000000000000000000000000000000000000000000000000000000000000000000000000000000000000000000000000000000000000000000000000000000000000000000000000000000000000000000000000000000000000000000000000000000000000000000000000000000000000000000000000000000000000000000000000000000000000000000000000000000000000000000000000000000000000000000000000000000000000000000000000000000000000000000000000000000000000000000000000000000000000000000000000000000000000000000000000000000000000000000000000000000000000000000000000000000000000000000000000000000000000000000000000000000000000000000000000000000000000000000000000000000000000000000000000000000000000000000000000000000000000000000000000000000000000000000000000000000000000000000000000000000000000000000000000000000000000000000000000000000000000000000000000000000000000000000000000000000000000000000000000000000000000000000000000000000000000000000000000000000000000000000000000000000000000000000000000000000000000000000000000000000000000000000000000000000000000000000000000000000000000000000000000000000000000000000000000000000000000000000000000000000000000000000000000000000000000000000000000000000000000000000000000000000000000000000000000000000000000000000000000000000000000000000000000000000000000000000000000000000000000000000005c0000000000000000000000000000000000000000000000000000000000000000000000000000000000000000000000000000000000000000000000000000000000000000000000000000000000000000000000000000000000000000000000000000000000000000000000000000000000000000000000000000000000000000000000000000000000000000000000000000000000000000000000000000000000000000000000000000000000000000000000000000000000000000000000000000000000000000000000000000000000000000000000000000000000000000000000000000000000000000005c
#040320:56260000
#040381:000000000000000000000000000000000000000000000000000000000000000000000000000000000000000000000000000000000000000000000000000000000000000000000000000000000000000000000000000000000000000000000000000000000000000000000000000000000000000000000000000000000000000000000000000000000000000000000000000000000000000000000000000000000000000000000000000000000000000000000000000000000000000000000000000000000000000000000000000000000000000000000000000000000000000000000000000000000000000000000000000000000000000000000000000000000000000000000000000000000000000000000000000000000000000000000000000000000000000000000000000000000000000000000000000000000000000000000000000000000000000000000000000000000000000000000000000000000000000000000000000000000000000000000000000000000000000000000000000000000000000000000000000000000000000000000000000000000000000000000000000000000000000000000000000000000000000000000000000000000000000000000000000000000000000000000000000000000000000000000000160000000000000000000000000000000000000000000000000000000000000000000000000000000000000000000000000000000000000000000000000000000000000000000000000000000000000000000000000000000000000000000000000000000000000000000000000000000000000000000000000000000000000000000000000000000000000000000000000000000000000000000000000000000000000000000000000000000000000000000000000000000000000000000000000000000000000000000000000000000000000000000000000000000000000000000000000000000000000000000000000000000000000000000000000000000000000000000000000000000000000000000000000000000000000000000000000000000000000000000000000000000000000000000000000000000000000000000000000000000000000000000000000000000000000000000000000000000000000000000000000000000000000000000000000000000000000000000000000000000000000000000000000000000000000000000000000000000000000000000000000000000000000000000000000000000000000000000000000000000000000000000000000000000000000000000000000000000000000000000000360000000000000000000000000000000000000000000000000000000000000000000000000000000000000000000000000000000000000000000000000000000000000000000000000000000000005400000000000000000000000000000000000000000000000000000000000000000000000000005300000000000000000000000000000000000000000000000000000000000000000000000000000000000000000000000054000000000000000000000000000000000000000000000000000000000000000000000000000000000000000000000000550000000000000000000000000000000000000000000000000000000000000000000000540000000000000000000000000000000000000000000000000000000000000000000000000000000000000000000000000000000000000000000000000000000000000000000000520000000000000000000000000000000000000000000000000000000000000000000000000000000000000000530000000000000000000000000000000000000000000000000000000000000000000000000000000000000000005400000000000000000000000000000000000000000000000000000000000000000000000000000000000000000000000000000000000000000000000000000000220000000000000000000000000000000000000000000000000000000000000000000000000000000000000000000000000000000000000000000000000000000000000000000000000000000000000000000000000000000000000000000000000000000000000000000000000000000000000000000000000000000000000000000000000000000000000000000000000000000000000000000000000000000000000000000000000000000000000000000000000000000000000000000000000000000000000000000000000000000000000000000000000000000000000000000000000000000000000000000000000000000000000000000000000000000000000000000000000000000000000000000000000000000000000000000000000000000000000000000000000000000000000000000000000000000000000000000000000000000000000000000000000000000000000000000000000000000000000000000000000000000000000000000000000000000000000000000000000000000000000000000000000000000000000000000000000000000000000000000000000000000000000000000000000000000000000000000000000000000000000000000000000000000000000000000000000000000000000000000000
#040320:0000001636000000
#040340:000000000000000000000000000000000000000000000000000000000000000000000000000000000000000000000000000000000000000000000000000000000000000000000000000000000000000000000000000000000000000000000000000000000000000000000000000000000000000000000000000000000000000000000000000000000000000000000000000000000000000000000000000000000000000000000000000000000000000000000000000000000000000000000000000000000000000000000000000000000000000000000000000000000000000000000000000000000000000000000000000000000000000000000000000000000000000000000000000000000000000000000000000000000000000000000000000000000000000000000000000000000000000000000000000000000000000000000000000000000000000000000000000000000000000000000000000000000000000000000000000000000000000000000000000000000000000000000000000000000000000000000000000000000000000000000000000000000000000000000000000000000000000000000000000000000000000000000000000000000000000000000000000000000000000000000000000000000000000000000000000000000000000000000000000000000000000000000000000000000000000000000000000000000000000000000000000000000000000000000000000000000000000000000000000000000000000000000000000000000000000000000000000000000000000000000000000000000000000000000000000000000000000000000000000000000000000000000000000000000000000000000000000000000000000000000000000000000000000000000000000000000000000000000000000000000000000000000000000000000000000000000000000000000000000000000000000000000000000000000000000000000000000000000000000000000000000000000000000000000000000000000000000000000000000000000000000000000000000000000000000000000000000000000000000000000000000000000000000000000000000000000000000000000000000000000000000000000000000000000000000000000000000000000000000000000000000000000000000000000000000000000000000000000000000000000000000000000000000000000000000000000000000000000000000000000000000000000000000000000000000000000000000000000000000000000000000000000000000000000000000000000000000000000000000000000000000000000000000000000000000000000000000000000000000000000000000000000000000000000000000000000000000000000000000000000000005400000000000000000000000000000000000000000000000000000000000000000000000000000000000000000000000000000000000000000000000000000000000000000000000000000000000000000000000000000054000000000000000000000000000000000000000000000000000000000000000000000000000000000000000000000000000000000000000000000000000000000000000000000000000000000000000000000000540000000000000000000000000000000000000000000000000000000000000000000000000000000000000000000000000000000000000000000000000000000000000000000000000000000000000000000000000000000000000000000000000000000000000000000000000000000000000000000000000000000000000000000000000000000000000000000000000000000000000000000000000000000000005400000000000000000000000000000000000000000000000000000000000000000000000000000000000000000000000000000000000000000000000000000000000000000000000000000000000000000000000000000000000000000000000000000000000000000000000000000000000000000000000000000000000000000000000000000000000000000000000000000000000000000000000000000000000000000000000000000000000000000000000000000000000000000000000000000000000000000000000000000000000000000000000000000000000000000000000000000000000000000000000000000000000000000000000000000000000000000000000000000000000000000000000000000000000000000000000000000000000000000000000000000000000000000000000000000000000000000000000000000000000000000000000000000000000000000000000000000000000000000000000000000000000000000000000000000000000000000000000000000000000000000000000000000000000000000000000000000000000000000000000000000000000000000000000000000000000000000000000000000000000000000000000000000000000000000000000000000000000000000000000000000000000000000000000000000000000000000000000000000000000000000000000000000000000000000000000000000000000000000000000000000000
#040350:000000000000000000000000000000000000000000000000000000000000000000000000000000000000000000000000000000000000000000000000000000000000000000000000000000000000000000000000000000000000000000000000000000000000000000000000000000000000000000000000000000000000000000000000000000000000000000000000000000000000000000000000000000000000000000000000000000000000000000000000000000000000000000000000000000000000000000000000000000000000000000000000000000000000000000000000000000000000000000000000000000000000000000000000000000000000000000000000000000000000000000000000000000000000000000000000000000000000000000000000000000000000000000000000000000000000000000000000000000000000000000000000000000000000000000000000000000000000000000000000000000000000000000000000000000000000000000000000000000000000000000000000000000000000000000000000000000000000000000000000000000000000000000000000000000000000000000000000000000000000000000000000000000000000000000000000000000000000000000000000000000000000000000000000000000000000000000000000000000000000000000000000000000000000000000000000000000000000000000000000000000000000000000000000000000000000000000000000000000000000000000000000000000000000000000000000000000000000000000000000000000000000000000000000000000000000000000000000000000000000000000000000000000000000000000000000000000000000000000000000000000000000000000000000000000000000000000000000000000000000000000000000000000000000000000000000000000000000000000000000000000000000000000000000000000000000000000000000000000000000000000000000000000000000000000000000000000000000000000000000000000000000000000000000000000000000000000000000000000000000000000000000000000000000000000000000000000000000000000000000000000000000000000000000000000000000000000000000000000000000000000000000000000000000000000000000000000000000000000000000000000000000000000000000000000000000000000000000000000000000000000000000000000000000000000000000000000000000000000000000000000000000000000000000000000000000000000000000000000000000000000000000000000000000000000000000000000000000000000000000000000000000000000000000000000000000000000000000000000000000000000000000000000000000000000000000000000000000000000005300000000000000000000000000000000000000000000000000000000000000000000000000000000000000000000000000000000000000000000000000000000000000000000000000000000000000000000000000000000000000000000000000000000000000000000000000000000000000000000000000000000000000000000000000000000000000000000000000000000000000000000000000000000000000000000000000000000000000000000000000000000000000000000000000000000000000000000000000000000000000000000000000000000000000000000000000000000000000000000000000000000000000000000530000000000000000000000000000000000000000000000000000000000000000000000000000000000000000000000000000000000000000000000000000000000000000000000000000000000000000000000000000000000000000000000000000000000000000000000000000000000000000000000000000000000000000000000000000000000000000000000000000000000000000000000000000000000000000000000000000000000000000000000000000000000000000000000000000000000000000000000000000000000000000000000000000000000000000000000000000000000000000000000000000000000000000000000000000000000000000000000000000000000000000000000000000000000000000000000000000000000000000000000000000000000000000000000000000000000000000000000000000000000000000000000000000000000000000000000000000000000000000000000000000000000000000000000000000000000000000000000000000000000000000000000000000000000000000000000000000000000000000000000000000000000000000000000000000000000000000000000000000000000000000000000000000000000000000000000000000000000000000000000000000000000000000000000000000000000000000000000000000000000000000000000000000000000000000000000000000000000000000000000000000000000000000000000000000000000000000000000000000000000000000000000000000000000000000000000000000
#040330:0000000000000000000000000000000000000000000000000000000000000000000000000000000000000000000000000055000000000000000000000000000000000000000000000000000000000000
#040360:00000000000000000000000000000000000000000000000000000000000000000000000000000000000000000000000000000000000000000000000000000000000000000000000000000000000000000000000000000000000000000000000000000000000000000000005200000000000000000000000022000000000000000000000000000000000000000000000000000000000000000000000000000000
#0413b0:00001323
#041370:0000000000530000
#044320:00001323
#044360:0000000000530000
#045370:13
#0453b0:0000002300000000
#045321:0000001300002300
#045361:00000000000000000053000000000000
#0453b0:0013
#045370:00000023
#046360:13
#046320:0000002300000000
#0463b1:0000001300002300
#046371:00000000000000000053000000000000
#046320:0013
#046360:00000023
#0473b0:1300002300000000
#047370:00000053000000000000000000000000
#047321:0000001300000000
#0473b1:00000023
#0473b0:0013
#047320:00000023
#048320:1300002300000000
#048360:00000053000000000000000000000000
#0483b1:0000001300000000
#048321:00000023
#048320:0013
#0483b0:00000023
#050320:13230000
#050360:0053000000000000
#0503b1:00132300
#050371:0000005300000000
#050361:0000000000000014
#051321:0022000000000000
#051360:0014000000000000
#0513c0:0000002200000000
#0533b0:13230000
#053370:0053000000000000
#053320:0000001300230000
#053360:0053
#0543b0:00133323
#054370:0000005300530000
#054360:0000000000000013
#055320:0023000000000000
#055370:0000001300000000
#0553b0:0000000000230000
#056320:00132300
#056360:0000005300000000
#056371:00001323
#0563b1:0000000000530000
#0563b1:0000000000000013
#057371:5300002300000000
#0573b1:0033000000000000
#057360:0013000000000000
#057320:0000002300000000
#057370:0013
#0573b0:00000023
#057361:00000013
#058321:23
#0583b0:13230000
#058370:0053000000000000
#058321:00132300
#058361:0000005300000000
#058361:0000000000000014
#0593c1:0022000000000000
#059360:0014000000000000
#059320:0000002200000000
#061320:13230000
#061360:0053000000000000
#0613b0:0000001300230000
#061370:0053
#062320:00133323
#062360:0000005300530000
#062370:0000000000000013
#0633b0:0023000000000000
#063360:0000001300000000
#063320:0000000000230000
#0643b0:00132300
#064370:0000005300000000
#064361:00001323
#064321:0000000000530000
#064321:0000000000000013
#065361:5300002300000000
#065321:0033000000000000
#065370:0013000000000000
#0653b0:0000002300000000
#065360:0013
#065320:00000023
#065371:00000013
#0663b1:23
#066360:1323000000000000
#066320:0000132300000000
#066371:0000001300000000
#0663b1:0000000000230000
#066321:00000013
#067361:23
#0673b0:13330000
#067370:0033002300000000
#067321:0000001300000000
#067361:0000000000230000
#067371:00000013
#0683b1:23
#068360:13
#068320:00230000
#068370:0000001300000000
#0683b0:0000000000230000
#068370:00000013
#0693b0:23
#069360:0000001300000000
#069320:0000000000230000
#069370:00000013
#0703b0:23
#0703c0:0000001200000000
#0703b0:0000000000000000000000000032000000000000000000000000000000000000
#0703a0:00000000000000320000000000000000
#070390:0000000000000000000000000000003200000000000000000000000000000000
#070380:00003226
#070321:0000001200002600
#070331:0000000000000000000000000032000000000000000000000000000000000000
#070341:00000000000000320000000000000000
#070351:0000000000000000000000000000003200000000000000000000000000000000
#070361:0032
#0713c1:12
#0713a1:0052000052000000000000000000000000000000000000000000000000000000
#0713b1:00520000000000000000000000000000
#071391:0000005200005200000000000000000000000000000000000000000000000000
#071381:0000000000520000220000000000000000000000000000000000000000000000
#071371:0000000000000052000000000000000000000000000000000000000000000000
#071360:00000000122200000000000000000000
#071381:00000000001222000000000000000000
#071350:00000000000013230000000000000000
#071381:00000000000000132300000000000000
#071340:00000000000000001424000000000000
#071381:00000000000000000014240000000000
#071330:00000000000000000000152500000000
#071381:00000000000000000000001525000000
#071320:00000000000000000000000016260000
#071381:00000000000000000000000000162600
#0803a1:14240000
#080361:0054000000000000
#080360:00142400
#080320:0000005400000000
#081360:0000001400340024
#0813a0:00003434
#083360:14240000
#0833a0:0054000000000000
#0833a0:0000001400240000
#083360:0054
#0843b0:00132300
#084370:0000005300000000
#084360:0000000000000013
#085320:0033002300000000
#085360:00330000
#085371:0000001300003300
#0853b1:0000000000330023
#086371:0000000000000013
#0873b1:53
#087371:0023000000000000
#0873b1:0013
#087371:0000000000230000
#087361:00000013
#087321:0000000000000023
#088321:14240000
#088361:0054000000000000
#088360:00142400
#0883a0:0000005400000000
#089360:0000001400340024
#089320:00003434
#091360:14240000
#091320:0054000000000000
#091320:0000001400240000
#091360:0054
#092320:00132300
#092360:0000005300000000
#092370:0000000000000013
#0933b0:0033002300000000
#093370:00330000
#093361:0000001300003300
#093321:0000000000330023
#094361:0000000000000013
#095321:53
#095361:0023000000000000
#095321:0013
#095361:0000000000230000
#095371:00000013
#0953b1:0000000000000023
#096361:13230000
#096321:0033000000000000
#096371:00000013
#0973b1:23
#097360:13
#097320:0023000000000000
#0973b0:00130000
#097370:0000002300000000
#097321:0000001323000000
#097321:00000013
#097361:0000000000000053
#098321:23
#098371:0000001323000000
#0983b0:0000000013230000
#0983b0:00000013
#099370:23
#099320:0000001300000000
#099370:0023
#0993b1:0013
#099361:0000000000230000
#099361:00000013
#100321:23
#100370:13230000
#1003b0:0033000000000000
#100360:00000013
#101320:23
#101371:13
#1013b1:0023000000000000
#101321:00130000
#101361:0000002300000000
#1013b0:0000001323000000
#1013b0:00000013
#101370:0000000000000053
#1023b0:23
#102360:0000001323000000
#102321:0000000013230000
#102321:00000013
#103361:23
#1033b1:0000001300000000
#103361:0023
#103320:0013
#103370:0000000000230000
#103370:00000013
#1043b0:23
#104320:0000000000000016
#105320:00000000000000530000000000000000
#108320:21
#104381:0000000000000016
#1053b1:00000000000000530000000000000000
#1083d1:21
