This file was generated by Ched 2.7.0.0.
#TITLE ""
#ARTIST ""
#DESIGNER ""
#DIFFICULTY 0
#PLAYLEVEL
#SONGID ""
#WAVE ""
#WAVEOFFSET 0
#JACKET ""
#REQUEST "ticks_per_beat 480"
#00002: 4
#BPM01: 180
#00008: 01
#TIL00: ""
#VOLUME: ""
#HISPEED 00
#MEASUREHS 00
#00714:1414
#00718:00140014
#00812:14000014
#00816:00140000
#0081a:0014
#0091a:1414
#00912:00140000
#00910:41
#01118:1414
#01114:00140000
#01014:1414
#0101a:00140000
#01212:14
#01218:00140000
#01214:0014
#0121a:00000014
#01312:1414
#0131a:00140000
#01514:1414
#01518:00140000
#01418:1414
#01412:00140000
#0161a:14
#01614:00140000
#01618:0014
#01612:00000014
#02014:0014
#0201a:14
#02212:14
#0221a:0014
#0241a:14
#02412:0014
#0251a:1414
#02512:00140014
#02618:1414
#02614:00140014
#0271a:1414
#02712:00140014
#02818:1414
#02814:00140014
#0291a:14
#02912:00140000
#02918:0014
#02914:00000014
#0301a:14
#03012:00140000
#03018:0014
#03014:00000014
#0311a:14
#03112:00140000
#03118:0014
#03114:00000014
#0321a:14
#03212:00140000
#03218:0014
#03214:00000014
#03918:00000014
#04014:1414
#04018:00140000
#0411a:1414
#04114:00140014
#0411f:11
#04312:1414
#04318:00140014
#0451a:14
#04518:00140000
#04612:14
#04614:00140000
#04718:14
#0471a:00140000
#04814:14
#04812:00140000
#04918:1414
#04914:00140014
#05018:0014
#05014:00000014
#05012:00240000
#0501a:24
#0501f:21
#0511a:1414
#05112:00140000
#05116:00000014
#05110:41
#05212:14
#05217:00140000
#05213:0014
#05218:00000014
#05314:14
#05319:00140000
#05315:0014
#0531a:00000014
#0561a:00140000
#05612:0014
#05618:00000014
#05714:14
#05718:00140000
#05712:0014
#0571a:00000014
#07114:00140014
#07118:0014
#0801a:0014
#08016:00000014
#08014:00240000
#08018:24
#08010:41
#08112:14
#08118:00140000
#08114:0014
#0811a:00000014
#08212:00140000
#08218:0014
#08216:14
#08214:00000014
#0831a:14
#08314:00140000
#08318:0014
#08312:00000014
#0851a:00000014
#08516:0014
#08512:00140000
#08518:14
#08412:00000014
#0841a:00140000
#08416:0014
#0871a:00000014
#08712:0014
#08718:00140000
#08714:14
#0861a:00000014
#08612:00140000
#08616:0014
#08812:0014
#08816:00000014
#08818:00240000
#08814:24
#0891a:14
#08914:00140000
#08918:0014
#08912:00000014
#0901a:00140000
#09014:0014
#09016:14
#09018:00000014
#09112:14
#09118:00140000
#09114:0014
#0911a:00000014
#09312:00000014
#09316:0014
#0931a:00140000
#09314:14
#0921a:00000014
#09212:00140000
#09216:0014
#09210:41
#09512:00000014
#0951a:0014
#09514:00140000
#09518:14
#09412:00000014
#0941a:00140000
#09416:0014
#1041a:1400000000000014
#10416:00140000
#10412:0014
#01818:0014
#01812:14
#07617:0000000000000000000000000000000000000000000000000000001400000000
#0761a:14000034000034000034000034000034
#05412:00140000
#0541a:0014
#05414:00000014
#05518:14
#05514:00140000
#0551a:0014
#05512:00000014
#05814:0014
#05818:00000014
#0581a:00240000
#05812:24
#05912:1414
#0591a:00140000
#05916:00000014
#0601a:14
#06015:00140000
#06019:0014
#06014:00000014
#06118:14
#06113:00140000
#06117:0014
#06112:00000014
#06412:00140000
#0641a:0014
#06414:00000014
#06518:14
#06514:00140000
#0651a:0014
#06512:00000014
#0621a:00140000
#06212:0014
#06218:00000014
#06314:14
#06318:00140000
#06312:0014
#0631a:00000014
#07815:0000000000000000000000000000000000000000000000000000001400000000
#07812:14000034000034000034000034000034
#04414:0034
#04413:00340000
#04218:0034
#04219:00340000
#06619:00340000
#06618:0034
#06718:00340000
#06719:0034
#06813:00340000
#06814:0034
#06914:00340000
#06913:0034
#0731a:00003400003400003400000000000000
#0721a:00000034000034000034000034000034
#07512:00003400003400003400000000000000
#07412:00000034000034000034000034000034
#0771a:00003400003400003400000000000000
#07912:00003400003400003400000000000000
#02110:41
#03310:41
#0455a:64
#04558:00240000
#04652:54
#04654:00240000
#04758:54
#0475a:00240000
#04854:64
#04852:00240000
#07158:16
#08058:14
#08054:00140000
#08858:00140000
#08854:14
#1045a:0000000000000054
#07657:0000000000000000000000000000000000000000000000000000002400000000
#0765a:64
#07855:0000000000000000000000000000000000000000000000000000002400000000
#07852:54
#0003a0:1424
#001320:1424
#002380:1424
#003340:1424
#0043a0:14
#004380:0024
#005320:14
#005340:0024
#006380:14
#0063a0:0024
#0173a0:14
#017380:0024
#019320:14
#019340:0024
#021380:14
#0213a0:0024
#023340:14
#023320:0024
#0333a0:14
#033380:0034
#0343a0:34
#034380:0034
#0353a0:34
#035380:0034
#0363a0:34
#036380:0024
#037320:14
#037340:0034
#038320:34
#038340:0034
#039320:34
#039340:0024
#0423a0:14
#042390:00340000
#042380:00003424
#044320:14
#044330:00340000
#044340:00003424
#0453a0:1424
#045380:00540000
#046320:1424
#046340:00540000
#047380:1424
#0473a0:00540000
#048340:1424
#048320:00540000
#0663a0:14
#066390:00340000
#066380:00003434
#067380:34340000
#067390:0034
#0673a0:00000024
#068320:14
#068330:00340000
#068340:00003434
#069340:34340000
#069330:0034
#069320:00000024
#070390:14
#071380:26
#0723a0:14000034000034000034000034000034
#0733a0:00003400003400003400000000000000
#073370:00000000000000000000002400000000
#074320:14000034000034000034000034000034
#075320:00003400003400003400000000000000
#075350:00000000000000000000002400000000
#0763a0:14000034000034000034000034000034
#076370:0000000000000000000000000000000000000000000000000000005400000000
#0773a0:00003400003400003400002400000000
#078320:14000034000034000034000034000034
#078350:0000000000000000000000000000000000000000000000000000005400000000
#079320:00003400003400003400002400000000
#0963a0:14000024
#096380:00343400
#097320:14000024
#097340:00343400
#098380:14000024
#0983a0:00343400
#099340:14000024
#099320:00343400
#1003a0:1434
#100380:00340024
#101320:1434
#101340:00340024
#102380:1434
#1023a0:00340024
#103340:1434
#103320:00340024
#1043a0:0000000000001434
#1083b0:23
