This file was generated by Ched 2.7.0.0.
#TITLE ""
#ARTIST ""
#DESIGNER ""
#DIFFICULTY 0
#PLAYLEVEL
#SONGID ""
#WAVE ""
#WAVEOFFSET 0
#JACKET ""
#REQUEST "ticks_per_beat 480"
#00002: 4
#BPM01: 121
#00008: 01
#TIL00: ""
#VOLUME: ""
#HISPEED 00
#MEASUREHS 00
#0001a:14
#00114:14
#00218:14
#00312:14
#0041a:14
#00410:41
#0051a:14
#00614:14
#00714:14
#00818:14
#00918:14
#01012:14
#01112:14
#01618:14
#01718:14
#01812:14
#01912:14
#0201a:14
#02010:41
#0211a:14
#02214:14
#02314:14
#03018:0016
#03010:00000041
#03112:16
#03118:0016
#03418:0016
#03412:26
#03512:16
#03518:0016
#04418:16
#04412:0016
#04612:16
#04618:0016
#0481a:14
#04810:41
#04914:14
#05018:14
#05112:14
#0521a:14
#05314:14
#05418:14
#05512:14
#0241f:11
#04218:26
#04212:0026
#04210:41
#04318:26
#04312:0026
#0561a:24
#0291f:00000000000000000000000000000021
#01210:41
#0123a0:14
#0133a0:24
#014340:14
#015340:24
#024380:14
#0253a0:34
#026380:34
#0273a0:34
#028380:24
#029320:1636
#030320:26
#032320:1626
#033380:1626
#036320:1636
#037320:3626
#0383a0:14
#039380:0024
#040320:14
#041340:0024
#045380:1626
#047320:1626
