This file was generated by Ched 2.7.0.0.
#TITLE ""
#ARTIST ""
#DESIGNER ""
#DIFFICULTY 0
#PLAYLEVEL
#SONGID ""
#WAVE ""
#WAVEOFFSET 0
#JACKET ""
#REQUEST "ticks_per_beat 480"
#00002: 4
#BPM01: 121
#00008: 01
#TIL00: ""
#VOLUME: ""
#HISPEED 00
#MEASUREHS 00
#00016:1212
#0001a:00001212000000000000000000120000
#00014:00000000001200000000121200000000
#00018:0000001200000000
#00012:00000000000000000000000000000012
#0001c:0012
#00118:1212
#00116:00120000001200000000001200000000
#0011a:0012000000120000
#00112:00000012000000120000000000000000
#00114:00000000000000000012000000000000
#0011c:00000000001200000000000000000000
#0031a:0012000000000000
#00316:12000012000000120000000000000000
#00312:00000000001200000000000000000000
#00318:00000000001200000012000000130013
#00315:0000000000000013
#0031c:00000000000000120000001200000000
#0041b:00000000130000000033330000000000
#00416:00333333001300000000001300000000
#00419:0000001300000000
#00414:00000000000000130000000000000000
#00417:00000000000000001300000000130000
#00412:13000000000000000000000000130000
#00410:41
#0051b:13000000001300000000001300000000
#00517:00000013000000000000000000000000
#00518:0000001300000013
#00515:00000000000000130000000000000013
#00512:00000000000000001300000000130000
#0061b:13000000000013000000000000130000
#00615:00130000001300130000130000001300
#00618:00001300130000001300001300000013
#00612:00000013000000000013000000000000
#00712:13000000001300000000001300130000
#00715:00000000000000130000000000001300
#00718:00000000000013000000000000000013
#0071b:00000013000000001300000000000000
#00716:00333300000000000000000000000000
#00717:00000000000000000033330000000000
#0081b:13000000001300000013000000130000
#00812:00130000000000001300000000000000
#00818:00001300000000130000130000000000
#00815:00000000000013000000001300000000
#00816:0000000000000013
#00819:00000000000000000000000000000013
#0091b:00000000001300000000001300000000
#00912:00001300000013000000000000130000
#00918:00000000000000130000000000001300
#00915:00000013000000001300000000000013
#00914:13
#00917:00130000000000000000000000000000
#0101b:13000000000013000000000000130000
#01015:00130000001300130000000000000013
#01018:0013130013000013
#01012:00000013000000000000131300000000
#01116:0013001300001300
#01117:00131300
#01112:23232300
#0111b:0023002300002300
#01216:00000013001300000000000000130000
#0121b:00001300000013001300000000130000
#01212:23000000000000001300000000000013
#01215:0000000000130000
#01218:00000000000000000000001300000000
#01217:13
#01210:41
#0131b:13000000001300000000000013000000
#01315:00130000000000000000000000000000
#01318:0013000000000000
#01312:00000013000000130000000000130000
#01316:00000000001300000000001300000000
#01317:0000000013000013
#01314:00000000000000000013000000000000
#01319:0000000000130000
#01416:13000000000000000000000000000013
#01417:00000013001300000000000000130000
#01412:00001300000013001300000000130000
#0141b:2313
#01418:0000000000130000
#01415:00000000000000000000001300000000
#0151b:13000000001300000000000000130000
#01517:0013000000000000
#01512:00000013000000001300002300000000
#01518:00000000000000130013000000000013
#01515:0000001300130013
#01612:13000000130000000033330000000000
#01618:00130000001300000000000000000013
#01615:0013001313000013
#0161b:00000013000000130000000000130000
#01617:00000000000000000000001300000000
#01712:13000000001300000000131300130000
#0171b:00001313000000001300000000000000
#01715:00000000000013000000000000000013
#01718:00000000000000130000000000001300
#01717:00000000000000000000001300000000
#01716:00000013000000000000000000000000
#01912:00001313000000001300000000130000
#01915:00000000000000130000000000001300
#01918:00000000000013000000000000000013
#0191b:13000000001300000000131300000000
#01916:00000000000000000000001300000000
#01917:00000013000000000000000000000000
#0201b:1300001300000013
#02015:00130000001300000000000000000000
#02012:00000013000000130000000000130000
#02018:00001300130000001300000000000013
#02016:00000000000000000000131300000000
#02010:41
#02115:13000000000000130000000000000000
#02118:00001313000013000000000000000000
#02112:00000000001300000000001300000000
#0211b:0013
#0221b:13000000000000001300000000000013
#02215:00130000000000130000000000000000
#02218:0013131300000000
#02212:00000013001300000000131300130000
#02217:00000000000000000000000000130000
#02216:00000000000000000000000000000033
#02412:1313
#02417:00130000000000000013000000000000
#02414:00000013000000000000001300000000
#02419:00130013
#02416:0000001300000013
#0241b:00000000000000130000000000000013
#0241f:11
#02512:1300000000130000
#02517:00130000000000000023000000000000
#02514:00000013000000000000000000000000
#02519:00130000
#02516:0000001300002300
#0251b:00000000000000130000000000130000
#02816:1200001200001200
#0281c:00120000000000120000000000120000
#02818:00000012000000000012000000000000
#02812:0000120000120000
#02912:13001324
#02916:00001313000000000000002400000013
#02914:00000000001300000000000000000000
#02917:00000000000000131300000000000000
#02918:13
#0291b:00000013000000000000000000002323
#02919:00000000001300000000000000000000
#0291a:0000000000240000
#0291f:00000000000000000000000000000021
#03017:00001300130000130000000000000000
#03012:0000001300000000
#03016:0000000000131300
#03018:0000000000000013
#03010:00000041
#03112:1300001300001300
#03117:00130000000000130000000013000000
#0311b:00000013000000000000130000000000
#03116:0000130000130000
#03118:0000000000000013
#03115:00000000000000000000000000000013
#0321b:23000000130000130000000000000000
#03216:00000000000013230000000000000000
#03217:0013000000001300
#03219:0000000000000013
#03214:0000000000000013
#03212:0023000000000000
#0331b:13000000000000130000000000000000
#03317:00001300000000000000000000000013
#03318:00130024
#03315:00000000001300000000000000000000
#03316:13
#03312:00001300000000130000000000002323
#03314:0000000000240000
#03512:00000013000000000013000000000000
#03517:00000000130000000013000000000000
#0351b:1300001300000000
#03516:00130000000000130000000000000000
#03518:0000000000000013
#0361b:0013000013000000
#03618:00130000
#03612:0000001300130000
#03617:00000000000000000000001300000000
#03616:0000000013000013
#03615:13000013000000000000000000000000
#03717:13000000000000000000000000001313
#03719:0013000000001300
#0371b:0000130000130000
#03712:1300001400000013
#03716:00000000130000140000130000000000
#03714:0013000000001300
#03816:00001300000013130000000013000000
#03817:00000000130000000000130000001313
#0381b:0000001300001300
#03812:0000130000000013
#03912:0000000013000000130000000000000000130000000000001300000000000000
#03915:0000000000000013
#03918:00000000000000000000000000000013
#0391b:0013000000000000000000001300000000000000130000000000000000000000
#03916:00000000000013130000000000000000
#03917:00130000
#04016:00130000
#04018:00000000000013000000000000000013
#04015:00000000000000130000000000001300
#04017:00000013
#04112:00130000
#04115:00000000000000130000000000230000
#04118:0000001300001313
#0411b:0000001300000000000000000000000000000000130000000000000000001300
#0421b:0013000000001300
#04219:00130000
#04217:00000000000013130000000000000000
#04215:00130013
#04218:0000000000000013
#04212:2323
#04210:41
#0431b:1300000000130000
#04315:00001300000000130000000000130000
#04318:00000013000013000000000000001300
#04312:23232323
#0441b:1300000013000013
#04419:0013001300000000
#04417:00000000130000000000131300000000
#04412:23232323
#0451b:13231300
#04518:00001300000013000000131300000012
#04515:00000000130000000000232300000000
#0451a:00000000000000000000000000120000
#04516:0000000000000012
#04512:2323
#04614:12
#04618:00120000000000001200000000001200
#04616:00001200120000000012000000000000
#0461a:00000012000000000000000000000000
#0461c:0000001200120000
#04612:00000000000012000000001200000000
#04812:13000000000000000000001300000013
#04818:00000013000000000000000000000000
#04815:0013000000000000
#04816:00000000000000001300000000130000
#04817:00000000000013000000131300000000
#0481b:23000000000000001300000000130000
#04810:41
#04918:13
#04915:00130000000000000000000000000000
#0491b:00001300001300000000000000000000
#04912:00000013000000130000000000000000
#04917:0013
#04914:00000000000000000013000000000000
#04919:0000000000130000
#04916:00000000000000000000001300000000
#0501b:13000013000000001300000000130000
#05015:00001300000000000000130000130000
#05018:00130000000000000000001300000000
#05012:00000000001300001300000000000000
#05017:0000001300000000
#05117:13000000001300000000130000000000
#05116:00000013000000001300000000001300
#05112:00000000001300000000001300000000
#0511b:00000000000000130000000000001300
#00218:1212
#00214:00001212000000000000000000120000
#0021a:00000000001200000000121200000000
#00216:0000001200000000
#0021c:00000000000000000000000000000012
#00212:0012
#0181b:13000000130000000033330000000000
#01815:00130000001300000000000000000013
#01818:0013001313000013
#01812:00000013000000130000000000130000
#01816:00000000000000000000001300000000
#02315:00000000230000001300000000130000
#02318:00002300000000000013000013000000
#02312:0000002300130000
#0231b:23000000000000230000000000001300
#0261b:1313
#02616:00130000000000000013000000000000
#02619:00000013000000000000001300000000
#02614:00130013
#02617:0000001300000013
#02612:00000000000000130000000000000013
#02716:00140000001400000024000000001400
#02712:00240014
#0271a:24000000000000002400000000000014
#03416:00001300130000130000000000000000
#0341b:0000001300000000
#03417:0000000000131300
#03415:0000000000000013
#0471c:1200000000320000
#04716:12000000000000000000121200000000
#0471b:0012000000000000
#04715:0012000000000023
#0471a:00120000
#04714:00120000
#04719:0000001200000000
#04713:0000001200000000
#04712:0012
#04718:0000000012000013
#0521b:13000000000000000000001300000013
#05215:00000013000000000000000000000000
#05218:0013000000000000
#05217:00000000000000001300000000130000
#05216:00000000000013000000131300000000
#05212:23000000000000001300000000130000
#05315:13
#05318:00130000000000000000000000000000
#05312:00001300001300000000000013000000
#0531b:00000013000000130000000000000013
#05316:0013
#05319:00000000000000000013000000130000
#05314:0000000000130013
#05317:00000000000000000000001300000000
#05416:1300001300000000
#05418:00001300000000000000130000130000
#0541b:00130000001300001300000000000000
#05415:00000013000000000000001300000000
#05412:00000000000000001300000000130000
#05516:13000000001300000000130000000000
#05517:00000013000000001300000000130000
#0551b:00000000001300000000001300000000
#05512:00000000000000130000000000130000
#05515:00000000000000000000000000000023
#05618:23
#00156:00000000000000000000005200000000
#00452:53
#00457:0053
#0045b:00000000000000000000001300000000
#00456:00000000000000000000001300000000
#00556:00000000000000000000001300000000
#0055b:00000000000000000000001300000000
#00552:0053
#00752:53
#0075b:0063
#00955:0053
#01058:0053
#01152:0013
#0115b:00000013
#01252:13
#01357:0000000000000013
#0145b:13
#01655:0053
#01652:00000000000000000000001300000000
#01657:00000000000000000000001300000000
#01858:0063
#01856:00000000000000000000001300000000
#0185b:00000000000000000000001300000000
#02058:0053
#02155:53
#02157:00000000000000000000001300000000
#0215b:0053
#0225b:0053
#02252:00000000000000000000000000530000
#02352:0000000000130000
#0235b:0000000000000013
#02457:00430000000000000043000000000000
#02459:00430043
#0245b:00000000000000430000000000000043
#02557:00430000000000000000000000000000
#02559:00430000
#0255b:00000000000000430000000000430000
#02552:0000000000330000
#02656:00330000000000000033000000000000
#02654:00330033
#02652:00000000000000330000000000000033
#02756:00340000004400000034000000000000
#0285c:00120000000000120000000000120000
#02852:0000120000120000
#03052:00130000
#03057:00000000000000530000000000000000
#0305b:00000013
#02956:00000000000000000000000000000053
#03157:00130000000000130000000000000000
#03156:00130000
#03256:00000000000000530000000000000000
#03456:00000000000000630000000000000000
#0345b:00130000
#03452:00000013
#03556:00130000000000130000000000000000
#03557:00000000130000000053000000000000
#03552:00000000000000000053000000000000
#03357:00000000000000000000000000000063
#03657:00000000000000000000005300000000
#03752:0000003400000000
#03756:00000000000000440000000000000000
#03757:00000000000000000000000000000053
#03856:00000000000000530000000000000000
#03857:00000000000000000000000000000053
#0395b:0023000000000000000000000000000000000000000000000000000000000000
#03956:00000000000000630000000000000000
#03952:0000000000000000000000000000000000230000000000000000000000000000
#03958:00000000000000000000000000000053
#04055:00000000000000530000000000000000
#04058:00000000000000000000000000000053
#0415b:0000002300000000000000000000000000000000000000000000000000000000
#04155:00000000000000530000000000000000
#04656:00520000
#04652:00000000000022000000005200000000
#04758:0052
#0485b:13
#04952:00000053000000000000000000000000
#0495b:00000000005300000000000000000000
#04956:00000000000000000000005300000000
#05152:00000000000000000000001300000000
#0515b:0000000000000013
#0535b:00000063000000000000000000000000
#05352:00000000006300000000000000000000
#05252:13
#0555b:00000000000000000000001300000000
#001360:00000000000000000000001200000000
#002320:22
#003320:00000000000000000012000000000000
#003340:0000000000320000
#003360:00000000000000000000003200220000
#004320:13
#004360:00333333230000000000000000000000
#004370:0013
#0043b0:00000000000000000033332300000000
#004360:00000000000000000000000000000013
#005360:23
#005320:00001323000000000000000000000000
#005320:0013
#005360:00000000000000000000002300000000
#007320:13
#007360:00333323000000000000000000000000
#0073b0:0013
#007370:00000000000000000033332300000000
#008350:00000013002300000000000000000000
#009350:0013
#009320:00000000000000000000002300000000
#010380:0013
#0103b0:00000000000000000000002300000000
#016350:0013
#016320:00000000000000000033332300000000
#018380:0013
#0183b0:00000000000000000033332300000000
#020380:0013
#0203b0:00000000000000000000002300000000
#021350:13
#021320:00000023000000000000000000000000
#0213b0:0013
#021370:00000000000000000000002300000000
#0223b0:0013
#022370:00000000000000000000002300000000
#022320:00000000000000000000000000130000
#022360:00000000000000000000000000000033
#023360:23
#029360:00000000000000000000000000000013
#030320:00230000
#030370:00000000000000130000000000000000
#0303b0:00000023
#032360:00000000000000130000000000000000
#032320:00000023
#033370:00000000000000000000000000000013
#0343b0:00230000
#034360:00000000000000130000000000000000
#034320:00000023
#035370:00000000000000000013000000000000
#0353b0:00000023
#035321:00000000000000000013000000000000
#035361:00000023
#036371:00000000000000000000001300000000
#0363b1:0000000000000023
#037371:00000000000000000000000000000013
#0383b1:0023000000000000
#038361:00000000000000130000000000000000
#038321:0000000000230000
#038371:00000000000000000000000000000013
#0393b1:0053000000000000000000000000000000000000000000000000000000000000
#039371:0023000000000000
#039361:00000000000000130000230000000000
#039321:0000000000000000000000000000000000530000000000000000000000000000
#039381:00000000000000000000000000000013
#0403b1:00230000
#040351:00000000000000130000000000000000
#040321:00000023
#040381:00000000000000000000000000000013
#0413b1:0000005300000000000000000000000000000000000000000000000000000000
#041381:00230000
#041351:00000000000000130000000000000000
#041321:0000000000230000
#046361:00122200
#046321:0000005200000000
#046321:00000000000000000000001200000000
#046361:0000000000000022
#047381:0012
#0473c1:00000000000000000000322200000000
#048321:00000000001323000000000000000000
#049321:00000013000000000000000000000000
#049361:00000000002300000000000000000000
#0493b0:00000000001300000000000000000000
#049370:00000000000000230000000000000000
#049360:00000000000000000000001300000000
#050320:23
#050320:00000000000000000000000000000013
#051320:23
#0513b0:00001323000000000000000000000000
#0523b0:00000000001323000000000000000000
#0533b0:00000013000000000000000000000000
#053370:00000000002300000000000000000000
#053321:00000000001300000000000000000000
#053361:00000000000000230000000000000000
#0543b1:00000000000000000000000000000013
#0553b1:23
#055321:00001323000000000000000000000000
