This file was generated by Ched 2.7.0.0.
#TITLE ""
#ARTIST ""
#DESIGNER ""
#DIFFICULTY 0
#PLAYLEVEL
#SONGID ""
#WAVE ""
#WAVEOFFSET 0
#JACKET ""
#REQUEST "ticks_per_beat 480"
#00002: 4
#BPM01: 121
#00008: 01
#TIL00: ""
#VOLUME: ""
#HISPEED 00
#MEASUREHS 00
#00016:0000000000120000
#00018:00000000000000000000001200000000
#00014:00000000000000000000000000120000
#0001b:0012
#00418:00000000000013000000000000130000
#00415:00000000000000001300000000000013
#00412:33333333000000000033330000000000
#00410:41
#0051b:13000000000000000000000000133333
#00518:00000013000000000000000000000000
#00512:00001300001333330000000000000000
#0091b:00333300000000000000000000130000
#00915:0000001313000013
#00918:13000000001300130000000000000013
#01018:00000000000000000000000000130000
#01015:0000130000000013
#0101b:00000000000000000000000000000013
#01012:13333333003333330000000000000000
#01518:33333300000000130013000000001300
#01515:00000000000000001300130000000013
#01512:00000000001300000000000000130000
#0151b:00000000000000000000002300000000
#01912:00000000001300000000000000130000
#01918:0000000000000013
#01915:00000000000033330000000000000013
#02412:13000000000013000000001300000000
#02418:00130000000000130000000013000000
#02415:00000013000000001300000000001300
#0241b:00000000130000000013000000000013
#0241f:11
#02512:13000000000013000000000000140000
#02518:00130000000000130000000024000000
#02515:00000013000000000000000000000000
#0251b:00130000
#0251a:0000000000140000
#02514:00000000000000000024000000000000
#03018:00000000000000130000000000000000
#03012:0033000000000000
#0301b:0000000000330000
#03010:00000041
#03112:1300001300000000
#03118:00130000000000130000000013000013
#03115:00000013000000000000130000001300
#0311b:00130000
#03218:0000001300000013
#03215:00000000000000230000000000000000
#03315:1300130000000023
#0331b:00001300000000130000000000000000
#03318:00000000001300000000000024000013
#03312:00000000000000130000000000000000
#03314:0000000000240000
#0351b:13000000000013000013000000000000
#03515:00130000000000130000000000000000
#03518:00000013000000000000000000000000
#03512:00130000
#03615:0013000000130000
#03618:00000000130000001300001300000000
#0361b:0000001300000000
#03612:13
#03714:0000001400000000
#03718:00000000130000140000000013000000
#03715:0013000000000013
#0371b:00000000000000000000000000000013
#03712:1300000000130000
#03815:00000000130000130000000000001300
#03818:0000001300001300
#0381b:00000000000000000000000000000013
#0391b:00000013
#03918:0000001300000013
#03915:00000000130000000000000000000013
#03912:00000000000000130000000000000000
#04018:00000000000000130000000000001300
#04015:00000000000013000000000000000013
#04118:0000001300000013
#0411b:0000000000130000
#04112:0000001300000000000000000000000000000000000000001300000000000000
#04115:00000000000000130000000000000013
#04215:0000001300000000
#04218:00000000130000130000000000001300
#04210:41
#04318:00001300000000002300000000130000
#04312:00000013000000000000000000000000
#04315:2300000000002313
#0441b:13231300
#04418:0013000000132300
#04412:23132300
#04415:00000000000013000000001300001300
#04516:0014001400000000
#04515:00000000000000000000000000130013
#04518:00000000000000000000002400001300
#0451a:2424
#04512:00240000
#04514:0000000000240000
#04815:23000013000000000000130000000000
#0481b:0013000013000000
#04812:00000000000013000000000000130000
#04818:00000000001300000000001300000000
#04810:41
#04915:00000000001300001300000000000000
#04918:00000000000000000013000000000000
#04912:0000000000130000
#0491b:33333300000000130000001300000000
#05015:00001300001300000000001300000000
#05018:00130000000013000000130000000000
#05012:13000000000000001300000000000013
#0501b:00000013000000000000000000130000
#05118:1300000000130000
#0511b:00000013000000130000000000000000
#05112:00000000001300000000001300000000
#05115:0013000013000000
#01218:00000000000000000000000000130000
#01214:24
#01210:41
#0131b:00000000001300000000000000000000
#01315:33333300000000000000000000000000
#01312:00000000000000003333330000000000
#0221b:00000000000000000000000000130000
#02218:00000000000000000000000000000033
#02212:00333333003333330000000000000000
#02714:00140000000000000024000000000000
#02718:00000000001400000000000000001300
#02712:00240013
#02715:00000000000000000000000000000013
#0271a:2424
#02915:00000000000000000000000000000013
#02914:0000000000242400
#02918:00000000000000000000002400002300
#0291f:00000000000000000000000000000021
#05512:00000013000000130000000000130000
#05515:1300000000130000
#0551b:00000000001300000000001300000000
#05518:00001300000000001300000000000023
#00116:00000000001200000000000000000000
#0011b:32323200000000000000000000000000
#00113:00000000000000003232320000000000
#00218:0000000000120000
#00216:00000000000000000000001200000000
#0021a:00000000000000000000000000120000
#00213:0012
#00318:00000000001200000000000000000000
#00316:00000000000000120000000000000000
#00312:00000000000000000000000000133333
#00313:32323200000000000000000000000000
#0031b:0000000000320000
#00615:0000001300000000
#00618:0013
#00612:00000000000000000000000000133333
#0061b:33333333000000000033330000000000
#00715:13000000000000000000000000130000
#0071b:00000000001333330033330000000000
#00718:0013
#00712:00333300000000000000000000003333
#00818:00000000001300000000000000001300
#00815:00000000000000000000000000130013
#00812:33333300000000000000000000000000
#0081b:00000000000033333333330000000000
#01415:00000000000000000000000000130000
#0141b:23
#01618:00130000
#0161b:13333333003333330000000000000000
#01615:00000000000000000000000000130000
#01612:00000000000000000000000000003333
#0171b:00000000001300000000000000130000
#01715:0000000000000013
#01718:00000000000033330000000000000013
#01815:00130000
#01812:13333333003333330000000000000000
#01818:00000000000000000000000000130000
#0181b:00000000000000000000000000003333
#0261b:13000000000013000000001300000000
#02615:00130000000000130000000013000000
#02618:00000013000000001300000000001300
#02612:00000000130000000013000000000013
#03415:00000000000000130000000000000000
#03418:0000001300000013
#0341b:0033000000000000
#03412:0000000000330000
#04615:0000001300130000
#04618:00000000000000001300001300000000
#0461b:00333333000000000000000000000000
#04712:1313
#04715:0013000000330000
#04718:0000130000000023
#0471b:0000001300000000
#05218:23000013000000000000130000000000
#05212:0013000013000000
#0521b:00000000000013000000000000130000
#05215:00000000001300000000001300000000
#05318:00000000001300001300000000000000
#05315:00000000000000000013000000000000
#0531b:0000000000130000
#05312:33333300000000130000001300000000
#05418:00001300001300000000001300000000
#05415:00130000000013000000130000000000
#0541b:13000000000000001300000000000013
#05412:00000013000000000000000000130000
#01112:24242400
#0111a:0024002400002400
#02312:0023000000000000
#02318:00000000230000230000000000000000
#02315:0000002300000000
#05615:23
#0201b:00333333003333330000000000000000
#02012:00000000000000000000000000003333
#02010:41
#0211b:00000000000033330000000000000000
#00455:0063
#00452:00000000000000000000001300000000
#01152:0014
#0115a:00000014
#01254:14
#0145b:13
#0225b:00000000000000000000000000630000
#03052:00130000
#03058:00000000000000530000000000000000
#0305b:00000013
#02955:00000000000000000000000000000053
#03158:00130000000000130000000000000053
#0315b:00130000
#03255:00000000000000530000000000000000
#0355b:00000000000000000053000000000000
#03555:00130000000000130000000000000000
#03552:00130000
#03658:00000000000000000000005300000000
#03754:0000003400000000
#03758:00000000000000440000000000000000
#0375b:00000000000000000000000000000053
#03855:00000000000000530000000000000000
#0385b:00000000000000000000000000000053
#03955:00000000000000000000000000000053
#03952:00000000000000630000000000000000
#04055:00000000000000000000000000000063
#04058:00000000000000630000000000000000
#04152:0000002300000000000000000000000000000000000000000000000000000000
#04155:00000000000000000000000000000053
#04855:13
#00352:00000000000000000000000000530000
#00552:00000000005300000000000000000000
#00555:00000000000000000000001300000000
#0055b:00000000000000000000000000630000
#00658:0053
#00652:00000000000000000000000000530000
#00755:23000000000000000000000000530000
#0075b:00000000006300000000000000000000
#00758:0023
#00858:00000000006300000000000000000000
#00958:53
#00955:0063
#01052:53
#01055:00230000
#01658:00230000
#0165b:53000000000000000000001300000000
#01655:00000000000000000000000000530000
#0175b:00000000005300000000000000000000
#01855:00230000
#01852:63000000000000000000001300000000
#01858:00000000000000000000000000630000
#01952:00000000006300000000000000000000
#02158:00000000000000000000001300000000
#02358:00000000000000530000000000000000
#0255a:0000000000140000
#02552:00000000000000000000000000140000
#0255b:00130000
#02558:00130000000000130000000000000000
#02754:00140000000000000014000000000000
#02758:00000000001400000000000000000000
#02755:00000000000000000000000000000053
#03455:00000000000000630000000000000000
#0345b:00130000
#03452:00000013
#03358:00000000000000000000000000000063
#04258:00000000000000530000000000000000
#04352:00000053000000000000000000000000
#04658:00000000000000000000005300000000
#04752:0053
#05258:13
#05152:00000000000000000000005300000000
#05155:0000000000000013
#02655:00130000000000000000000013000000
#02652:00000000130000000013000000000000
#02458:00130000000000000000000013000000
#0245b:00000000130000000013000000000000
#000330:12000000003222000000000000000000
#000360:00003232000000000000000000000000
#0003b0:00000000000000000000000000000012
#0013b0:32323200000000000000000000000000
#001380:00000022000000000000000000000000
#001330:00000000000000123232320000000000
#001360:00000000000000000000002200000000
#0023b0:12000000003222000000000000000000
#002380:00003232000000000000000000000000
#002330:00000000000000000000000000000012
#003330:32323200000000000000000000000000
#003360:00000022000000000000000000000000
#0033b0:00000000000000000012320000000000
#003380:00000000000000000000002200000000
#003320:00000000000000000000000000133333
#004320:33333333000000000000000000000000
#004350:00230000
#004350:0013
#004320:00000000000000000033332300000000
#005320:00000000001333330000000000000000
#005350:00000000000000003300002300000000
#0053b0:00000000000000000000000000133333
#0063b0:33333333000000000000000000000000
#006380:00230000
#006380:0013
#0063b0:00000000000000000033332300000000
#006320:00000000000000000000000000133333
#007350:33
#007320:00333323000000000000000000000000
#0073b0:00000000001333330033332300000000
#007380:0033
#007350:00000000000000000000000000130000
#007320:00000000000000000000000000003333
#008320:33333323000000000000000000000000
#008380:00000000001300000000000000000000
#0083b0:00000000000033333333332300000000
#009380:13
#0093b0:00333323000000000000000000000000
#009350:0013
#009320:00000000000000000000002300000000
#010320:13333333003333333300332300000000
#010350:00330000
#0123b0:00001333000000000000000000000000
#012380:00000000003323000000000000000000
#012320:0013
#012350:00000000000000000000332300000000
#012350:00000000000000000000000000000013
#013350:33333300000000000000000000000000
#013320:00000023000000000000000000000000
#013320:00000000000000133333330000000000
#013350:00000000000000000000002300000000
#014320:00001333000000000000000000000000
#014350:00000000003323000000000000000000
#0143b0:0013
#014380:00000000000000000000332300000000
#014380:00000000000000000000000000000013
#015380:33333300000000000000000000000000
#0153b0:00000023000000000000000000000000
#0163b0:13333333003333333333332300000000
#016380:00330000
#016350:00000000000000000000000000130000
#016320:00000000000000000000000000003333
#017320:33003323000000000000000000000000
#0173b0:00000000001300000000000000000000
#017380:00000000000033333300332300000000
#018320:13333333003333333333332300000000
#018350:00330000
#018380:00000000000000000000000000130000
#0183b0:00000000000000000000000000003333
#0193b0:33003323000000000000000000000000
#019320:00000000001300000000000000000000
#019350:00000000000033333300332300000000
#0203b0:13333333003333333300332300000000
#020380:00330000
#020320:00000000000000000000000000133333
#021350:33003323000000000000000000000000
#0213b0:00000000001333330000000000000000
#021380:00000000000000003300002300000000
#022320:13333333003333333300332300000000
#022350:00330000
#0223b0:00000000000000000000000000130000
#022380:00000000000000000000000000000033
#023380:23
#023380:00000000000000130000000000000000
#0233b0:0000000000230000
#027350:00000000000000000000000000000013
#028320:00000023
#0293b0:13000000003300000000000000000000
#029380:00003333000000332300000000000000
#029350:00000000000000000000000000000013
#030320:0033230000000000
#030380:00000000000000130000000000000000
#0303b0:0000000000332300
#031380:00000000000000000000000000000013
#0323b0:00230000
#032350:00000000000000130000000000000000
#032320:00000023
#033380:00000000000000000000000000000013
#0343b0:0033230000000000
#034350:00000000000000130000000000000000
#034320:0000000000332300
#0353b0:00000000000000000013000000000000
#035380:00000023
#036380:00000000000000000000001300000000
#0363b0:0000000000000023
#0373b0:00000000000000000000000000000013
#038380:0023000000000000
#038350:00000000000000130000000000000000
#038320:0000000000230000
#0383b0:00000000000000000000000000000013
#039380:0023000000000000
#039320:00000000000000130000000000000000
#039350:0000000000230000
#039350:00000000000000000000000000000013
#040320:00230000
#040380:00000000000000130000000000000000
#0403b0:00000023
#040350:00000000000000000000000000000013
#041320:0000005300000000000000000000000000000000000000000000000000000000
#041350:00230000
#041350:00000000000000000000000000000013
#042320:0023000000000000
#042380:00000000000000130000000000000000
#0423b0:00000023
#043320:00000013000000000000000000000000
#043350:0000002300000000
#0463b0:13333333000000000000000000000000
#046380:00230000
#046380:00000000000000000000001300000000
#0463b0:0000000000000023
#047320:0013
#047350:00000000000000000000332300000000
#0483b0:00000000000000000000000000000013
#0493b0:33333300000000000000000000000000
#049380:00000023000000000000000000000000
#051320:00000000000000000000001300000000
#051350:0000000000000023
#052320:00000000000000000000000000000013
#053320:33333300000000000000000000000000
#053350:00000023000000000000000000000000
