This file was generated by Ched 2.7.0.0.
#TITLE ""
#ARTIST ""
#DESIGNER ""
#DIFFICULTY 0
#PLAYLEVEL
#SONGID ""
#WAVE ""
#WAVEOFFSET 0
#JACKET ""
#REQUEST "ticks_per_beat 480"
#00002: 4
#BPM01: 121
#00008: 01
#TIL00: ""
#VOLUME: ""
#HISPEED 00
#MEASUREHS 00
#00012:12000000000000001200000000000012
#0001a:00001212000000000000000000120000
#00016:00000000001200000000000000000000
#00018:0000001200000000
#00014:00000012000000000000121200000000
#0001c:1212
#00017:00000000000000000000001200120000
#0011a:12000000000000000012000000000000
#00118:00120000000000000000120000000000
#00116:00001200000000000000001200000000
#00114:00000012000000000000000000000000
#00117:00000000001200000000000000000000
#00112:00000000000000120000000000000000
#0011c:00000012001200001200000000000000
#00312:00000012001200000012000000130000
#00317:00000000001200120000000000000000
#00315:0000000000120013
#00318:00001200000000000000001200000013
#0031c:00000000000000120000000000000000
#0031b:00000012
#00314:12
#00316:00120000000000000000000000000000
#0031a:00000012000000000000000000000000
#0041b:13000000130000000000001300000000
#00418:00130000001300000000000000000000
#00415:0013001300000000
#00412:00000013000000130000131300130000
#00416:0000000000000013
#0041a:00000000000000000000000000000013
#00417:00000000000000001212000000000000
#00410:41
#00518:00000000001200000000000000000013
#00516:0000001200000000
#00514:00000000000000120000000000000000
#00512:13000000000000001200000000130000
#0051b:00001300000000000000001300000000
#00515:0000000000000013
#00517:00001212000000001300000000000000
#0061b:13000000000013000000001300130000
#00619:00130000000000130000000000000000
#00612:00001813000000001800000000000000
#00614:00130000
#00616:00000000001800000000000000000000
#00615:00000000000000000013000000000013
#00618:0000000000130013
#00712:13333300001300000000000000120000
#00714:0000000000000012
#00716:00000000000000001300000000000012
#00717:13
#00715:0000001300000000
#00718:00000000000000130000000000000000
#0071b:00000000000000001333330000000000
#00818:12000012000012000000120000001200
#00816:00120000000000120012000000120000
#00814:00001200000000001200001200000000
#0081a:00000000001200000000000000000012
#00912:00000000000000000000000000130000
#00916:00000000000000121200000000001200
#00918:00001200001212000000000000000013
#0091c:12000012000000000000001200000000
#0091a:00120000000000000000000000000000
#01013:13
#01016:00120000000000000000330000001300
#01019:0013000000000000
#01014:00000013000000000000000000000013
#01018:00000000120000120000000000130000
#0101a:00000000001300000000000000000000
#01015:0000001300000000
#01012:00000000000000000000131300000000
#0101b:0013
#01116:0015001500001500
#01115:15151500
#01112:23232300
#0111b:0023002300002300
#01216:00000014000014000000001300000014
#0121b:0013000013000000
#01212:23000000001300001300131300000000
#01217:00000000000000000000000000130000
#01215:15
#01210:41
#01318:1400000014000000000000000000001300000000130000000000000013000000
#0131a:00140000000000000000000000000000
#01316:00000014000000000000000000000000
#01312:00000000001300000000000013000000
#01315:00000000000000131300001300130000
#0131b:00000000001300000013000000000000
#01512:00140000001300000014000000120000
#01515:0000000000000000000000000000001300000000000000000000000012000000
#01518:00000000000000131300000000000012
#01514:1414000000000000
#01516:00000014000000000000140000000000
#0151b:00000000001300000000000000000000
#0151a:00000000000000000000002400000000
#01612:14000000000000121400000000000000
#01618:00140000000012000000000000000000
#01616:00001200000000000000000000000014
#0161c:00000012000000000032320000000000
#0161a:00140000
#01614:00000000001400000000000000000000
#01617:00000000000000001200001200000000
#0171a:00001414000000000000000000000000
#0171b:00000000000000000000000000130000
#01718:0000000000000013
#01715:00000000000000000000000000000013
#01716:14000000000000000000141400000000
#01712:00000000000000141400000000000000
#01913:00000000000000000000000000120000
#01916:14000000000000000000141400001200
#01919:00000000000000000000000000000012
#01912:00001414000000000000000000000000
#0191a:00000000000000141400000000000000
#02012:1c001c001c320000
#0201b:00120000000000000000000000120000
#02015:00000012000000000000000000000012
#02018:0012000000000012
#02013:00000000001200000000000000000000
#02016:0000001200000000
#02019:00000000000000120000000000000000
#02017:00000000000000000000121200000000
#02010:41
#02112:1c000000001200160000001200000000
#02118:0000001600000000
#0211c:0032000012000000
#02117:00001212000000000000000000000000
#0221c:12121200
#02216:0000120014000000000000000000140000000000000000000000000000130000
#02212:00000012001200000000120000130033
#02218:0000001200000000
#02215:00000000000000000000001200000000
#02217:00000000000000000000000000130000
#0221b:00000000000000000000000000000013
#0241c:12001212000000001200121200000000
#02416:00160000000000000016000000000000
#02414:00160016
#0241a:00000000001212000000000000121200
#02412:00000000000000160000000000000016
#0241f:11
#02516:00160000000000000024180024000012
#02512:00000000000000160000140000180000
#0251a:00000012001200000000000000141200
#0251c:1212000000000000
#02514:00160000
#02518:0000001200000000
#02816:12120000000000000000120012120000
#02818:00120012120000000000000000000000
#02812:00000000120012120000000000000000
#0281c:00000000000000120012120000120000
#0301b:0013130000000013
#03012:0014000000000000000000001300130000000000130000001300000000000000
#03016:00000000000014140000000000001300
#0301a:0000000000000000000000000000000000140000000000000000000000000000
#03010:00000041
#03112:13140000000013140000000013000013
#0311b:00000013000000000000001300000000
#03116:00140000140000140000140014001400
#0311a:00140000
#0321b:23000000130013130000130000000000
#03212:00002300000013230000000000000000
#03217:0000000000000000000000000000000000000013000000001300000013000000
#03216:1414000000000000
#0331b:13000000000000130000000023000000
#03317:0013000000000000
#03318:00000000130000000000002300000000
#03315:00000000001600000000230000000000
#03316:13000000000000000000000000002414
#03312:00001300000000130000000023002323
#03512:00000013140000000013000000001300
#03516:00140000140000140013000000000000
#03517:0000000000000013
#0351b:1300001300000000
#0351a:00140000000000140000000000000000
#0361b:1300000000000000130000001300001300000000000000000000130000000000
#03617:00130013000000000000000000000000
#03615:00000000000000160000000000000016
#03613:0013000000000000
#03612:00000000001300001300000013001300
#03616:00000000000000000013001300000000
#0361a:0000000000130000
#0371b:0000000000130013
#03712:00000013
#03715:00000000000000000000000000130013
#0371a:14
#03718:00001400000000000000000000000013
#03716:1300000000130000
#03714:0013000000000000
#0381b:00001300130013000000001300000000
#03818:00000000000000130000000000000000
#03812:00000013000000000000130013001300
#03815:00000000000000000000000000000013
#03912:00000013000000000000130000000013
#03915:00000013
#03918:00000000000000130000000000001300
#0391b:00001300130013000000000000000013
#04112:000013001300001300000000142c0000
#04116:0000000000000014
#0411a:00000000000000000000000000000014
#04117:00000013000000000000000000000000
#04115:0000001300000000
#04118:0000000000130000
#0421b:0013130000001300
#04215:00000000000013130000000000000000
#04212:2c132c13
#04218:0000000000000013
#04210:41
#04315:00001300000000130000000000000000
#04318:26000013000013002600130000000000
#04316:00000000000000000000000000141400
#04312:23262326
#0431b:00230023
#04415:00001300000000000000001300000013
#04416:0000001300000000
#04417:0000000000130000
#04418:00000013000000130000000000001300
#04414:00000000001300000000000000000000
#04419:00000000000000000013000000000000
#04412:23232323
#0441b:23232323
#04518:0013131300000000
#0451a:0000000000140000
#04512:23000000000000002300001400000000
#0451c:00000000000000000000000000120000
#04519:0000000000000012
#04516:00000000000000000000242400000012
#04515:0013001313000000
#0451b:23230000
#04613:12
#04616:00120000000000000012000000000000
#04619:0012000000000000
#0461c:00000012000012000000000000000000
#04612:00000000120000000000001200001200
#04618:00000000000000001200001200000000
#04614:0000000000120000
#04812:14001300000000000000001300000013
#04818:00001313000000000013000000000000
#04815:0000130000130000
#04816:00000000000014000000001400140014
#0481b:00000000000000001300000000130000
#0481a:24
#04810:41
#04915:1300130000000000000000000000001300000000130000000000000013000000
#04918:00001300000000001300001300000013
#04912:00000013000000000013000000130000
#0491b:00000000001300130000000013000000
#0501b:13000000000000000000001300000000
#05015:00001300000000000013000000130000
#05018:00130000000000000000130000130013
#05016:00000000001400000000000000000000
#0501a:00000000001414000000000000000000
#05012:00000013000000000000001300000013
#05112:00000000001300000000001400000000
#05118:00001313000000130000000000000000
#05115:13130000000000001300000000000000
#05116:00000000000000000000141400001400
#0511b:00000000001300000000000000000000
#01817:00000017130000000000000000000000
#01816:00000000000013000033330000000014
#01812:13330000003300171300000000000000
#0181b:00001300000000000000001300000000
#02318:0000130026000000000000000000260013000000160000130000160000000000
#02312:00000000000026000016000000001600
#02315:0000000000001300290000000000001300000000000013001300000000000000
#0231b:23
#0271a:00140000240000000024000000000014
#02712:24280000001400002428000000001400
#02716:00000000002800000000000014000000
#02916:00000000000000000000000000002414
#02918:0000000000230000
#02915:00000000000000000000002300000000
#0291b:00000000000000000000000023002323
#02912:23000023
#0291f:00000000000000000000000000000021
#0471c:1212
#04718:1212000012000012
#04714:0012000000000000
#0471a:00120000
#04716:00000000120012000000121200002200
#04712:0000001200320000
#0021c:12000000000000001200000000000012
#00214:00001212000000000000000000120000
#00218:00000000001200000000000000000000
#00216:0000001200000000
#0021a:00000012000000000000121200000000
#00212:0012
#00217:00000000000000000000001200120000
#01416:00000014000014000000000000130014
#01412:1313000013000000
#0141b:23000000001300001300131300000000
#01417:00000000000000000000001300000000
#03412:0000000013000000130000000000000000140000000000000000000013000000
#0341a:0014000000000000000000000000000000000000000000000000000000000000
#03416:00000000000014140000000000000000
#0341b:00000000000013130000130013000000
#03417:0000000000000013
#04017:00000013000000000000000000000000
#04016:00000000000000000000001300000000
#04012:00001300130000130000000000000000
#0401b:00000000000000000000130013000013
#04015:0000001300000000
#04018:0000000000000013
#0521a:14
#05215:00001313000000000013000000000000
#05218:0000130000130000
#05216:00000000000014000000001400140014
#0521b:00001300000000000000001300000013
#05212:24000000000000001300000000130000
#05318:1300130000000000000000000000001300000000130000000000000013000000
#05315:00001300000000001300001300000013
#0531b:00000013000000000013000000130000
#05312:00000000001300130000000013000000
#05412:13000000001414000000001300000000
#05418:00001300000000000013000000130000
#05415:00130000000000000000130000130013
#05416:00000000001400000000000000000000
#0541b:00000013000000000000001300000013
#0551b:00000000001300000000000000130000
#05515:00001313000000130000001300000000
#05518:13130000000000001300130000000000
#05512:00000000001300000000000000000000
#05516:00000000000000000000000000000022
#02612:1212000012120000
#02614:00160012001200000016001200120000
#02616:0000161200001612
#02618:00000000000000160000000000000016
#05618:22
#00156:00000000000000000000005200000000
#0045b:00000000000000000000001300000000
#00557:00000000000000000000001200000000
#0055b:00000000000000000000001300000000
#00552:0052
#01358:0000000000000013
#01356:00000034000000000000000000000000
#01852:5363
#0185b:00000000000000000000001300000000
#01856:00000000000000000000001300000000
#01857:00530000
#02156:00000000000000000000001200000000
#0215c:0052
#02152:6c
#0225c:0052
#02252:00000000000000000000000000530000
#02256:0000000000000000000000000000000000000000000000000000000000230000
#02456:00360000000000000036000000000000
#02454:00360036
#02452:00000000000000360000000000000036
#02556:00360000000000000000480000000000
#02552:00000000000000360000000000380000
#02554:00360000
#02858:00120000000000000000000000000000
#02852:00120000
#0285c:00000000000000120000000000120000
#02856:0000000000120000
#03056:00000000140000640000000014000000
#03052:0024000000000000000000000000130000000000000000000000000000000000
#0305a:0000000000000000000000000000000000240000000000000000000000000000
#02956:00000000000000001400000000000054
#02952:0013
#0295b:00000000000000000000000000000013
#03252:00001300000000530000000000000000
#0325b:13
#03257:0000000000000000000000000000000000000023000000000000000000000000
#03552:00000000000000000053000000000000
#03556:00340000440000340053000000000000
#03755:00000000000000000000000000000053
#03756:0000003300000000
#0375a:00000000000000440000000000000000
#03858:00000000000000530000000000000000
#03852:00000023000000000000000000000000
#0385b:00000000000000000000002300000000
#03855:00000000000000000000000000000053
#04652:00520000
#04658:00000000000000000000005200000000
#0485a:14
#04856:00000000000000000000001400140014
#04952:00000053000000000000000000000000
#05152:00000000000000000000001400000000
#05156:00000000000000000000005400000000
#0515a:0000000000000014
#00757:53
#00752:53
#0075b:0063
#00756:0063
#00956:0052
#0105b:0053
#01152:0033
#0115b:00000043
#01252:33
#01256:00000034000044000000005300000000
#01257:00000000000000000000000000530000
#01456:00000044000034000000000000630000
#01457:00000000000000000000006300000000
#0145b:43
#01556:00000044000000000000000000000000
#01657:00000000000000006200001200000000
#0165c:00000000000000000000001200000000
#0175a:00000014000000000000000000000000
#01756:00000000000000000000001400000000
#02052:005c
#02358:0000000000460000
#02352:0000000000000036
#0275a:00440000000000000044000000000000
#02752:00000000003400000000000000000000
#03156:00440000340000440000000000000000
#0335b:13000000000000430000000000000000
#03352:00001300000000330000000000000013
#03355:00000000001600000000000000000000
#03356:00000000000000000000000000000064
#0345a:0024000000000000000000000000000000000000000000000000000000000000
#03456:00000000140000540000000014000000
#03452:0000000000000000000000000000000000240000000000000000000000000000
#0345b:00000000000000130000000000000000
#03952:00000023000000000000000000000000
#03958:00000000000000530000000000000000
#0395b:00000000000000000000000000000053
#04057:00000023000000000000000000000000
#04056:00000000000000000000002300000000
#04052:00000000000000630000000000000000
#0405b:00000000000000000000000000000053
#04157:00000023000000000000000000000000
#04152:00000000000000530000000000000000
#04252:3c4c
#04358:4646
#04352:00360036
#04758:0052
#0505a:0000005400000000
#05056:00000000005400000000000000000000
#05052:00000000000000000000001300000000
#05055:00000000000000000000000000130000
#05058:00000000000000000000000000000013
#05256:00000000000000000000001400140014
#05252:14
#0535b:00000063000000000000000000000000
#05456:00000000006400000000000000000000
#05452:0000006400000000
#0545b:00000000000000000000001300000000
#05458:00000000000000000000000000130000
#05455:00000000000000000000000000000013
#05555:00000000000000000000005300000000
#0555b:00000000000000000000000000230000
#01952:00000014000000000000000000000000
#01956:00000000000000000000001400000000
#02654:00460000000000000046000000000000
#02656:00460046
#02658:00000000000000460000000000000046
#001360:00000000000000000000001200000000
#002320:22
#005320:0012
#005370:00000000000000000000002200000000
#007320:13333300000000000000000000000000
#0073b0:00000023000000000000000000000000
#007371:13
#007381:00000023000000000000000000000000
#0073b1:00000000000000001333330000000000
#007321:00000000000000000000002300000000
#007360:0013
#007350:00000000000000000000002300000000
#008320:00000012002200000000000000000000
#0083a0:00000000000000000000001200220000
#009360:00000012002200000000000000000000
#009360:0012
#009320:00000000000000000000002200000000
#0103b0:0013
#010360:00000000000000000000332300000000
#012360:00000000000000000000001300000000
#0123b0:00000000000000000000000000230000
#012371:00000000000000000000000000130000
#012321:00000000000000000000000000000023
#014371:00000000000000000000001300000000
#014321:00000000000000000000000000230000
#014360:00000000000000000000000000130000
#0143b0:00000000000000000000000000000023
#016370:0012
#0163c0:00000000000000000032322200000000
#0163a0:00000000000000000000000000142400
#016321:00000000000000000000000000001424
#017321:12003222000000000000000000000000
#017321:00000000001424000000000000000000
#017360:00000000000014240000000000000000
#0173c0:00000000000000001200322200000000
#018320:13330000000000000000000000000000
#018370:0023000000000000
#018370:00130000
#018320:00000000003323000000000000000000
#018320:0013
#018360:00000000000000000033332300000000
#018320:00000000000000000000000000142400
#0183a1:00000000000000000000000000001424
#0193c1:12003222000000000000000000000000
#0193a1:00000000001424000000000000000000
#019360:00000000000014240000000000000000
#019320:00000000000000001200322200000000
#020320:00000000000000001c00322200000000
#021320:1c
#0213c0:00003222000000000000000000000000
#0213c0:0012
#021360:00000000000000000000002200000000
#0223c0:0012
#022370:00000000000000000000002200000000
#022320:00000000000000000000000000130033
#022360:0000000000000000000000000000000000000000000000000000000000530000
#023320:23
#029320:13000000000000533c0000003c530000000000533c000000000000003c5300002300000000000000000000000000000000000000000000000000000000000000
#0293b0:00000000000000000053005300000000000000000053000000000053000000000000000000000000000000000000000000000000000000000000000000000000
#029361:1424
#029361:00000000000000000000000000000014
#030321:0054000000000000000000000000000000000000000000000000000000000000
#030361:0034240000000000
#030361:00000000000000140000340024000000
#0303a1:0000000000000000000000000000000000540000000000000000000000000000
#032321:00000000000000130000000033002300
#032371:0000000000000000000000000000000000000053000000000000000000000000
#033361:00000000000000000000000000000014
#0343a1:0054000000000000000000000000000000000000000000000000000000000000
#034361:0034240000000000
#034361:00000000000000140000340024000000
#034321:0000000000000000000000000000000000540000000000000000000000000000
#035361:00000000000000000013000000000000
#0353b1:00000023
#035320:00000000000000000013000000000000
#035370:00000023
#037320:00130000
#037360:00000000005323000000000000000000
#037361:00140000
#0373a1:00000000005400240000000000000000
#037351:00000000000000000000000000000013
#038321:00000053000000000000000000000000
#038351:00000000000000230000000000000000
#038380:00000000000000130000000000000023
#0383b0:00000000000000000000005300000000
#038351:00000000000000000000000000000013
#039321:00000053000000000000000000000000
#039351:00000000000000230000000000000000
#039380:00000000000000130000000000000000
#0393b0:0000000000230000
#0393b0:00000000000000000000000000000013
#040370:00000053000000000000000000000000
#0403b0:00000000000000230000000000000000
#040321:00000000000000130000000000000023
#040361:00000000000000000000005300000000
#0403b0:00000000000000000000000000000013
#041370:00000053000000000000000000000000
#0413b0:00000000000000230000000000000000
#041321:00000000000000130000000000000000
#041351:0000000000230000
#046321:00120000
#046361:0022
#046381:00000000000000000000001200000000
#0463c1:0000000000000022
#047381:0012
#047321:00000000000000000000322200000000
#048321:00000000001323000000000000000000
#049321:00000013000000000000000000000000
#049371:00000000002300000000000000000000
#050361:00000000001400000000000000000000
#050321:00000000000000542400000000000000
#0503a0:0000001400000000
#050360:0024
#051360:00000000000000000000001400000000
#0513a0:0000000000000024
#0523b0:00000000001323000000000000000000
#0533b0:00000013000000000000000000000000
#053360:00000000002300000000000000000000
#054360:00000000001400000000000000000000
#0543a0:00000000000000542400000000000000
#054321:0000001400000000
#054361:0024
#055351:00000000000000000000001300000000
#055321:00000000000000000000000000230000
#0553b0:00000000000000000000000000130000
#055380:00000000000000000000000000000023
