This file was generated by Ched 2.7.0.0.
#TITLE ""
#ARTIST ""
#DESIGNER ""
#DIFFICULTY 0
#PLAYLEVEL
#SONGID ""
#WAVE ""
#WAVEOFFSET 0
#JACKET ""
#REQUEST "ticks_per_beat 480"
#00002: 4
#BPM01: 121
#00008: 01
#TIL00: ""
#VOLUME: ""
#HISPEED 00
#MEASUREHS 00
#0001a:14
#00014:0014
#0011a:14
#00114:0014
#00218:14
#00212:0014
#00318:14
#00312:0014
#0041a:1414
#00414:00140000
#00410:41
#00512:1414
#00518:00140000
#0061a:1414
#00614:00140000
#00712:1414
#00718:00140000
#0081a:14
#00814:00140000
#00912:14
#00918:00140000
#0101a:14
#01014:00140000
#01112:14
#01118:00140000
#0121a:14
#01214:0014
#01210:41
#01318:14
#01312:0014
#01418:14
#01412:0014
#01518:14
#01514:0014
#0161a:1414
#01614:00140000
#01712:1414
#01718:00140000
#01818:1414
#01814:00140000
#01914:1414
#01918:00140000
#0201a:14
#02014:00140000
#02018:0014
#02012:00000014
#02010:41
#02212:14
#02218:00140000
#02214:0014
#0221a:00000014
#02914:0014
#02918:00000014
#0291f:00000000000000000000000000000021
#03114:14
#0311a:00140000
#03112:0014
#03118:00000014
#03518:14
#03512:00140000
#0351a:0014
#03514:00000014
#03812:14
#03814:00000014
#0401a:14
#04018:00000014
#04412:14
#04418:00140000
#04414:0014
#0441a:00000014
#0461a:14
#04614:00140000
#04618:0014
#04612:00000014
#04812:14
#04818:0014
#04810:41
#04912:14
#04918:0014
#05014:14
#0501a:0014
#05114:14
#0511a:0014
#05212:1414
#05218:00140000
#0531a:1414
#05314:00140000
#05412:1414
#05418:00140000
#0551a:1414
#05514:00000000140000000000000000000024
#0241f:11
#03012:24
#03010:00000041
#0341a:24
#04214:24
#04218:0024
#04210:41
#04313:2424
#04319:00240024
#05618:24
#02118:00343400
#02314:00343400
#02818:00000034000034000034000000000000
#04512:0034343400000000
#0471a:0034343400000000
#0405a:54
#04058:00000024
#03852:54
#03854:00000024
#03758:00000000000000140000000000000000
#02158:00000014
#02354:00000014
#008380:00001424
#009340:00001424
#010380:00001424
#011340:00001424
#0213a0:14
#021380:00343424
#023320:14
#023340:00343424
#0243a0:14
#024380:00240000
#024340:0014
#024320:00000024
#025320:14
#025340:00240000
#025380:0014
#0253a0:00000024
#026320:14
#026340:00240000
#026380:0014
#0263a0:00000024
#0273a0:14
#027380:00240000
#027340:0014
#027320:00000024
#0283a0:14
#028380:00000034000034000034000024000000
#030320:14240000
#030380:00001424
#032340:14
#032320:00240000
#032380:0014
#0323a0:00000024
#033320:14
#033340:00342400
#0343a0:14240000
#034340:00001424
#036380:14
#0363a0:00240000
#036340:0014
#036320:00000024
#0373a0:14
#037390:0034000000000000
#037380:00000000340000240000000000000000
#038320:14
#038340:00000054
#039320:0024
#0403a0:14
#040380:00000054
#0413a0:0024
#045320:1434343400000000
#045340:00000000000000003400002400000000
#0473a0:1434343400000000
#047380:00000000000000003400002400000000
