This file was generated by Ched 2.7.0.0.
#TITLE ""
#ARTIST ""
#DESIGNER ""
#DIFFICULTY 0
#PLAYLEVEL
#SONGID ""
#WAVE ""
#WAVEOFFSET 0
#JACKET ""
#REQUEST "ticks_per_beat 480"
#00002: 4
#BPM01: 200
#00008: 01
#TIL00: ""
#VOLUME: ""
#HISPEED 00
#MEASUREHS 00
#0151a:14
#02112:14
#03912:0016
#03918:26
#03910:41
#0131a:14
#01310:41
#04018:16
#04012:0016
#04118:16
#04112:0016
#04318:0016
#04312:16
#04412:16
#01414:14
#03812:0014
#0041a:000000000000000000000014
#0061a:14
#00614:000000000000000000000014
#00814:14
#00818:000000000000000000000014
#01018:14
#01012:000000000000000000000014
#01212:14
#01812:14
#01818:000000000000000000000014
#02018:14
#0261a:14
#02614:000000000000000000000014
#02218:14
#02312:14
#02814:14
#08518:1616
#08612:1616
#08718:16
#08712:0016
#08912:1616
#09018:16
#07712:2616
#0771f:21
#07818:1616
#07810:000000000000000000000041
#07912:16
#07918:0016
#08118:1616
#08212:16
#05618:0016
#05612:000000000000000000000014
#04718:0016
#04712:16
#04812:1616
#04918:16
#04912:0016
#05118:0016
#05112:16
#05212:16
#10112:0016
#10118:26
#10110:41
#10218:16
#10212:0016
#10412:0016
#10518:1616
#10612:16
#11414:14
#1141a:000000000000000000000014
#1161a:14
#11612:000000000000000000000014
#11812:14
#11818:000000000000000000000014
#0611f:11
#0591a:000000000034000000000034
#0941a:000000000000000000000034
#0931a:000000000000000000000034
#09912:000000000034000000000034
#09712:000000000000000000000034
#02910:41
#11210:000000000000000000000041
#0003a0:1424
#001320:140000000000340000000034
#002320:000000000000000000000024
#0163a0:140000000000340000000024
#024320:140000000000340000000024
#0293a0:1434
#0303a0:340000000024000000000000
#031340:1434
#032340:340000000024000000000000
#033380:1434
#034380:340000000024000000000000
#035320:14
#036320:24
#0373a0:14
#0383a0:24
#042380:1626
#044380:000000000000160000000036
#045380:000000000036000000000036
#046380:0026
#050380:1626
#052380:000000000000160000000036
#053380:000000000036000000000036
#054380:0026
#054320:000000000000000000000016
#055320:000000000036000000000026
#0583a0:140000000000340000000034
#0593a0:000000000034000000000034
#060380:000000000024000000000000
#061320:14
#062320:24
#063380:14
#064380:24
#065340:14
#066340:24
#0673a0:14
#0683a0:24
#069320:14
#070320:24
#071380:14
#072380:24
#073340:14
#074340:24
#0753a0:14
#0763a0:24
#080320:1626
#082320:000000000000160000000036
#083320:000000000036000000000036
#084320:0026
#088380:1626
#090320:000000000000160000000036
#091320:000000000036000000000036
#092320:0026
#0933a0:140000000000000000000034
#0943a0:000000000000000000000034
#096380:24
#097320:140000000000000000000034
#098340:000000000000000000000034
#099320:000000000034000000000034
#100320:0024
#103380:1636
#104380:26
#106380:000000000000160000000036
#107380:000000000036000000000036
#108380:0026
#108320:000000000000000000000016
#109320:000000000036000000000036
#110320:000000000000000000000036
#112340:000000000000000000000024
#120380:1424
