This file was generated by Ched 2.7.0.0.
#TITLE ""
#ARTIST ""
#DESIGNER ""
#DIFFICULTY 0
#PLAYLEVEL
#SONGID ""
#WAVE ""
#WAVEOFFSET 0
#JACKET ""
#REQUEST "ticks_per_beat 480"
#00002: 4
#BPM01: 200
#00008: 01
#TIL00: ""
#VOLUME: ""
#HISPEED 00
#MEASUREHS 00
#00014:12
#00018:001200000000000000260000
#00016:001200000000
#00012:0026
#0011b:130000000000000000000023
#00115:000000000013000013000000
#00118:000013000000260000130000
#00112:260000000000000000000026
#00216:0014
#00212:000000000000000000000016
#00217:000000330033000033330000
#00416:000000000000000000000012000000000000000000000000
#00418:000000000000000000000012000000000000000000000000
#00412:000000000000000000000024
#0041a:000000000000000000000024
#00314:000000120000000000120013
#00319:000000000000000000000013
#00318:001200001200
#0031a:0012
#00316:000000000012000000000000
#00517:00140000
#00512:00140000
#00513:0014
#00518:0014
#00514:00000014
#00519:00000014
#0061a:140000000000000000000000000000000000001400000000
#00616:000000142400
#00612:000000000000000000000024
#00615:24
#00715:00140000
#0071a:00140000
#00719:0014
#00714:0014
#00718:00000014
#00713:00000014
#00812:140000000000000000000000000000000000001400000000
#00816:000000142400
#0081a:000000000000000000000024
#00817:24
#00917:00140000
#00912:00140000
#00913:0014
#00918:0014
#00914:00000014
#00919:00000014
#01015:14
#01012:000000000000140014000024
#0101a:240000000000000000000000000000000000001400000000
#01016:000024
#01316:000000131300
#0131b:00000013
#01312:00130000
#0131a:24
#01310:41
#01417:00131300
#01412:000000000013000000000000
#0141b:000013
#01416:00000013
#0151b:000000131300
#01516:23000013
#01518:000000000000000000000016
#01615:000016000000000000000024
#01612:000000000016000013000000
#0161b:0013
#01617:000013
#0161a:000000000000000000000024
#01712:00140000
#01717:00140000
#01718:0014
#01719:00000014
#01713:0014
#01714:00000014
#0181a:140000000000000000000000000000000000001400000000
#01816:000000142400
#01812:000000000000000014000024
#01815:24
#0191a:00140000
#01915:00140000
#01914:0014
#01913:00000014
#01919:0014
#01918:00000014
#02012:14
#02016:000000142400
#0201a:000014
#02017:24
#0211b:00001313
#02116:140000130013000013000000
#02112:000000000000000000000013
#02217:131300000000
#02212:00130000
#02216:0000000013130000
#02215:0000000000000000000000000000000000130013001300130000000000000000
#02214:00000000000000000013001300000000
#0221b:0000000013130000
#0221a:0000000000000000000000000000000000130013001300130000000000000000
#02219:00000000000000000013001300000000
#02312:00001313
#02317:000000130013000013000000
#0231b:130000000000000000000013
#02316:13
#02415:1313
#02418:0013
#0241b:0000000000000000000000000000000000000000000033133300000000000000
#02412:0000000013000000000000000000000000000000000033133300000000000000
#02512:00140000
#02517:00140000
#02518:0014
#02519:00000014
#02513:0014
#02514:00000014
#02615:14
#02612:000000142400
#02616:000000000000000000000000000000001400001400000000
#0261a:240000000000000000000024
#02715:00140000
#02714:0014
#02713:00000014
#02719:0014
#02718:00000014
#0271a:00140000
#02817:14
#0281a:000000142400
#02816:000014
#02812:24
#02912:13
#02916:0013
#0291b:0013
#02910:41
#0311b:13
#03117:00130013
#03116:2313
#03112:00130013
#03016:000000000013000000000000
#0301b:000000000013000000000000
#03017:13
#03212:000000000013000000000000
#03217:000000000013000000000000
#03216:000000000000001300000000
#0321b:000000000000001300000000
#0331b:1300000000000013
#03319:0013
#03317:0000001300000000
#03314:0013
#03312:0000000000000013
#03316:23
#03512:12
#03518:120000000000000000000012
#0351c:000000120012000000000000
#03516:000000000012000000000000
#03718:00120012
#0371c:1212
#03712:00120012
#03716:0012
#03616:000000000000000000000012
#03612:12
#03816:12
#03817:0022
#0381c:0022
#03916:140014000014000014000000
#0391a:000000000000140000000014
#03912:240000000000000000140014
#03910:41
#04016:001400000000000013000000
#04012:000000000000130000000023
#04017:000000000013000000000000
#0401b:00130000
#04116:00130013
#04117:000000000013000000000013
#04112:000000000000130000000023
#0411b:001300001300
#0421b:001300000000130000000000
#04217:000013
#04212:00130013
#04517:333313333333000000000033333313333333000000000000
#04514:000000000016000000000000
#04512:000000140000000000160018
#0451b:000000000023000000000000
#0451a:000000000000000000000024
#04516:000000000000000000000000000000000000000000000034
#04616:343434343414343434343434000000000000000000000000
#04612:00001813
#04617:00000013
#0471a:140000000000000000140014
#04712:000014000000140000000014
#04716:240000000014000014000000
#04816:001400000013000000000000
#04817:000013
#0481b:000000000000130000000023
#04812:00130000
#0491b:000000000013000000000013
#04914:0013
#04919:000013
#04912:00000013
#04916:000000130000000000000023
#04917:001300000000000000000000
#05112:140000000014000000000014
#0511a:000014000000000014000014
#05116:24001414
#05217:000000000013000000000000
#05216:000014000000000000000000000000000000130000001433
#05212:000000000000130000000023
#0521b:000000130000000013000000
#05316:333313333333000000001633333313333333000000001834
#0531a:00140000
#05318:00000016
#05312:000000000023000000000024
#05416:343434343414343434343434180000000000000000001400
#05412:00000014
#0541a:00140014
#0541b:000000000000000000000023
#05417:000000000000000000000000000000000000000000000033
#05016:000013
#0501b:00000013
#05017:00130000
#05014:000000000013000000000000
#05012:001300000000
#05019:0013
#05517:333313333333000000000033333313333333000000000000
#05514:000000000016000000000000
#05512:000000140000000000160018
#0551b:000000000023000000000000
#0551a:000000000000000000000024
#05516:000000000000000000000000000000000000000000000034
#05616:343434340000000014000000000000000000000000000000
#05612:000014000000000000000024
#0561a:000000000000140000000024
#0571a:00140000
#05715:001400000000
#05714:000000000014000000000000
#05713:000014
#05719:0014
#05718:00000014
#05712:000000000000000000000014
#05812:000000000014000000000016
#05816:000000000000000000000000000000001400001400000000
#0581a:001400002400
#05817:2414
#05815:00140000
#05818:000000000000000000000026
#05912:001500000000
#05917:00150000
#0591a:000014
#05915:00000014
#05913:000000000025000000000000
#05918:000000000000000000000024
#06012:001300000000
#06017:00130000
#0601b:000000000013333333333333
#06015:000000000023000000000000
#06312:00001212
#06318:000012
#0631c:000000000000000000000012
#0681c:000000000012000000000000
#06816:00120000
#07416:000000000000000012000012
#07418:00121200
#07412:000000000012000000000000
#0741c:00000012
#07518:0012
#07512:000000000000000000000012
#07712:240000000000140000000014
#0771a:000014000000000000140014
#07716:141400000000
#0771f:21
#07914:000000000013000000000000
#07919:0013
#07916:000013
#0791b:00000013
#07912:000013130000000000000013
#07917:000000000000000000000023
#08316:333313333333000000001633333313333333000000001834
#08318:00000016
#0831a:00140000
#08312:000000000023000000000024
#08416:343434343414343434343434180000000000000000000000
#08412:00000014
#08417:00000014
#0841a:00140000
#07616:0000000000130000
#0851a:240000000000140000000014
#08516:141400000000
#08512:000014000000000000140014
#0861b:000000000013000000000000
#08612:000000000000000013000023
#08616:001400000000230000000000
#08617:00230023
#08719:000000000013000000000000
#08714:0013
#08717:000013
#08712:00000013
#0871b:000013130000000000000013
#08716:000000000000000000000023
#09117:333313333333000000000033333313333333000000000000
#09112:000000140000000000160018
#09114:000000000016000000000000
#0911b:000000000023000000000000
#0911a:000000000000000000000024
#09116:000000000000000000000000000000000000000000000034
#09212:000000140000240014000000
#09216:343434343434343434343434000014000000000014000000
#0921a:000000000000000000240014
#09316:000000130000000000000024
#0931b:001300000000
#09317:000013
#09319:000000000013000000000000
#09314:0014
#09312:24
#09412:000000000013230000000014
#0941b:000000230000000013230000
#09416:00130013
#09417:0013
#09418:000000000000000000000026
#09512:0014
#0951b:000000000000000000000013000000000000000000000000
#09516:000000240000000014240000
#09612:2613
#0961a:0014
#09616:000000240000000014240000
#09712:001300000000
#09716:000000000000000013000024
#09714:000000000013000000000000
#09717:00130000
#09718:0014
#0971a:24
#09816:000000000013130000000000
#09817:000000130000000013130000
#0981b:000000000000230000000013
#09812:000000230000000000230027
#09917:00130000
#09916:0013
#09912:000000000000000000130027
#0991b:000000000000230000000013
#10017:00130000
#10016:000000000000001400001400
#10012:000000000000000000240014
#1001a:000000241400
#1011a:000000000014000000000024
#10115:0014
#10112:000016000000000000140024
#10117:000014
#10118:26
#10110:41
#1021a:00241400
#10217:000000000000000014240000
#10215:000000000014240000000000
#10212:000000000000000000140024
#10216:001400000000000000000000
#10312:000000000014000000000000
#1031a:000014140000000014000024
#10316:00002424
#10412:000000140000000014000000
#10416:00000014
#1041a:0014
#10717:333313333333000000000033333313333333000000000000
#10714:000000000016000000000000
#10712:000000140000000000140018
#1071b:000000000023000000000000
#1071a:000000000000000000000024
#10716:000000000000000000000000000000000000000000000034
#10812:000000140000000014000023
#10815:0014
#10817:000000000000001400000000
#1081a:000000000014000000140000
#10816:343434343434000000000000000000000000000000001433
#11016:343434343434000014000000000014000000000014000000
#1101a:000000240014000000240014
#11012:000000241400
#11116:000034340034000000000014
#11217:0000000000120000
#11212:000000000000000000000024
#1121a:000000000000000000000024
#11210:000000000000000000000041
#03416:000000000013000000000000
#03414:13
#03412:000000000000001300000000
#03417:000000000000001300000000
#0341b:000000000013000000000000
#04316:140014000000140000140000
#0431a:240000000014000000000014
#04312:000000000000000014000014
#04416:001400000013000000000014
#04412:000000130000000013000000
#0441b:000000000000130000000023
#04417:000000000000000000000000000000000000130000000033
#06112:12121200
#06116:000000000000000000000000000000000012000000000000
#06118:00120000
#0611f:11
#06117:000000000000000032320000
#06216:00001212
#0621c:000000000000000012000012
#06416:001200000000
#0641c:00120000
#06414:000000000012000000000000
#0641a:0012
#06412:000012
#06618:00001212
#06612:000000000000000012000012
#0651c:00121200
#06518:000000000000000000000000000000000012000000000000
#06516:12120000
#06517:000000000000000032320000
#06718:120000000000000000000012
#0671c:00120000
#06716:0012
#06712:000000000000000000000000000000000012000000000000
#06912:12
#0691a:00120000
#06918:000000000000000000000000000000000012000000000000
#0691c:0012
#06916:0012
#06917:000000000000000032320000
#07016:00121200
#0701c:000000000012000000000000
#07018:000012
#07012:00000012
#07112:001200120000
#07118:000000120012000000000000
#07116:000000000000000000000000000000000012000000000000
#07117:000000000000000032320000
#07218:000012120000000000000000
#07212:000000000012000000000000
#0731c:12
#07314:00120000
#07316:000000000000000000000000000000000012000000000000
#07312:0012
#07318:0012
#07317:000000000000000032320000
#0801b:000013130000000000000000
#08019:000000000013000000000000
#08014:0013
#08017:000013
#08012:00000014
#08116:000014000000140000140000
#08112:000014000000000000000014
#0811a:240000000000000000000014
#08916:000014000000140000140000
#0891a:000014000000000000000014
#08912:240000000000000000000014
#09017:000000000000000000001300000000000000000000000033
#09016:001400000000000013000014
#0901b:000000000000000000230023
#09012:00232300
#10512:260000000014000000000024
#10517:0014
#10515:000014
#10518:001600000000
#1051a:000000000000000000140024
#10612:000000240000000014140000
#1061a:000000000014140000000000
#10616:001400000000000000000014
#1061b:000000000000000000000023
#10615:0024
#10617:000000000000000000000000000000000000240000000033
#01115:00140000
#0111a:00140000
#01119:0014
#01114:0014
#01118:00000014
#01113:00000014
#01217:14
#0121a:000000141400
#01212:24
#01216:000024
#08812:000013130000000000000000
#08814:000000000013000000000000
#08819:0013
#08816:000013
#0881a:00000014
#1141a:000000000000000014000024
#11418:14
#11412:2413
#11416:000024
#11315:000000000014
#11316:001400000000001400000000
#11317:001400
#1131a:00241400
#11319:00000014
#11314:0024
#11313:00000024
#11612:000000000000000014000024
#11614:14
#1161b:0013
#11616:000024
#1161a:24
#1171b:000000001300001300000000
#11718:0013
#11717:00000013
#1171a:000000000014
#11716:001400000000000000000000
#11714:0024
#11713:00000024
#11719:00230000
#11816:140000141400
#11812:240024
#1181a:000000000000000000000024
#0781b:000000000000000013000023
#07812:000000000013000000000000
#07816:001400230000000000230000
#07817:0023
#07810:000000000000000000000041
#11916:001400000000000000130000
#11912:000000001300001300001400
#11915:0013
#11918:0024
#11919:00000024
#11914:00230000
#11516:001400000000001400000000
#11517:000000000014
#11515:001400
#11512:00241400
#11513:00000014
#11518:0024
#11519:00000024
#12016:14
#1201a:240024
#12017:0024
#12015:000024
#08217:000013
#08216:000014000000000000001300000000000000000000001433
#08212:000000230000000000230023
#0821b:0023
#10916:333313333333000000001633333313333333000000001834
#1091a:00140014
#10912:000000000023000000000024
#00052:0036
#00058:00000046
#00152:360000000000000000000036
#00158:0046
#0015b:000000000000000000000063
#00256:0024
#00258:000000000000000000000046
#00252:000000000000000000000036
#00452:000000000000000000000034
#0045a:000000000000000000000044
#00456:000000000000000000000022000000000000000000000000
#00458:000000000000000000000022000000000000000000000000
#00354:000000000000000000000063
#00359:000000000000000000000063
#00557:00440000
#00558:0044
#00559:00000044
#0065a:440000000000000000000000000000000000002400000000
#00652:000000000000140000000034
#00656:000000000000000054000014
#00655:54
#00755:00340000
#00754:0034
#00753:00000034
#00852:340000000000000000000000000000000000002400000000
#0085a:000000000000140000000044
#00856:000000000000000054000014
#00857:54
#0105a:540000000000000000000000000000000000002400000000
#01056:000000000000140054000014
#01055:34
#01052:000000000000000000000034
#01352:14
#0135a:14
#0165b:0063
#01657:000053
#01652:000053
#0165a:000000000000000000000014
#01655:000000000000000000000014
#01759:00000044
#01757:00440000
#01758:0044
#0185a:440000000000000000000000000000000000002400000000
#01855:54
#01852:000000000000140000000034
#01856:000000000000000054000014
#01953:00000034
#01954:0034
#01955:00340000
#02052:34
#02057:64
#0205a:0014
#02056:000054
#02152:14
#02156:64
#0215b:0013
#02252:00630000
#02255:0000000000000000000000000000000000630063006300630000000000000000
#02256:0000000023230000
#02254:00000000000000000023002300000000
#0225b:0000000023230000
#0225a:0000000000000000000000000000000000630063006300630000000000000000
#02259:00000000000000000023002300000000
#02356:63
#0235b:13
#02352:0013
#02452:0000000023000000000000000000000000000000000000230000000000000000
#0245b:0000000000000000000000000000000000000000000000230000000000000000
#02455:63000000000000006300000000000013
#02458:00000000000000006300000000000013
#02656:000000000000000000000000140000000000002400000000
#0265a:540000000000000000000044
#02655:34
#02652:000000000000000054000034
#02956:1463
#02952:63
#0295b:0063
#02857:44
#02852:64
#02856:0014
#0285a:000064
#03052:13000013
#03056:000000000063000000000000
#0305b:000000000063000000000000
#03057:63000013
#0315b:6313
#03157:00630063
#03152:00630063
#03156:1363
#03252:000000000063000000330000
#03257:000000000063000000330000
#03256:130000000000002300000000
#0325b:130000000000002300000000
#0335b:5300000000000023
#03359:0053
#03356:13
#03357:0000002300000000
#03352:0000000000000023
#03354:0053
#03459:13
#03456:000000000053000000430000
#03454:53
#03457:000000000000002300000000
#03452:000000000000002300000000
#0345b:000000000063000000430000
#03552:62
#03556:000000000062000000000000
#0355c:000000000062000000000000
#03558:000000000000000000000062
#0375c:5262
#03758:00620022
#03856:12
#0385c:1222
#03852:00000032
#03857:00002232
#03956:641400000000
#0395a:000000000000140000000044
#03952:000000000000000000140064
#04152:000000000000000000000013
#04156:00000063
#04157:000000000000000000000053
#0425b:002300000000000000000000
#04252:00630013
#04256:0013
#04656:000000000024000000000000000000000000000000000000
#04557:002300000000002300000000
#0455a:000000000000000000000064
#0455b:000000000063000000000000
#04554:000000000036000000000000
#04552:000000000000000000000038
#0475a:540000000000000000140054
#04756:001400000000
#04752:000000000000140000000034
#04952:00000053
#04956:000000000000000000000013
#04957:002300000000000000000000
#0495b:000000000000000000000013
#05152:640000000000000000000064
#05156:000014000000140000140000
#0515a:000000000000000000000044
#05356:002300000046002300000048
#05352:000000000053000000000054
#05456:000000000024000000000000000000000000000000003400
#0545b:000000000000000000000063
#05256:002400000000000000130044
#05252:000000000000130000000053
#05557:002300000000002300000000
#05554:000000000036000000000000
#05552:000000000000000000000038
#0555b:000000000063000000000000
#0555a:000000000000000000000064
#05656:002400
#05652:005400340000
#0565a:0044
#0575a:00440000
#05759:0044
#05758:00000044
#05856:000000000000000000000000000000000000002400000000
#05858:000000000000000000000046
#0585a:000054
#05857:4414
#05953:000000000035000000000000
#05958:000000000000000000000044
#06055:000000000033000000000000
#0605b:000000000023000000000000
#07456:000000000000000000000052
#07558:0062
#07552:000000000000000000000052
#0795b:00000053
#07957:000000130000000000000013
#07952:000000000000000000000063
#07959:0013
#08356:002300000046002300000048
#08352:000000000053000000000054
#08456:000000000024000000000000000000000000000000000000
#08457:00000014
#08452:00000014
#07656:0000000000230000
#08752:00000063
#0875b:000000000000000000000053
#08756:000000130000000000000013
#08754:0013
#09157:002300000000002300000000
#0915b:000000000063000000000000
#0915a:000000000000000000000064
#09152:000000000000000000000038
#09154:000000000036000000000000
#0855a:140000000000140000000044
#08552:000014000000000000140054
#0955b:000000000000000000000023000000000000000000000000
#09652:6623
#09658:16
#0985b:000000000000000000000013
#09852:000000000000000000000057
#09956:0013
#0995b:000000000000230000000013
#09952:000000000000000000000057
#10155:0014
#10152:000016000000000000140064
#1015a:000000000014000000000044
#10157:000014
#10158:16
#10757:002300000000002300000000
#1075b:000000000063000000000000
#1075a:000000000000000000000064
#10754:000000000036000000000000
#10752:000000000000000000000038
#10452:00540000
#10456:00000014
#1045a:0014
#1065b:000000000000000000000063
#10656:002400000000000000000034
#10352:000000000000000000000014
#10356:00141464
#1035a:000000000000000000000064
#0905b:000000000000000000130063
#09052:0013
#09056:002400000000000000000034
#08252:000000130000000000130053
#0825b:0013
#08256:002400000000000000000044
#0445b:000000000000130000000063
#04456:002400000000000000000034
#04457:00000013
#10852:000000000000000000000053
#10856:000000000000000000000044
#1105a:000000000000000000000024
#1125a:000000000000000000000044
#11257:0000000000220000
#11252:000000000000000000000064
#11156:000000000000000000000064
#11452:340000000000000000000014
#11458:64
#11455:0014
#1145a:000000000000000000000054
#11456:000064
#03652:62
#02758:00000044
#02755:00340000
#02754:0034
#02554:00000034
#02557:00440000
#02558:0044
#04356:540014000000140000140000
#04352:000000000000000000000034
#0435a:000000000000000000000054
#0505b:00000013
#05057:00130000
#05059:0013
#06152:000000000000520000000032
#06156:000000000000000000000000000000000022000000000000
#0655c:000000000000620000000042
#06558:000000000000000000000000000000000022000000000000
#06752:000000000000000000000000000000000022000000000000
#0675c:00220000
#06756:0062
#06758:620000000000000000000062
#0695c:000000000000620000000042
#06958:000000000000000000000000000000000022000000000000
#07156:000000000000000000000000000000000022000000000000
#07152:000000000000520000000032
#07356:000000000000000000000000000000000022000000000000
#07352:000000000000520000000032
#0775a:000014000000000000140064
#07752:140000000000140000000034
#08152:000014000000000000000034
#0815a:140000000000000000000054
#08156:00001414
#0895a:000014000000000000000054
#08952:140000000000000000000034
#08956:00001414
#09356:000000000000000000000014
#09352:14
#09354:0014
#09458:000000000000000000000066
#09452:000000000000000000000014
#09756:000000000000000000000014
#09758:0014
#0975a:14
#10557:0014
#10558:001600000000
#10552:160000000014000000000034
#10555:000014
#1055a:000000000000000000140054
#00952:00340000
#00953:0034
#00954:00000034
#0115a:00440000
#01159:0044
#01158:00000044
#01257:44
#01252:64
#01256:000000145400
#10952:000000000053000000000054
#10956:002300000046002300000048
#11355:000000340000000000002400
#11354:0034
#11353:00000034
#11356:002400000000002400000000
#11357:002400
#1135a:00646400
#11359:00000064
#1165a:440000000000000000000014
#11652:000000000000000000000054
#11656:000064
#11654:54
#11657:0014
#11557:000000440000000000002400
#11556:002400000000002400000000
#11555:002400
#11552:00545400
#11553:00000054
#11558:0044
#11559:00000044
#11755:00340000
#11754:0034
#11753:00000034
#11758:0063
#11757:00000063
#1175a:000000000024
#1175b:000000002300002300000000
#11756:002400000000000000000000
#11759:00630000
#11852:340064
#11856:640000000000000000000014
#1185a:000000000000140000000064
#11958:0044
#11959:00000044
#11957:00440000
#11956:002400000000000000530000
#11952:000000002300002300002400
#11955:0053
#11954:00630000
#1205a:440064
#12056:54
#12052:0014
#12055:000064
#04052:000000000000000000000053
#04056:002400000000000000000000
#0485b:000000000000000000000053
#04856:002400000000000000000000
#07856:002400000000000000000013
#0785b:000000000000000000000053
#08652:000000000000000000000063
#08657:000000000000000000000013
#08656:002400000000000000000000
#08859:0013
#0885a:00000064
#08857:00130000
#10252:000000000000000000000064
#10256:002400000000000000000000
#08054:0013
#08052:00000064
#08056:00130000
#0635c:000000000000000000000012
#0003a0:00122200
#0013b0:000000000000000000000013
#002370:000000330033000033330000
#002360:0034
#002380:000000000000000000000026
#003340:000000000000000000000013
#004360:000000000000000000000052000000000000000000000000
#004320:000000000000000000000024
#003391:000000000000000000000013
#004381:000000000000000000000052000000000000000000000000
#0043a1:000000000000000000000024
#006351:14
#006321:005400240000
#006361:000000000000000014000024
#0063a1:000000000000000000000000000000000000005400000000
#008371:14
#0083a1:005400240000
#008361:000000000000000014000024
#008321:000000000000000000000000000000000000005400000000
#0103a1:14
#010361:005400240000
#010361:000000000000000014000024
#0103a1:000000000000000000000000000000000000005400000000
#012321:14
#012361:005400240000
#012361:000014
#012321:000000000054
#013321:24
#013371:00130000
#0133b1:0023
#013361:000000000000000000000013
#014321:00230000
#0153b1:13
#015371:00230000
#015320:00130000
#015360:0023
#0163b0:0013
#016370:000000000000005353000000
#0163a0:000000000000000000000000000000000000005400002400
#016321:000013
#016351:000000000000000000000000000000000000005400002400
#018351:14
#018321:005400240000
#018361:000000000000000014000024
#0183a1:000000000000000000000000000000000000005400000000
#020371:14
#0203a1:005400240000
#020361:000014
#020321:000000000054
#021321:24
#021360:14
#0213b0:00230000
#022320:00130000
#022360:0000000033532300
#022350:0000000000000000000000000000000000530053005300530000000000000000
#022340:00000000000000000053005300000000
#0223b1:0000000013532300
#0223a1:0000000000000000000000000000000000530053005300530000000000000000
#022391:00000000000000000053005300000000
#023361:13
#023321:00230000
#024351:13000000330000333300000000000023
#024321:0000000053000000000000000000000000000000000033533300000000000000
#024380:00000000130000333300000000000023
#0243b0:0000000000000000000000000000000000000000000033533300000000000000
#0263a0:14
#026360:005400240000
#026320:000000000000000014000024
#026360:000000000000000000000000000000000000005400000000
#028320:14
#028360:005400240000
#0283a0:000014
#028360:000000000054
#029360:24
#029321:1300000000530000
#029361:0053000033000000
#030321:23
#0293b0:0013
#029370:0000000000530000
#030370:330000000000000000000000005300000000230000000000
#0303b0:000000530000000000003300000000000000000000000000
#030361:000000000013000000000000
#030321:000000000000000000000000005300000000230000000000
#0313b1:1300005323000000
#031371:000000533300330000000000000000000000000000000000
#031320:000000000000130000000000000000533300330000000000
#031360:000000000000000000533300330000000000000000533300
#032360:23
#031371:00000013
#0313b1:000000000000000000000000000000000000000000533300
#0323b1:23
#032321:000000000013000000230000
#032361:000000000000005300000000
#032370:000000000013000000230000
#0323b0:000000000000005300000000
#0333b0:1300000000530053
#033370:0053005300000000
#033390:0033
#034390:23
#033341:0013
#033321:0000000000530053
#034341:33
#034361:000000530000000000003300000000000000230000000000
#034321:000000000000005300000000
#0343b0:000000000013000000230000
#034370:000000000000005300000000
#035320:12000022
#035360:000000000032000000000000
#0353c1:000000000012000000000000
#035381:00000022
#035381:000000000000000000000012
#0363c1:0022
#036320:12
#036360:0022
#0373c0:120000000032320000000000
#037380:000032320000000000320000
#0383c0:22
#038370:0012
#038320:00000022
#0383c1:0012
#038371:00000022
#039361:14
#0393a1:002400000000
#039321:000000000000000000000014
#040361:005400000000000000000000
#040321:00240000
#0403b1:000000000000000000130023
#040320:000000000000000000000013
#041360:002300000000
#041360:00000013
#041320:000000000000000000000023
#041371:000000000000000000000013
#0423b1:005300000000000000000000
#042371:00230000
#042320:00130000
#042360:0023
#043360:14
#043320:002400000000
#0433a0:000000000000000000000014
#044360:005400000000000000000000
#0443a0:00240000
#0443b0:000000000000000000000013
#044370:000000000000000000000000000000000000000000000033
#045370:333333333333000000000000000000000000000000000000
#0453b0:00230000
#0453b0:000000000013000000230000
#045370:000000000000000000000033333333333333000000000000
#0453a0:000000000000000000000014
#045360:000000000000000000000000000000000000000000000034
#046360:343434343434343434343434000000000000000000000000
#0463a0:0024
#0473a0:14
#047360:002400000000
#0473a0:000000000000000000000014
#048360:005400000000000000000000
#0483a0:00240000
#048320:000000000000000000130023
#0483b1:000000000000000000000013
#049371:005300000000000000000000
#0493b1:00230000
#049321:00000013
#049361:000000000000000000000023
#051321:14
#051361:002400000000
#051321:000000000000000000000014
#052361:005400000000000000000000
#052321:00240000
#052321:000000000000000000000013
#052361:000000000000000000000000000000000000000000000033
#053361:333333333333000000000000000000000000000000000000
#053321:00230000
#053321:000000000013000000230000
#053361:000000000000000000000033333333333333000000000000
#053321:000000000000000000000014
#053361:000000000000000000000000000000000000000000000034
#054361:343434343434343434343434000000000000000000000000
#054321:0024
#0543b1:000000000000000000000013
#054371:000000000000000000000000000000000000000000000033
#055371:333333333333000000000000000000000000000000000000
#0553b1:00230000
#0553b1:000000000013000000230000
#055371:000000000000000000000033333333333333000000000000
#0553a1:000000000000000000000014
#055361:000000000000000000000000000000000000000000000034
#056361:343434342400000000000000000000000000000000000000
#056320:001400240000
#056360:005400
#0583a0:000014
#058360:000000000000000000000000000000000000005400000000
#058380:000000000000000000000026
#0603b0:000000000013333333333333
#061370:23
#061320:000000000000120000000022
#061370:000000000000000032320000
#061360:000000000000000000000000000000000052000000000000
#0623c0:00122200
#063360:12
#063320:00220000
#0633c1:00120000
#063381:0022
#064381:00000012
#0653c1:22
#0653c1:000000000000120000000022
#065371:000000000000000032320000
#065381:000000000000000000000000000000000052000000000000
#066321:00122200
#067381:1222
#0673c1:00520000
#067360:000000000000120000000022
#067320:000000000000000000000000000000000052000000000000
#067381:000000000000000000000012
#0683c1:00220000
#068361:0012
#068321:00000022
#0683c0:00000012
#069380:22
#0693c0:000000000000120000000022
#069370:000000000000000032320000
#069380:000000000000000000000000000000000052000000000000
#070380:000000000000000000000012
#071380:002200000000
#071320:000000000000120000000022
#071370:000000000000000032320000
#071360:000000000000000000000000000000000052000000000000
#0723c0:00001222
#072361:00000012
#073361:22
#073321:000000000000120000000022
#073371:000000000000000032320000
#073361:000000000000000000000000000000000052000000000000
#074361:000000000000000000000012
#075321:0022
#075380:0012
#0753c0:000000000000000000000022
#075321:000000000000000000000012
#076361:0000000000530000
#077321:24
#077361:000000000014240000000000
#077361:000000000000000014240000
#0773a1:000000000000000000000014
#078361:005400000000000000000000
#0783a1:00240000
#078361:000000000000000000130023
#0783b0:000000000000000000000013
#079370:000053230000000000000000
#0793b0:00000013
#079370:000000000000000000000023
#079321:000000000000000000000013
#080361:000033230000000000000000
#080321:00000014
#081361:24
#081321:000000000014240000000000
#0813a1:000000000000000014240000
#0813a1:000000000000000000000014
#082361:005400000000000000000000
#0823a1:00240000
#082321:000000000000000000000013
#082361:000000000000000000000000000000000000000000000033
#083361:333333333333000000000000000000000000000000000000
#083321:00230000
#083321:000000000013000000230000
#083361:000000000000000000000033333333333333000000000000
#083321:000000000000000000000014
#083361:000000000000000000000000000000000000000000000034
#084361:343434343434343434343434000000000000000000000000
#084321:0024
#085361:000000000014240000000000
#085361:000000000000000014240000
#085321:000000000000000000000014
#086361:005400000000000000000000
#086321:00240000
#086371:000000000000000000130023
#086320:000000000000000000000013
#087360:000053230000000000000000
#087320:00000013
#087360:000000000000000000000023
#0873b1:000000000000000000000013
#088371:005300230000000000000000
#0883a1:00000014
#089361:24
#0893a1:000000000014240000000000
#089321:000000000000000014240000
#0893a1:000000000000000000000014
#090361:005400000000000000000000
#0903a1:00240000
#0903b1:000000000000000000000013
#090371:000000000000000000000000000000000000000000000033
#091371:333333333333000000000000000000000000000000000000
#0913b1:00230000
#0913b1:000000000013000000230000
#091371:000000000000000000000033333333333333000000000000
#0913a1:000000000000000000000014
#091361:000000000000000000000000000000000000000000000034
#092361:343434343434343434343434240000000000000000000000
#093321:000000000000000000130023
#094381:000000000000000000000016
#0953b1:000000000000000000000053000000000000000000000000
#096381:26
#096320:1653
#097320:26
#0973b0:000000000000000000130023
#098320:000000000000000000000017
#099320:00230000
#0993b0:0013
#099370:00000027
#099320:000000000000000000000017
#100320:00230000
#101320:000000000000000000000014
#102360:005400000000000000000000
#102320:00240000
#102370:000000000000000000140024
#102321:000000000000000000000014
#103361:000054240000000000000000
#103361:00000014
#103321:000000000000000000000024
#1033a0:000000000000000000000014
#104360:005400240000000000000000
#104321:00140000
#104361:0024
#1053a1:000000000000000000000014
#106361:005400000000000000000000
#1063a1:00240000
#1063b1:000000000000000000000013
#106371:000000000000000000000000000000000000000000000033
#107371:333333333333000000000000000000000000000000000000
#1073b1:00230000
#1073b1:000000000013000000230000
#107371:000000000000000000000033333333333333000000000000
#1073a1:000000000000000000000014
#107361:000000000000000000000000000000000000000000000034
#108361:343434343434240000000000000000000000000000000000
#108321:000000000000000000000013
#108361:000000000000000000000000000000000000000000000033
#109361:333333333333000000000000000000000000000000000000
#109321:00230000
#109321:000000000013000000230000
#109361:000000000000000000000033333333333333000000000000
#109321:000000000000000000000014
#109361:000000000000000000000000000000000000000000000034
#110361:343434343434240000000000000000000000000000000000
#1103a1:000000000000000000000014
#111361:000034340034340034340034
#112371:0000000000520000
#1123a1:000000000000000000000024
#112320:000000000000000000000014
#113360:005400000000000000000000
#113350:00240000
#1133a1:00143400
#113371:005400
#113361:000000000000005400000000
#113391:00000034
#113351:000000000054
#114381:34
#114351:005400000000240000000000
#114361:000014
#114321:000000000000000000000024
#1143a0:000000000000000000000014
#115360:005400000000000000000000
#115370:00240000
#115321:00143400
#115351:005400
#115361:000000000000005400000000
#115331:00000034
#115371:000000000054
#116341:34
#116371:005400000000240000000000
#116361:000014
#1163a1:000000000000000000000024
#116320:000000000000000000000014
#117360:005400000000000000000000
#117350:00240000
#117391:00130000
#1173b1:000000005300005300000000
#117381:0033
#117371:00000033
#1173a1:000000000054
#118361:34
#1183a1:005400000000240000000000
#118321:000014
#118361:000000000000000000000024
#1183a0:000000000000000000000014
#119360:005400000000000000000000
#119370:00240000
#119341:00130000
#119321:000000005300005300005400
#119351:0033
#119361:00000033
#120361:34
#120321:005400000000240000000000
#120351:000014
#120321:000000000000000000000022
#1203a0:000014
#120370:000000000000000000000022
