This file was generated by Ched 2.7.0.0.
#TITLE ""
#ARTIST ""
#DESIGNER ""
#DIFFICULTY 0
#PLAYLEVEL
#SONGID ""
#WAVE ""
#WAVEOFFSET 0
#JACKET ""
#REQUEST "ticks_per_beat 480"
#00002: 4
#BPM01: 200
#00008: 01
#TIL00: ""
#VOLUME: ""
#HISPEED 00
#MEASUREHS 00
#00115:000000000013000000000000
#00118:00000013
#00112:000000000000000013000023
#0011b:001300230000
#00114:24
#00512:00130000
#00518:0013
#00515:00000013
#02912:13
#02915:0013
#02910:41
#03912:000000000013000000000013
#0391b:0013
#03915:000013
#03918:00000013
#03910:41
#0401b:00131300
#04012:000000000000000013000023
#04015:000000000013000000000000
#04018:00000013
#0421b:0013
#04215:000013
#04218:00000013
#04212:00130000
#04612:00000013
#04618:333333333300333333333333000000000000130000000000
#04617:000000000013000000000000000000000000000000000000
#0021b:000000000000000000000013
#00215:000000330033330033000000
#00318:000000000000000000000013
#01512:000000130000000000000014
#0151b:2313
#01515:23
#01616:001400000000
#0161a:000000000014000000000000
#01615:000013
#01612:000000000000130000000023
#01315:000013
#01318:00000013
#01312:000000130000000000000013
#0131b:0013
#01310:41
#01415:00130000
#01412:0013
#01718:00130000
#01712:0013
#0171b:00000013
#01915:00130000
#0191b:0013
#01912:00000013
#02112:00131300
#02115:00000013
#02118:000000000013000000000013
#0211b:000013
#02212:1313
#0221b:001300000000
#02215:00130000
#0231b:13131300
#02318:00000013
#02315:130000000013000000000013
#02312:000013
#02415:000000000013330033000000
#02412:000000000000001300000000
#0241b:13
#0251b:00130000
#02518:00000013
#02512:0013
#02715:00130000
#02718:0013
#02712:00000013
#03318:13
#0331b:0013
#03312:13
#03315:0013
#03418:13
#0341b:000000000013000000000000
#03412:13
#03415:000000000013000000000000
#0351b:130000330033000000000033
#03517:0013
#03618:000000000000000000000013
#03712:130033330033000000330000
#03716:0013
#04118:000000130000000000000023
#04115:000000000013000000000000
#0411b:0013
#04112:000013
#0431b:000000000013000000000013
#04312:0013
#04318:000013
#04315:00000013
#04412:00131300
#0441b:000000000000000013000023
#04418:000000000000000000001300000000000000000000000033
#04415:00000013
#0471b:000000000013000000000013
#04712:0013
#04718:000013
#04715:00000013
#04812:00131300
#0481b:000000000000000013000023
#04818:000000000013000000000000
#04815:00000013
#05012:0013
#0501b:001300001300
#05015:00130013
#05018:000000000013000000000000
#04918:000000000013000000000000
#04912:0013
#0491b:000013
#04915:000000130000000000000023
#05112:000000000013000000000013
#0511b:0013
#05115:000013
#05118:00000013
#0521b:00131300
#05212:000000000000000013000023
#05215:000000000000000000001300000000000000000000000033
#05218:00000013
#05416:000000000013000000000000000000000000000000000000
#0541b:000000000000000000000023
#05415:333333333300333333333333000000000000000000000000
#05418:000000000000000000000000000000000000000000000033
#0571b:00130000
#05718:00000013
#05715:0013
#05915:001300000000
#0591b:000000130000000000000023
#05918:000013
#05912:000000000023000000130000
#06015:001300000000
#0601b:00130000
#06012:000000000023000000000000
#06613:000000000000000000000012
#0661b:00120000
#06618:0012
#06619:000000000032000032000000
#0671b:0012
#06718:000000000000000000000012
#07715:000000000013000000000000
#0771b:0013
#07712:130000000000000013000013
#07718:13000013
#0771f:21
#0781b:00130013
#07815:000013
#07818:0013
#07812:000000000013000000000023
#07810:000000000000000000000041
#0801b:0013
#08012:001300001300
#08018:00130013
#08015:000000000013000000000000
#07918:00131300
#07915:000000000013000000000000
#07912:000013
#0791b:000000000000000000000023
#08118:000000000013000000000000
#08112:0013
#0811b:130000000000000013000013
#08115:13000013
#08218:000013
#0821b:000000000013000000000000
#08217:000000000000000000000024
#08212:00230023
#08215:0023
#0821a:000000000000000000000000000000000000000000000034
#08412:00000013
#08418:00000013
#0841a:343434343414343434343434000000000000000000000000
#08518:000000000013000000000000
#08512:0013
#0851b:130000000000000013000013
#08515:13000013
#08618:000013
#0861b:000000000013000000000023
#08612:00230023
#08615:0023
#08812:0013
#0881b:001300001300
#08815:00130013
#08715:00131300
#08718:000000000013000000000000
#0871b:000013
#08712:000000000000000000000023
#08915:000000000013000000000000
#0891b:0013
#08912:130000000000000013000013
#08918:13000013
#09015:000000000000000000000000000000001300000000000034
#09012:000000000013000000000024
#0901b:00230023
#09018:0023
#0611b:12
#06118:0012
#0611f:11
#06117:000032320032000032320000
#06218:000012
#06216:00000012
#0621b:000000000000000000000012
#06513:12
#06516:0012
#06517:000032320032000000320000
#06913:12
#06916:0012
#06917:000032000032000000320000
#07016:000012
#07018:00000012
#07013:000000000000000000000012
#0731b:12
#07318:0012
#07317:000032320032000000320000
#0741b:000000000000000000000012
#07413:000000120000000032000000
#07416:0012
#07415:000000000032000000000000
#07513:0012
#07516:000000000000000000000012
#09215:343434343434343414343434343434343434000000000000
#09312:2313
#0931b:000013000000000000000023
#09318:23
#09517:001300
#09616:0000001300000000
#09612:23
#0971b:2313
#09712:000013000000000000000023
#09715:23
#10016:000000000000001300000000000000000000000000000000
#1011b:130000000013000000000013
#10115:1313
#10118:000013
#10112:00000013
#10110:41
#10218:000013
#1021b:000000000013000000000023
#10215:00230023
#10212:0023
#10412:0013
#1041b:000000130000000013000000
#10415:00130013
#10418:0013
#10312:000000130000000000000023
#1031b:000000000013000000000000
#10315:0013
#10318:000013
#10512:130000000013000000000013
#10518:1313
#10515:000013
#1051b:00000013
#10615:000000000000000000000000000000001300000000002434
#10612:000000000013000000000000
#1061b:00230023
#10618:0023
#10818:000000141400
#10814:000000000000001400140000
#1081a:000000000000000000000000000000000000000000002434
#10815:343434343434000000000000000000000000000000000000
#11117:000000000000000000000013
#1101a:343434343434000000000000000000000000000000001400
#11014:000000000000003400000000
#11016:000034
#06318:000000001200000000000000000000003212320000000000
#0631b:0012
#06414:001200001200
#06418:00120012
#06416:000000000012000000000000
#0641a:0012
#07116:000000001200000000000000000000003212320000000000
#07113:0012
#0721a:001200000000
#07216:00120000
#07218:000000000012000000000000
#0071b:00130000
#00715:0013
#00718:00000013
#00912:00140000
#00918:0014
#00914:00000014
#0111a:00140000
#01114:0014
#01118:00000014
#0301b:13
#03018:000000000013000000000000
#03112:130000000033130000000033
#03115:00130013
#0321b:13
#03218:000000000013000000000000
#0061b:130000232300
#00615:000000232300
#00812:130000232300
#00818:000000232300
#0101a:14
#01015:000000232300
#0101b:000000232300
#01212:140000232300
#01218:000000232300
#01815:13
#01818:000000232300
#01812:000000232300
#02018:13
#02015:000000232300
#0201b:000000232300
#02615:130000232300
#0261b:000000232300
#0281b:130023
#02815:000023
#02812:0023
#02818:0023
#05812:130000232300
#05818:000000232300
#05612:000000000000140000000024
#0561a:000000000000140000000024
#05618:333333330000000000000000000000000000000000000000
#00014:0024
#00018:00000024
#03816:0022
#0381c:0022
#0041b:000000000000000000000023
#04512:000000000023000000000000
#0451b:000000000000000000000023
#04518:333333333333000000000000000000000000000000000033
#04515:000000000000000000000033333333333333000000000000
#0531b:000000000023000000000000
#05312:000000000000000000000023
#05315:333333333333000000000000000000000000000000000033
#05318:000000000000000000000033333333333333000000000000
#05512:000000000023000000000000
#0551b:000000000000000000000023
#05518:333333333333000000000000000000000000000000000033
#05515:000000000000000000000033333333333333000000000000
#09112:000000000000000000000024
#0911a:000000000024000000000000
#09115:343434343434000000000000000000000000000000000034
#09117:000000000000000000000034343434343434000000000000
#1121a:000000000000000000000024
#11210:000000000000000000000041
#11415:000000242400
#1141a:000000242400
#1141b:23
#11815:000000242400
#1181a:000000242400
#11812:24
#10717:000000000000000000002434343434343434000000000000
#10715:343434343434000000000000000000000000000000002434
#10912:000000000000000000002434343434343434000000000000
#1091a:343434343434000000000000000000000000000000002434
#11617:000000242400
#11612:230000242400
#12017:000000242400
#12012:000000242400
#1201a:24
#08317:000000000000000000000024
#08315:000000000024000000000000
#0831a:343434343434000000000000000000000000000000000034
#08312:000000000000000000000034343434343434000000000000
#0941b:000000000000000000000023
#09812:000000000000000000000023
#0991b:0023
#09912:000000000000000000000023
#11312:00230000
#11315:0023
#11318:00000023
#1151b:00230000
#11518:0023
#11515:00000023
#11712:00240000
#11716:0024
#1171a:00000024
#1191a:00240000
#11916:0024
#11912:00000024
#02955:0063
#02952:63
#04052:000000000000000000000053
#04258:00000013
#00154:14
#00152:000000000000000000000053
#00058:00000014
#00054:0014
#0025b:000000000000000000000053
#0045b:000000000000000000000013
#00358:000000000000000000000063
#00652:000000000000000000000013
#00658:000000000000000000000013
#0065b:13
#0085b:000000000000000000000013
#00855:000000000000000000000013
#00852:13
#01052:000000000000000000000013
#01058:000000000000000000000013
#0105a:14
#01655:000063
#01652:000000000000630000000013
#0155b:0063
#01352:000000000000000000000063
#01355:13
#0135b:13
#01455:00630000
#01452:0063
#0185b:000000000000000000000013
#01855:130000000000000000000013
#02152:13
#02158:13
#02255:00630000
#02252:0063
#02455:000000000063000000000013
#02452:000000000000002300000000
#0245b:63
#02652:000000000000000000000013
#02658:000000000000000000000013
#02655:13
#03358:63
#0335b:0063
#03352:63
#03355:0063
#03458:63
#0345b:000000000063000000000000
#03452:63
#03455:000000000063000000000000
#0355b:63
#03557:0023
#03756:0023
#03752:63
#03952:000013000000000000000013
#03958:001300000000
#04158:000000000000000000000013
#0435b:000013000000000000000013
#04355:001300000000
#0445b:000000000000000000000063
#04552:000000000053000000000000
#0455b:000000000000000000000063
#04657:000000000023000000000000000000000000000000000000
#0475b:000013000000000000000013
#04755:001300000000
#05055:00000013
#05152:000013000000000000000013
#05158:001300000000
#05456:000000000023000000000000000000000000000000000000
#0545b:000000000000000000000063
#0485b:000000000000000000000063
#04955:000000000000000000000013
#05252:000000000000000000000053
#0535b:000000000063000000000000
#05352:000000000000000000000053
#05552:000000000053000000000000
#0555b:000000000000000000000063
#0585b:000000000000000000000013
#05855:000000000000000000000013
#05852:13
#05952:000000000013000000000000
#0595b:000000000000000000000013
#06052:000000000063000000000000
#06653:000000000000000000000062
#06658:0022
#0665b:00520000
#0675b:0052
#06758:000000000000000000000052
#07752:630000000000000000000013
#0775b:001300000000
#07755:001300000000
#07758:63
#08058:00000013
#0815b:530000000000000000000013
#08152:001300000000
#08158:001300000000
#08155:53
#07852:000000000000000000000053
#0795b:000000000000000000000013
#0855b:530000000000000000000013
#08552:001300000000
#08558:001300000000
#08555:53
#08855:00000013
#08952:630000000000000000000013
#0895b:001300000000
#08955:001300000000
#08958:63
#0865b:000000000000000000000063
#08752:000000000000000000000013
#0615b:52
#06158:0022
#06553:62
#06556:0022
#06953:62
#06956:0022
#0735b:52
#07358:0022
#0745b:000000000000000000000052
#07453:00520000
#07456:0022
#07553:0062
#07556:000000000000000000000062
#09255:002400
#09152:000000000000000000000054
#0915a:000000000064000000000000
#09352:0063
#0935b:000063000000000000000013
#09557:002300
#09656:0000002300000000
#09652:53
#0975b:0053
#09752:000053000000000000000013
#10056:000000000000002300000000000000000000000000000000
#1015b:530000000000000000000013
#10152:001300000000
#10158:001300000000
#10155:53
#10455:00000013
#1025b:000000000000000000000063
#10352:000000000000000000000013
#10552:630000000000000000000013
#1055b:001300000000
#10555:001300000000
#10558:63
#10655:000000000000000000000064
#1125a:000000000000000000000014
#11157:000000000000000000000063
#1105a:000000000000000000000064
#11452:000000000000000000000014
#11457:000000000000000000000014
#11455:000064
#1145a:000064
#1145b:13
#11852:140000000000000000000014
#11857:000000000000000000000014
#11855:000064
#1185a:000064
#0625b:000000000000000000000052
#06358:000000005200000000000000000000000022000000000000
#0635b:000000000000620000000012
#07053:000000000000000000000062
#07156:000000006200000000000000000000000022000000000000
#07153:000000000000520000000012
#00552:00130000
#00558:0013
#00555:00000013
#0075b:00130000
#00755:0013
#00758:00000013
#00952:00140000
#00958:0014
#00954:00000014
#0115a:00140000
#01154:0014
#01158:00000014
#0305b:53
#03058:000000000053000000000000
#03152:5353
#03155:00530053
#0325b:63
#03258:000000000063000000000000
#01758:00130000
#01752:0013
#0175b:00000013
#01952:00000013
#01955:00130000
#0195b:0013
#0255b:00130000
#02552:0013
#02558:00000013
#02755:00130000
#02758:0013
#02752:00000013
#09052:000000000000000000000054
#0575b:00130000
#05755:0013
#05758:00000013
#10757:000000000054000000000000
#10755:000000000000000000000064
#1085a:000000000000000000000064
#10952:000000000054000000000000
#1095a:000000000000000000000064
#11657:000054
#11652:130054
#1165a:000000000000000000000014
#11655:000000000000000000000014
#12057:000054
#12052:000054
#1205a:14
#0845a:000000000024000000000000000000000000000000000000
#08257:000000000000000000000054
#08357:000000000000000000000054
#08355:000000000064000000000000
#01252:14
#02058:13
#0285b:13
#05652:0014
#0565a:0014
#0945b:000000000000000000000053
#09952:000000000000000000000053
#0995b:0053
#09852:000000000000000000000053
#11352:00130000
#11355:0013
#11358:00000013
#1155b:00130000
#11558:0013
#11555:00000013
#11752:00140000
#11756:0014
#1175a:00000014
#1195a:00140000
#11956:0014
#11952:00000014
#000380:13
#000390:003300000000000000000000
#0003a0:003300000000
#0003b0:00230000
#001320:000000000000000000000013
#002350:000000330033330033230000
#0023b0:000000000000000000000013
#003380:000033330033330033330033
#0043b0:000000000000000000000023
#006350:000013
#006320:000000000000000000000023
#0063b1:000013
#006381:000000000000000000000023
#008381:000013
#0083b1:000000000000000000000023
#008320:000013
#008350:000000000000000000000023
#010350:000013
#010320:000000000000000000000023
#0103b1:000013
#010381:000000000000000000000023
#012381:000013
#0133b1:23
#012320:000013
#013350:23
#013320:000000000000000000000013
#014350:000000330000000033230000
#014320:000000000033330000000000
#0153b0:0013
#015380:00000023
#016320:000000000000130000000023
#016350:000033
#018380:000013
#0183b0:000000000000000000000023
#018321:000013
#018351:000000000000000000000023
#020351:000013
#021321:23
#0203b0:000013
#021380:23
#022350:00130023
#022320:0033
#0243b0:13
#024380:00230000
#024350:000000000013330033330023
#024320:000000000000005300000000
#026350:000013
#026320:000000000000000000000023
#0263b1:000013
#026381:000000000000000000000023
#029321:13000053
#029351:00533300
#030321:23
#0303b0:130000000000000053230000
#030380:000000530033000000000000
#031320:130000000033330000000033
#031350:00330033
#032320:23
#0323b1:130000000000000053230000
#032381:000000530033000000000000
#033381:13000053
#0333b1:00533300
#034381:330000000000000053230000
#0343b1:000000530033000000000000
#033320:13000053
#033350:00533300
#034320:330000000000000053230000
#034350:000000530033000000000000
#0353b0:130000330033000000000033
#035370:0053
#0363b0:23
#037320:130033330033000000330000
#037360:0033
#038320:23
#038360:00001222
#0383c1:00001222
#039381:132300000000
#039320:132300000000
#040320:000000000000000000000013
#041350:002300000000
#041380:000000000000000000130023
#043350:132300000000
#0433b1:132300000000
#0443b1:000000000000000000000013
#044381:000000000000000000000000000000000000000000000033
#045381:333333333333000000000000000000000000000000000000
#045371:00230000
#045321:000000000013000000000000
#045351:000000000000000000000033333333333333000000000000
#045361:00000023
#0453b1:000000000000000000000013
#045381:000000000000000000000000000000000000000000000033
#046381:333333333300333333333333000000000000000000000000
#046371:000000000033000000000000000000000000000000000000
#0463b1:0023
#047351:132300000000
#0473b0:132300000000
#0483b0:000000000000000000000013
#049380:002300000000
#049350:000000000000000000130023
#051380:132300000000
#051321:132300000000
#052321:000000000000000000000013
#052351:000000000000000000000000000000000000000000000033
#053351:333333333333000000000000000000000000000000000000
#053361:00230000
#0533b1:000000000013000000000000
#053381:000000000000000000000033333333333333000000000000
#053371:00000023
#053321:000000000000000000000013
#053351:000000000000000000000000000000000000000000000033
#054351:333333333300333333333333000000000000000000000000
#054361:000000000033000000000000000000000000000000000000
#054321:0023
#0543b1:000000000000000000000013
#054381:000000000000000000000000000000000000000000000033
#055381:333333333333000000000000000000000000000000000000
#055371:00230000
#055321:000000000013000000000000
#055351:000000000000000000000033333333333333000000000000
#055361:00000023
#0553b1:000000000000000000000013
#055381:000000000000000000000000000000000000000000000033
#056381:333333332300000000000000000000000000000000000000
#058381:000013
#0583b1:000000000000000000000023
#058320:000013
#058350:000000000000000000000023
#060320:000000000013000000000000
#060360:00000023
#0613b0:120000000000000000000022
#061370:000032320032000032320000
#061380:0032
#062330:00122200
#0623b0:000000000000000000000012
#063380:000000003200000000000000000000003252320000000000
#0633b0:000000000032320000000022
#065330:120000000000000000000022
#065370:000032320032000000320000
#065360:0032
#0663b0:00120022
#066390:000000000032000032000000
#066380:0032
#066330:000000000000000000000012
#067360:00220000
#0673b0:0012
#067380:000000000000000000000032
#0683b0:0022
#069330:120000000000000000000022
#069370:000032000032000000320000
#069360:0032
#0703b0:000000120032220000000000
#070330:000000000000000000000012
#071360:000000003200000000000000000000003252320000000000
#071330:000000000032320000000022
#072330:00001222
#0733b0:120000000000000000000022
#073370:000032320032000000320000
#073380:0032
#074330:000000120000000032220000
#074350:000000000032000000000000
#074360:0032
#0743b0:000000000000000000000012
#075380:00220000
#075330:0012
#075360:000000000000000000000032
#076330:0022
#077380:13
#0773b0:002300000000
#077321:13
#077351:002300000000
#078321:000000000000000000000013
#079351:002300000000
#0793b1:000000000000000000130023
#081351:13
#081321:002300000000
#0813b0:13
#081380:002300000000
#082370:000000000000000000000014
#0823a0:000000000000000000000000000000000000000000000034
#0833a0:343434343434240000000000000000000000000000000000
#083350:000000000014000000000000
#083320:000000000000000000000034343434343434240000000000
#083370:000000000000000000000014
#0833a0:000000000000000000000000000000000000000000000034
#0843a0:343434343434343434343434000000000000000000000000
#084370:0024
#085350:13
#085320:002300000000
#0853b1:13
#085381:002300000000
#0863b1:000000000000000000000013
#087381:002300000000
#087321:000000000000000000130023
#089381:13
#0893b1:002300000000
#089320:13
#089350:002300000000
#090320:000000000000000000000014
#090350:000000000000000000000000000000000000000000000034
#091350:343434343434240000000000000000000000000000000000
#0913a0:000000000014000000000000
#091370:000000000000000000000034343434343434240000000000
#091320:000000000000000000000014
#091350:000000000000000000000000000000000000000000000034
#092350:343434343434343434343434343434343434000000000000
#092320:00000024
#0933b0:001300000000
#093370:000000000023000000000000
#093320:0013
#093360:00000023
#094320:000000130000000033230000
#094350:000000000033330000000000
#0943b0:000000000000000000000013
#095370:005300
#0953b0:00000023
#096320:13000023
#096360:0000005300000000
#097320:001300000000
#097360:000000000023000000000000
#0973b0:0013
#097370:00000023
#0983b0:000000130000000033230000
#098380:000000000033330000000000
#098320:000000000000000000000013
#099360:00230000
#0993b0:0013
#099370:00000023
#099320:000000000000000000000013
#100360:000000000000005300000000000000000000000000000000
#100320:00000023
#101350:13
#101320:002300000000
#1013b1:13
#101381:002300000000
#1023b1:000000000000000000000013
#103381:002300000000
#103321:000000000000000000130023
#105381:13
#1053b1:002300000000
#105320:13
#105350:002300000000
#106350:000000000000000000000000000000000000000000001434
#107350:343434343434000000000000000000000000000000000000
#107320:00240000
#107370:000000000000000000001434343434343434000000000000
#1073a0:00000024
#107350:000000000000000000000000000000000000000000001434
#108350:343434343434000000000000000000000000000000000000
#108320:00240000
#1083a0:000000000000000000000000000000000000000000001434
#1093a0:343434343434000000000000000000000000000000000000
#109370:00240000
#109320:000000000000000000001434343434343434000000000000
#109350:00000024
#1093a0:000000000000000000000000000000000000000000001434
#1103a0:343434343434000000000000000000000000000000000000
#110370:00240000
#110320:0014
#110340:000000000000003400000000
#110360:000000000000000034240000
#1103a0:000000000000000000000014
#111370:000033330033330033330033
#1123a0:000000000000000000000024
#114350:000014
#114320:000000000000000000000024
#1143a1:000014
#114371:000000000000000000000024
#116371:000014
#1163a1:000000000000000000000024
#116320:000014
#116350:000000000000000000000024
#118350:000014
#118320:000000000000000000000024
#1183a1:000014
#118371:000000000000000000000024
#120371:000014
#1203a1:000000000000000000000024
#120320:000014
#120350:000000000000000000000024
