This file was generated by Ched 2.7.0.0.
#TITLE ""
#ARTIST ""
#DESIGNER ""
#DIFFICULTY 0
#PLAYLEVEL
#SONGID ""
#WAVE ""
#WAVEOFFSET 0
#JACKET ""
#REQUEST "ticks_per_beat 480"
#00002: 4
#BPM01: 200
#00008: 01
#TIL00: ""
#VOLUME: ""
#HISPEED 00
#MEASUREHS 00
#0041a:000000000000000000000014
#00514:0014
#0061a:14
#00612:000000000000000000000014
#00718:0014
#00812:14
#00818:000000000000000000000014
#00912:0014
#01018:14
#01014:000000000000000000000014
#0111a:0014
#01214:14
#01318:1414
#01310:41
#0001a:14
#00012:0014
#00018:00000014
#01514:1414
#0161a:000000000000000000000014
#01714:0014
#0181a:14
#01812:000000000000000000000014
#01918:0014
#02012:14
#0211a:1414
#02312:1414
#0241a:000000000000000000000014
#02514:0014
#0261a:14
#02612:000000000000000000000014
#02718:0014
#02812:14
#03918:00140014
#03912:2414
#03910:41
#04014:1414
#0401a:00140000
#0411a:1414
#04114:00140014
#04218:1414
#04212:00140000
#0431a:00140000
#04314:2414
#04318:00000014
#04412:140000000000000000000014
#04418:00140000
#04714:00140014
#0471a:2414
#04818:1414
#04812:00140000
#04912:1414
#04918:00140014
#05014:1414
#0501a:00140000
#05112:00140000
#05118:2414
#05114:00000014
#0521a:140000000000000000000014
#05214:00140000
#03514:14
#03718:14
#0561a:000000000000000000000014
#05714:0014
#0581a:14
#0611a:14
#06118:0014
#0611f:11
#06518:14
#0651a:0014
#06312:14
#06314:0014
#06714:14
#06712:0014
#0691a:14
#06918:0014
#07318:14
#0731a:0014
#07112:14
#07114:0014
#07514:14
#07512:0014
#0771a:24140000
#07714:00001414
#0771f:21
#07818:1414
#07812:00140000
#07810:000000000000000000000041
#07912:14140000
#07918:00001414
#08014:1414
#0801a:00140000
#0811a:24140000
#08112:00001414
#08218:140000000000000000000014
#08214:00140000
#0831a:000000000014000000000000
#08318:000000000000000000000014
#04512:000000000000000000000014
#04514:000000000014000000000000
#0531a:000000000000000000000014
#05318:000000000014000000000000
#05412:000000000000000000000014
#05514:000000000014000000000000
#08512:24140000
#08518:00001414
#08614:1414
#0861a:00140000
#0871a:14140000
#08714:00001414
#08818:1414
#08812:00140000
#08912:24140000
#0891a:00001414
#09014:140000000000000000000014
#09018:00140000
#09112:000000000014000000000000
#09114:000000000000000000000014
#09316:0014
#0931a:14
#10114:00140000
#10118:0014
#10112:00000014
#1011a:24
#10110:41
#1021a:14
#10214:00140000
#10218:0014
#10318:00140000
#10314:0014
#1031a:00000014
#10312:14
#10412:14
#10418:00140000
#10414:0014
#10514:00140000
#10518:0014
#10512:00000014
#1051a:24
#10618:14
#10614:00140000
#1061a:000000000000000000000014
#10718:000000000014000000000000
#1071a:000000000000000000000014
#10814:000000000000000000000014
#10912:000000000014000000000000
#10914:000000000000000000000014
#11112:000000000000000000000014
#1131a:0014
#11414:1414
#11518:14
#11512:0014
#11618:1414
#11712:14
#11716:0014
#1181a:14
#11812:0014
#1191a:14
#11916:0014
#0981a:14
#09816:00140000
#09812:00000000000000000000000000000014
#09712:14
#09716:0014
#09914:0014
#09912:000000000000000000000014
#09412:14
#0941a:00000000000000000000000000000014
#09416:00140000
#09618:14
#11214:000000000000000000000026
#11210:000000000000000000000041
#02910:41
#00252:000000000000000000000014
#0045a:000000000000000000000014
#04054:0014
#04258:0014
#04858:0014
#05054:0014
#05652:0014
#03554:64
#03758:64
#0615a:64
#06158:0024
#06558:54
#0655a:0024
#06352:54
#06354:0024
#06754:64
#06752:0024
#0695a:64
#06958:0024
#07358:54
#0735a:0024
#07152:54
#07154:0024
#07554:64
#07552:0024
#07858:0014
#08054:0014
#08258:000000000000000000000064
#0835a:000000000064000000000000
#08358:000000000000000000000064
#04452:000000000000000000000054
#04554:000000000054000000000000
#04552:000000000000000000000054
#0535a:000000000000000000000064
#05358:000000000064000000000000
#0525a:000000000000000000000064
#05452:000000000000000000000054
#05554:000000000054000000000000
#08654:0014
#08858:0014
#09054:000000000000000000000054
#09152:000000000054000000000000
#09154:000000000000000000000054
#10258:0014
#10454:0014
#1065a:000000000000000000000054
#10758:000000000054000000000000
#1075a:000000000000000000000054
#10854:000000000000000000000064
#10952:000000000064000000000000
#10954:000000000000000000000054
#11152:000000000000000000000054
#11254:000000000000000000000016
#09852:00000000000000000000000000000054
#09954:0054
#09952:000000000000000000000054
#0945a:00000000000000000000000000000064
#09658:54
#001320:140000000000000000000034
#001340:0034
#002320:000000000000000000000024
#014380:1424
#016340:1424
#0223a0:1424
#024320:1424
#0293a0:14
#029380:0034
#0303a0:340000000024000000000000
#031320:14
#031340:0034
#032320:340000000024000000000000
#033380:14
#0333a0:0034
#034380:340000000024000000000000
#035340:14
#036320:24
#037380:14
#0383a0:3424
#044320:000000000000140000000034
#045340:000000000034000000000000
#045320:000000000000000000000034
#046340:0024
#0523a0:000000000000140000000034
#053380:000000000034000000000000
#0533a0:000000000000000000000034
#054380:0024
#054320:000000000000000000000014
#055340:000000000034000000000000
#055320:000000000000000000000034
#056320:003400240000
#058320:000000000000140000000034
#059330:000000000034000000000000
#059340:000000000000000000000034
#060350:000000000024000000000000
#0613a0:14
#061380:0034
#0623a0:24
#063320:14
#063340:0034
#064320:24
#065380:14
#0653a0:0034
#066380:24
#067340:14
#067320:0034
#068340:24
#0693a0:14
#069380:0034
#0703a0:24
#071320:14
#071340:0034
#072320:24
#073380:14
#0733a0:0034
#074380:24
#075340:14
#075320:0034
#076340:24
#082380:000000000000140000000034
#0833a0:000000000034000000000000
#083380:000000000000000000000034
#0843a0:0024
#090340:000000000000140000000034
#091320:000000000034000000000000
#091340:000000000000000000000034
#092320:0024
#0943a0:00000000000000001400000000000034
#095380:0034
#096380:34
#0963a0:0024
#098320:00000000000000001400000000000034
#099340:0034
#099320:000000000000000000000034
#100340:0024
#1063a0:000000000000140000000034
#107380:000000000034000000000000
#1073a0:000000000000000000000034
#108380:0024
#108340:000000000000000000000014
#109320:000000000034000000000000
#109340:000000000000000000000034
#110320:000000000000000000000034
#111320:000000000000000000000034
#112340:000000000000000000000026
#120320:1424
