This file was generated by Ched 2.7.0.0.
#TITLE ""
#ARTIST ""
#DESIGNER ""
#DIFFICULTY 0
#PLAYLEVEL
#SONGID ""
#WAVE ""
#WAVEOFFSET 0
#JACKET ""
#REQUEST "ticks_per_beat 480"
#00002: 4
#BPM01: 168
#00008: 01
#TIL00: ""
#HISPEED 00
#MEASUREHS 00
#0601f:11
#0541a:14
#05312:0014
#05318:14
#08312:1414
#08218:1414
#08114:1414
#0801a:1414
#07914:14
#0781a:14
#07712:14
#07618:14
#07512:1616
#07418:0016
#07412:16
#07118:1616
#07012:0016
#07018:16
#05914:0014
#05918:14
#05812:0014
#0581a:14
#05810:41
#04314:14
#04218:14
#04112:14
#0401a:14
#03912:1616
#02918:14
#02818:14
#02810:41
#02714:14
#02614:14
#0251a:14
#0241a:14
#01418:14
#01312:14
#01218:14
#01114:14
#0101a:14
#00914:14
#0081a:14
#09112:14
#0871a:14
#05712:16
#05214:0014
#0521a:14
#03818:0016
#03812:16
#03810:41
#03518:1616
#03412:0016
#03418:16
#01912:14
#0681f:21
#06818:26
#07212:26
#05618:00260000
#03612:26
#03218:26
#01512:24
#08814:0000003400000000
#08418:0000003400000000
#0161a:0000003400000000
#06910:41
#04810:41
#01810:41
#0003a0:14
#0013a0:24
#002320:14
#003320:24
#004380:14
#005380:24
#006340:14
#007340:24
#0163a0:1400003400000000
#0183a0:24
#020380:14
#021380:24
#022340:14
#023340:24
#030320:1400340034003424
#032380:1626
#033320:1626
#036320:1626
#037380:1626
#0443a0:14
#0453a0:24
#046320:14
#047320:24
#048380:14
#049380:24
#050340:14
#051340:24
#054340:0014
#055340:3424
#0603a0:14
#0613a0:24
#062340:14
#063340:24
#064380:14
#065380:24
#066320:1400340034003424
#068380:1626
#069320:1626
#072320:1626
#073380:1626
#084380:1400003400000000
#0863a0:24
#088340:1400003400000000
#090320:24
#092380:16
#093380:0000000000000036
#094380:26
