This file was generated by Ched 2.7.0.0.
#TITLE ""
#ARTIST ""
#DESIGNER ""
#DIFFICULTY 0
#PLAYLEVEL
#SONGID ""
#WAVE ""
#WAVEOFFSET 0
#JACKET ""
#REQUEST "ticks_per_beat 480"
#00002: 4
#BPM01: 168
#00008: 01
#TIL00: ""
#HISPEED 00
#MEASUREHS 00
#00215:0000000000130013
#00218:13000013
#0021b:0000001300000000
#0021a:00330000
#00219:0033000000000000
#00515:0013000013000000
#0051b:13
#00518:00130013
#0051a:0000001300000013
#00513:0000000000130000
#0061b:00130000
#00618:0000001300000013
#00615:13000000000000000000000013000013
#00612:0000000000130000
#01515:0013
#01512:13000013
#0151b:13000013
#01518:0013
#01715:00130000000000000000000000000000
#01718:00130000000000000000000000000000
#0191b:1300130000130000
#01918:0000001300001300
#01915:0000000000000013
#01916:13
#01912:0000001300000000
#0221b:1300001300130013
#02212:1300001300130013
#02218:00131313
#02215:00232323
#0231b:1300002300000000
#02315:0013230000000013
#02318:0023130000001300
#02312:2300001300000000
#02314:0013
#02316:0000000000130000
#0271b:13
#02715:00130000
#02718:0013
#02417:00000000000013001300000000000013
#0241b:23000000000000000000001300000000
#02412:13000000000000130000000000001300
#02416:00000013000000000000000000000000
#02512:13
#02518:00130000
#02515:0013
#02818:00000000000013000000000000000013
#0281b:13131300
#02815:00000000000000130000000000001300
#02812:13000013
#02810:41
#02912:1313
#02918:00130013
#02915:0000000000000013
#03018:00131313
#03015:0000001300130000
#0301b:1300000000000013
#03012:1300000000000013
#03315:0000000000000013
#0331b:0000000000130000
#0331a:0000001300000000
#03319:0013000000000000
#03418:0013000000130000
#03415:0000001300000013
#03512:1313
#03518:00001300000000000000130000130013
#03515:0000130000001313
#0351b:0000001300000000
#0401b:13000013
#04015:00000000130000130000130000000000
#04018:0000001313000013
#04012:23000013
#04112:13000013
#04118:00000000130000130000130000001300
#04115:0000001313000000
#0411b:23000013
#04212:13132300
#0421b:23001313
#04215:0013001300002300
#04218:0000230000130013
#04312:2300131300000000
#04314:0000000013130000
#04319:0000000013130000
#0431b:2300000000001313
#04316:0000000000001313
#04317:0000131300000000
#0441c:0012
#04412:13
#04414:00000013
#04416:0000001300000000
#0451c:0012
#04518:12
#0451a:00120000
#04512:0013000000000000
#05012:0012
#0501b:13
#05017:0013
#05016:12
#05112:00001212
#05116:12120000
#0511c:0012000000000000
#05118:0000000000120000
#05215:00130000001300130000001300130000
#05218:0013130013130013
#05212:00000013000000000013000000000013
#0521b:1300001300001300
#05618:0013
#0561b:00000013
#0571b:0013001300000000
#05716:00130000
#05712:13
#0761b:13001313
#07618:0000001300130000
#07615:00000000000000130000000000001300
#07612:00130013
#07712:13001313
#0771b:00130013
#07715:0000001300130000
#07718:00000000000000130000000000001300
#07915:00000000000000130013000013000000
#0791b:23130000
#07912:00130000
#07918:0000001313130013
#08214:0000131300000000
#08219:2500131300000000
#08213:0000000013130000
#08212:2500000000001313
#0821a:0000000013130000
#0821b:0000000000001313
#08315:0013000013001300
#08318:00000000130000130000001300000000
#08312:2300001300130013
#0831b:23000000000000000013000000130000
#0841b:13
#08412:0000131300001300
#08417:0000001300000000
#08415:23
#08716:13
#0871b:1300001300130000
#08718:00130000
#08719:00000013
#08717:0000000000000013
#08715:0000000000130000
#08712:0000001300000000
#08819:13
#08815:00130000
#08812:0000001300000000
#08816:00000013
#08817:0013001300000000
#0901a:14241424
#09017:0000001300000013
#09016:0000000000130000
#09012:14142414
#09312:0000000000000013
#09318:00000000000000000000000000000013
#00018:0000000000130013
#00015:13000013
#00012:0000001300000000
#00013:00330000
#00014:0033000000000000
#00115:13
#0011b:13
#00118:00130000
#00112:00130000
#00315:00130000
#00319:0000000000000033
#00314:0000000000330000
#00418:0000000000130013
#00415:13000013
#00412:0000001300000000
#00413:00330000
#00414:0033000000000000
#01418:0000001300130013
#01415:00130013
#01412:0000001300000000
#0141b:13
#01416:0013
#01417:0013000000000000
#09116:00000000001300130000000000000000
#09114:00000000000000000013001300000000
#0911b:0000231300000000
#09119:0000000013130000
#09112:24002400000000000000000000130013
#09117:0000000000001313
#00912:00131313
#00919:0013000000000000
#00917:00130000
#00915:0000000000130000
#0091b:13001313
#00918:0000000000000013
#00916:13
#0101b:1300001300001300
#01015:0013001300001300
#01018:0000130000000013
#01012:23
#00818:0013001300001300
#00815:00130000
#00812:1300001300001300
#00814:0000000000000013
#0081b:23
#01218:0013001300001300
#01215:00130000
#01212:1300001300001300
#01214:0000000000000013
#0121b:23
#01316:13
#0131b:1313
#01315:00130013
#01118:0000000000000013
#01114:00230000
#01113:0023
#01112:00000023
#01115:23
#01615:13
#01612:0000001300000000
#01618:13
#0161b:0000001300000000
#01812:13130013
#01815:0000001300000000
#01817:13
#0181b:0000001300000000
#01810:41
#02012:13130013
#02015:0000001300000000
#02017:13
#0201b:0000001300000000
#0211b:13130013
#02118:0000001300000000
#02116:13
#02112:0000001300000000
#03718:0000000000000013
#03712:0000000000130000
#03713:0000001300000000
#03714:0013000000000000
#03815:0013000000130000
#03818:0000001300000013
#03810:41
#0391b:1313
#03915:0013000000000000
#03918:00130013
#03912:0000001313000000
#06818:0013000000130000
#0681b:0000001300000000
#06815:00000013
#06812:2300000000000013
#06816:00000000001300000000000000000000
#0681f:21
#06918:0000000000000013
#06915:0013000000130000
#06912:0000001300000000
#06917:00000000001300000000000000000000
#0691b:13
#06910:41
#07015:0013000000130000
#07018:0000001300000013
#07115:00001300000000000000130000130013
#07118:0000001300001313
#07112:13231300
#0711b:23132300
#04612:0012
#0461b:13
#04619:00000013
#04617:0000001300000000
#04616:12
#04712:0012
#04716:12
#04714:00120000
#0471b:0013000000000000
#0481c:0012
#04812:13
#04814:00000013
#04816:0000001300000000
#04818:12
#04810:41
#0491c:0012
#04918:12
#0491a:00120000
#04912:0013000000000000
#02612:13000000000000000000001300000000
#02616:00000000000013001300000000000013
#0261b:13000000000000130000000000001300
#02617:00000013000000000000000000000000
#05817:001414000000000000000000
#05818:000000001414000000000000
#05819:000000000000001414000000
#05812:24
#05813:00240000
#05814:0024
#05815:00000024
#05810:41
#05415:00130000001300000013000000130000
#05418:0013130000131300
#05412:00000024000000130000002400000013
#0541a:2400002424000024
#07518:0013000000001313
#07515:00000000000013000000000000130013
#0751b:13231300
#07512:23132300
#08512:13
#08518:13
#0851b:0000131300001300
#08516:0000001300000000
#0861b:13
#08615:13
#08612:0000131300001300
#08617:0000001300000000
#0891b:13
#08917:0000001300000000
#08914:00130000000000000000000000000000
#08912:0000001300000000
#07817:00130000
#0781b:2313
#07816:0013
#07812:00230013
#09415:13
#03218:0000000000000013
#0321b:23000013
#03212:0000000000130000
#03213:0000001300000000
#03214:0013000000000000
#03615:0000000000000013
#03612:23000013
#0361b:0000000000130000
#0361a:0000001300000000
#03619:0013000000000000
#07215:0013000000130000
#07212:0000001300000000
#07218:00000013
#0721b:2300000000000013
#07217:00000000001300000000000000000000
#07315:0000000000000013
#07318:0013000000130000
#0731b:0000001300000000
#07316:00000000001300000000000000000000
#07312:13
#07418:0013000000130000
#07415:0000001300000013
#05316:00000014
#0591a:14
#0591b:0000001300000000
#05919:0013
#05917:0000000000130000
#05915:00000013
#05918:0000000000000013
#05912:2400001300000000
#06312:13
#06318:00130000
#06315:0013
#06016:00000000000013001300000000000013
#06012:23000000000000000000001300000000
#0601b:13000000000000130000000000001300
#06017:00000013000000000000000000000000
#0601f:11
#0611b:13
#06115:00130000
#06118:0013
#06415:00000000000013000000000000000013
#06412:13131300
#06418:00000000000000130000000000001300
#0641b:13000013
#0651b:1313
#06515:00130013
#06518:0000000000000013
#06615:00131313
#06618:0000001300130000
#06612:1300000000000013
#0661b:1300000000000013
#0621b:13000000000000000000001300000000
#06217:00000000000013001300000000000013
#06212:13000000000000130000000000001300
#06216:00000013000000000000000000000000
#06716:24
#0671b:0000000000000023
#08015:2525
#08012:00250025
#0801b:2323
#08018:00230023
#00718:23
#03115:0000000000000023
#08119:2525
#08116:00250025
#08115:2323
#08112:00230023
#05514:0024
#02252:13
#0225b:13
#0275b:53
#02755:00630000
#02752:0013
#02758:0013
#02457:0063
#0245b:13000000000000000000002300000000
#02452:63
#02456:00000023000000000000000000000000
#02552:63
#02558:00530000
#0255b:0013
#02555:0013
#0285b:0063
#02852:63
#02952:6363
#02958:00530000
#0295b:0013
#03552:1313
#03555:00130000
#0405b:53
#04152:63
#07752:63
#08055:1515
#08052:00150015
#01552:13000053
#0155b:13000063
#01555:0053
#01558:0063
#00055:53
#00052:0000002300000000
#00258:63
#0025b:0000002300000000
#00455:53
#00452:0000002300000000
#00957:00130000
#0135b:6363
#01355:00630063
#01655:53
#01652:0000005300000000
#01658:63
#0165b:0000006300000000
#01755:00230000000000000000000000000000
#01758:00230000000000000000000000000000
#0395b:1313
#03958:00130000
#03952:0053
#04452:53
#04454:00000053
#04456:0000002300000000
#04552:0023000000000000
#0505b:63
#05057:0023
#0765b:53
#08159:1515
#08156:00150015
#0845b:63
#08457:0000006300000000
#08452:0000001300000000
#08455:13
#08852:0000006300000000
#08856:00000023
#08857:0000006300000000
#0875b:1300001300000000
#08756:63
#08752:0000006300000000
#08755:0000000000230000
#0465b:63
#04659:00000063
#04657:0000002300000000
#0475b:0023000000000000
#04852:53
#04854:00000053
#04856:0000002300000000
#04952:0023000000000000
#07152:00130000
#0715b:1313
#02656:0053
#02652:00000000000000000000002300000000
#0265b:53
#02657:00000023000000000000000000000000
#01857:53
#0185b:0000005300000000
#01855:0000001300000000
#01956:63
#01952:0000006300000000
#01958:0000001300000000
#02057:53
#0205b:0000005300000000
#02055:0000001300000000
#02156:63
#02152:0000006300000000
#02158:0000001300000000
#08552:53
#08558:13
#0855b:0000001300000000
#08556:0000005300000000
#0865b:63
#08655:13
#08652:0000001300000000
#08657:0000006300000000
#0895b:53
#08957:0000005300000000
#08954:00630000000000000000000000000000
#08952:0000002300000000
#09052:14
#0905a:14
#07857:00630000
#0785b:6363
#07856:0053
#07852:00530053
#00555:0063
#00558:00630063
#0055a:0000002300000023
#00553:0000000000230000
#00655:63
#00658:0000005300000000
#00852:0000002300000000
#00858:0000002300000000
#0105b:0000002300000000
#01055:0000002300000000
#06852:53
#06856:00000000002300000000000000000000
#06957:00000000002300000000000000000000
#0695b:63
#07257:00000000002300000000000000000000
#0725b:63
#07356:00000000002300000000000000000000
#07352:53
#07552:1313
#0755b:00130000
#08259:15
#08252:15
#01252:0000002300000000
#01258:0000002300000000
#01452:0000005300000000
#0145b:63
#01456:0023
#01457:0023000000000000
#05852:14
#05853:00140000
#05854:0014
#05855:00000014
#05356:00000014
#0565b:00130000
#05952:14
#0595a:14
#06352:63
#06358:00530000
#06355:0013
#0635b:0013
#06056:0053
#06052:13000000000000000000002300000000
#0605b:53
#06057:00000023000000000000000000000000
#0615b:53
#06155:00630000
#06158:0013
#06152:0013
#06452:0053
#0645b:53
#0655b:5353
#06555:00630000
#06552:0013
#06257:0063
#0625b:00000000000000000000002300000000
#06252:63
#06256:00000023000000000000000000000000
#08358:00130000
#000350:1300000000230000
#000340:0033000000000000
#000330:00330000
#000320:0000003300000000
#002380:1300000000230000
#002390:0033000000000000
#0023a0:00330000
#0023b0:0000003300000000
#003380:1323
#0033b0:00330000
#003321:0013
#003341:0000000000330000
#003351:00000023
#0033b0:00000013
#003390:0000000000000033
#004380:23
#004351:1300000000230000
#004341:0033000000000000
#004331:00330000
#004321:0000003300000000
#005381:00132300
#0053a1:0000005300000000
#005350:00001323
#005330:0000000000530000
#005381:00000013
#0053a1:0000000000000053
#006381:23
#006350:13
#006320:00230000
#006380:0000001300000000
#0063b0:0000000000230000
#008320:0000001300000000
#008350:0000000000230000
#008381:0000001300000000
#0083b1:0000000000230000
#0103b1:0000001300000000
#010381:0000000000230000
#010350:0000001300000000
#010320:0000000000230000
#011380:13003353000000000000000000000000
#011390:00000000330033530000000000000000
#0113a0:00000000000000003300335300000000
#0113b0:00000023
#012380:0000001300000000
#0123b0:0000000000230000
#012321:0000001300000000
#012351:0000000000230000
#0133b1:13
#013381:00230000
#013350:00130000
#013320:0023
#0133b1:0013
#013381:00000023
#013350:00000013
#014320:23
#0143b1:13230000
#014371:0053000000000000
#014321:0000001300230000
#014361:0053
#015351:0013
#015321:00000033
#016351:33
#016321:0000003300000000
#017351:00530000000000000000000000000000
#017321:00000023
#015380:0013
#0153b0:00000033
#016380:33
#0163b0:0000003300000000
#017380:00530000000000000000000000000000
#0173b0:00000023
#018370:13000023
#0183b0:0000003300000000
#019360:1300000000230000
#019320:0000003300000000
#020370:13000023
#0203b0:0000003300000000
#021360:13000023
#021320:0000003300000000
#024320:1300002300000000
#024360:00000053000000000000000000000000
#024370:0000000013000023
#0243b0:00000000000000000000005300000000
#025320:13
#025350:00230000
#025381:00130000
#0253b1:0023
#0263b1:1300002300000000
#026371:00000053000000000000000000000000
#026361:0000000013000023
#026321:00000000000000000000005300000000
#0273b1:13
#027381:00230000
#027350:00130000
#027320:0023
#028320:13
#028350:00230000
#0283b0:0013
#028380:00000023
#029320:13
#029350:00230000
#029381:00130000
#0293b1:0023
#029320:0013
#029350:00000023
#0323b0:1300000000230000
#032370:0053000000000000
#033320:1300000000230000
#033360:0053000000000000
#034350:13
#034320:00230000
#034381:00130000
#0343b1:0023
#034350:0013
#034320:00000023
#034381:00000013
#0353b1:23
#036321:1300000000230000
#036361:0053000000000000
#0373b1:1300000000230000
#037371:0053000000000000
#038381:13
#0383b1:00230000
#038350:00130000
#038320:0023
#038381:0013
#0383b1:00000023
#038350:00000013
#039320:23
#039320:0013
#039350:00000023
#0403b0:13
#040380:00230000
#041320:13
#041350:00230000
#044320:13
#044360:0000005300000000
#044340:00000053
#045320:0053000000000000
#045360:0023
#0463b0:13
#046370:0000005300000000
#046390:00000053
#0473b0:0053000000000000
#047370:0023
#048320:13
#048360:0000005300000000
#048340:00000053
#049320:0053000000000000
#049360:0023
#0503b0:13
#050370:0053
#0513b0:23
#0533b0:13
#0533a0:00330000000000000000000000000000
#053390:0033000000000000
#053380:00000023000000000000000000000000
#053351:00000013000000000000000000000000
#053341:00330000
#053331:00000000003300000000000000000000
#053321:0000002300000000
#0533b0:0000001300000000
#0533a0:00000000000000330000000000000000
#053390:0033
#053380:00000000000000000023000000000000
#053351:00000000000000000013000000000000
#053341:0000000000330000
#053331:00000000000000000000003300000000
#053321:00000023
#0553a1:140000000000000000000000540000000000000000000000540000000000000054000000000000540000000000540000000054000000540000005400000054000000540000005400000054000000540000005400000054000000000000000000
#055381:000000540000000000540000000054000000540000540000540054005400540054005400540054005400540024000000
#055340:000000000000000000000000145454545454545454542400
#055320:000000000000000000000000000000000000000000000000005400540054005400540054005400540054005400000000
#056370:0013000000000000
#056390:00000033000000000000000000000000
#0563b0:00230000
#056321:000000000000135353535353535353535353230000000000
#056331:000000000000000000000000005300530053005300530053005300530053005300530053000000000000000000000000
#0563b1:0000000000000013
#056391:00000000000000000000000000000033
#057371:23
#057361:000000000000000000000000000000000000130053000053000000000000000000000000000000000000000000000000
#057371:00000000000000530000000000000000
#057351:000000000000000000000000000000000000000000005300005300000000000000000000000000000000000000000000
#057341:00000000000000005353000000000000
#057331:000000000000000000000000000000000000000000000000000053000053000000000000000000000000000000000000
#057321:000000000000000000000000000053230000000000000000
#057370:000000000000000000000000000000000000000000000000000000000000130053000053000000000000000000000000
#057360:00000000000000000000005300000000
#057380:000000000000000000000000000000000000000000000000000000000000000000005300005300000000000000000000
#057390:00000000000000000000000053530000
#0573a0:000000000000000000000000000000000000000000000000000000000000000000000000000053000053000000000000
#0573b0:000000000000000000000000000000000000000053230000
#0603b0:1300002300000000
#060370:00000053000000000000000000000000
#060360:0000000013000023
#060320:00000000000000000000005300000000
#0613b0:13
#061380:00230000
#061351:00130000
#061321:0023
#062321:1300002300000000
#062361:00000053000000000000000000000000
#062371:0000000013000023
#0623b1:00000000000000000000005300000000
#063321:13
#063351:00230000
#063380:00130000
#0633b0:0023
#0643b0:13
#064380:00230000
#064320:0013
#064350:00000023
#0653b0:13
#065380:00230000
#065351:00130000
#065321:0023
#0653b0:0013
#065380:00000023
#068320:1300000000230000
#068360:00000000005300000000000000000000
#0693b0:1300000000230000
#069370:00000000005300000000000000000000
#070380:13
#0703b0:0023000000000000
#070320:00130000
#070350:0000002300000000
#070380:0013
#0703b0:0000000000230000
#070320:00000013
#070350:0000000000000023
#0723b0:1300000000230000
#072370:00000000005300000000000000000000
#073320:1300000000230000
#073360:00000000005300000000000000000000
#074350:13
#074320:0023000000000000
#0743b0:00130000
#074380:0000002300000000
#074350:0013
#074320:0000000000230000
#0743b0:00000013
#074380:0000000000000023
#0763b0:13
#076370:00230000
#077320:13
#077360:00230000
#0783b0:1333
#078370:00330023
#078321:00130033
#078361:0033
#079361:23
#0843b1:13000023
#084371:0000003300000000
#085321:13000023
#085361:0000003300000000
#0863b1:13000023
#086371:0000003300000000
#087361:13
#087321:0000003300000000
#087351:0000000000530000
#088321:23
#088321:0000001300000000
#088361:00000053
#089341:00530000000000000000000000000000
#089321:0000005300000000
#089361:00000023
#088370:0000001300000000
#0883b0:00000023
#0893b0:13000023
#089370:0000003300000000
#092390:15
#093380:0000000000000023
