This file was generated by Ched 2.7.0.0.
#TITLE ""
#ARTIST ""
#DESIGNER ""
#DIFFICULTY 0
#PLAYLEVEL
#SONGID ""
#WAVE ""
#WAVEOFFSET 0
#JACKET ""
#REQUEST "ticks_per_beat 480"
#00002: 4
#BPM01: 168
#00008: 01
#TIL00: ""
#HISPEED 00
#MEASUREHS 00
#01915:0000000000000013
#01918:13000013
#01912:0000000000130000
#02212:13
#02215:0000001300130013
#0221b:13
#02218:00232323
#02315:0000000000130000
#0231b:23230013
#02312:0023002300000013
#02318:0013
#02515:0013
#02518:13
#0301b:00130013
#03018:0013
#03015:1300001300000013
#03012:0000000000130000
#03518:0013001300000013
#03512:00130000
#03515:1313
#04115:0000000000000013
#04112:0013
#04118:0013
#04515:0013
#04518:00130000
#05115:0013000013001300
#05118:0000130000130000
#07919:00130000
#0791a:2413
#0791b:00000013
#07912:24000013
#07913:0013
#07914:00130000
#08812:1300001400000000
#08816:00140014
#0881a:0014000000000000
#00112:00130000
#0011b:00130000
#00615:00000013
#00618:0000000000000013
#00018:13
#0001b:0000003313330000
#0001a:00330033
#00019:0033000000000033
#00912:0013000000000000
#00918:00130000
#0091b:13
#00815:0013000000000013
#00818:00130013
#00812:0000001300000000
#0081b:23
#0131b:13
#01318:00130000
#0131a:0013
#01518:0013
#0151b:00000013
#01716:00140000000000000000000000000000
#01618:13
#0161b:0000001300000000
#04412:13
#04415:0013
#06815:00130013
#06812:2300000000000013
#06818:0000000000130000
#0681f:21
#07118:0013001300000000
#07112:0000230000000013
#07115:2323
#01812:13
#01815:0000001300000000
#01810:41
#0201b:13
#02018:0000001300000000
#0751b:00130000
#07518:2300003300000000
#08914:00140000000000000000000000000000
#08912:0000001400000000
#05918:0000001300001300
#05912:2413
#05915:0000000000130000
#0591a:14
#0591b:0000000000000013
#07816:00130000
#07812:2313
#0781b:00130000
#07817:2313
#09315:00000000000000000000000000000013
#09418:13
#06918:00130000
#0691b:13
#06912:0000000000000013
#06910:41
#00215:13
#00212:0000003313330000
#00213:00330033
#00214:0033000000000033
#00318:00130013
#0031b:0013
#00315:0000000000130000
#00312:0000000000000013
#00418:13
#0041b:0000003313330000
#0041a:00330033
#00419:0033000000000033
#00518:1313
#0051b:00130000
#0051a:0033000000000000
#01018:0013000000000013
#01015:00130013
#0101b:0000001300000000
#01012:23
#01119:00130000
#0111a:0013
#0111b:00000013
#01118:0013000000000000
#01114:00230000
#01113:0023
#01112:00000023
#01115:23
#01215:0013000000000013
#01218:00130013
#01212:0000001300000000
#0121b:23
#01412:13
#01418:0000001300001300
#01415:0000000000130013
#02112:13
#02115:0000001300000000
#02418:13000000000033331300000000003333
#0241b:00130013
#02718:0013
#02715:13
#02615:13000000000033331300000000003333
#02612:00130013
#03212:0000000000130000
#03215:00000013
#03218:0000130000000013
#0321b:23
#03315:13
#03312:00130000
#0331b:0000000000000013
#03412:1313
#03418:0013000000130000
#03415:00130013
#0341b:0000001300000013
#0361b:0000000000130000
#03618:00000013
#03615:0000130000000013
#03612:23
#03718:13
#0371b:00130000
#03712:0000000000000013
#0381b:1313
#03815:0013000000130000
#03818:00130013
#03812:0000001300000013
#03810:41
#0391b:13
#03918:0000333300000000
#04214:00130013
#04212:0013
#0421b:23
#04217:0023
#04219:00230023
#04718:0013
#04715:00130000
#0461b:13
#04618:0013
#04912:0013
#04918:00130000
#04815:13
#04812:0013
#04810:41
#05018:13
#0501b:0013
#0521a:14
#05216:0034343414343434
#05314:0000140000001414
#05318:00000000000000001400000000140000
#0561a:0000000000000014
#05718:0014000000000000
#05714:14
#05712:00140000
#07015:13130013
#07018:0013000000130000
#0701b:0000001300000013
#07012:0013
#07218:23000013
#0721b:0000130000000013
#07215:0000000000130000
#07312:00130000
#07315:13
#0731b:0000000000000013
#07418:13130013
#07415:0013000000130000
#07412:0000001300000013
#0741b:0013
#0861b:13
#08618:0000001300000000
#08712:13
#0871b:0000000000130000
#08715:00000013
#08718:0000000000000013
#08315:0013
#08312:00130013
#0831b:23
#08316:23
#08515:00140000000000000000000000000000
#08415:13
#08412:0000001300000000
#09016:13
#09012:0000001300000000
#0901b:13
#09017:0000001300000000
#0911b:0000001300000000
#09116:0000001300000000
#09117:23
#09112:23
#02812:13
#02818:0000001300000000
#02815:0000000000000013
#0281b:00000000000000333300000000000000
#02814:00000000000000000000000000000033
#02810:41
#02918:0000000000000013
#02912:00130000
#02915:0013
#02913:33
#04312:00140000
#04316:1314
#0431a:00000014
#0431b:23
#06118:0013
#06112:13
#06612:00130013
#06615:0013
#06618:1300001300000013
#0661b:0000000000130000
#0621b:13000000000033331300000000003333
#06218:00130013
#0631b:13
#06315:0013
#06012:13000000000033331300000000003333
#06015:00130013
#0601f:11
#08214:00130013
#08212:0013
#08219:00130013
#08217:0013
#0821b:23
#08216:23
#0761b:0013
#07615:0013
#07618:00000013
#07612:00000013
#0771b:0013
#07715:0013
#04012:0013
#04018:0013
#04015:00000013
#0401b:00000013
#0641b:13
#06415:0000001300000000
#06418:0000000000000013
#06412:00000000000000333300000000000000
#06419:00000000000000000000000000000033
#06515:0000000000000013
#0651b:00130000
#06518:0013
#0651a:33
#0581a:14
#05819:00140014
#05818:0014
#05812:24
#05813:00240024
#05814:0024
#05810:41
#08018:2626
#08012:00260026
#03115:0000000000000023
#0671b:0000000000000023
#0541a:24
#05412:0024
#08118:2626
#08112:00260026
#03555:0013
#08058:1616
#08052:00160016
#00058:63
#0005b:0023
#00958:00130000
#0135b:63
#01358:00530000
#0135a:0063
#01558:0063
#0155b:00000063
#01756:00240000000000000000000000000000
#01658:63
#0165b:0000006300000000
#04452:53
#04455:0023
#08852:0000006400000000
#08856:00000024
#07155:0013
#01852:53
#01855:0000005300000000
#01958:53
#0205b:63
#02058:0000006300000000
#08954:00640000000000000000000000000000
#08952:0000002400000000
#07856:00630000
#07852:6363
#0785b:00630000
#07857:6363
#00852:0000002300000000
#06852:53
#06855:00230000
#06958:00230000
#0695b:63
#00255:53
#00252:0023
#00458:63
#0045b:0023
#00558:6363
#0055b:00630000
#0105b:0000002300000000
#01252:0000002300000000
#01452:53
#02152:53
#02155:0000005300000000
#02458:6363
#0245b:00230023
#02558:63
#02555:0013
#02758:0013
#02755:53
#02655:5353
#02652:00230023
#03352:00230000
#03355:63
#03258:00230000
#0325b:63
#03655:00230000
#03652:53
#03758:53
#0375b:00230000
#03958:0013
#0395b:53
#0465b:63
#04658:0023
#04855:63
#04852:0023
#05058:53
#0505b:0023
#0525a:54
#05256:0024
#0595a:14
#05952:14
#0725b:00230000
#07258:63
#07352:00230000
#07355:63
#07558:5313
#0755b:00530000
#08158:1616
#08152:00160016
#0865b:63
#08658:0000006300000000
#08752:63
#08355:0053
#08352:00530053
#08555:00240000000000000000000000000000
#08455:53
#08452:0000005300000000
#09056:63
#09052:0000006300000000
#0905b:63
#09057:0000006300000000
#0915b:0000005300000000
#09157:53
#09156:0000005300000000
#09152:53
#02852:63
#02858:0000006300000000
#02855:0000000000000053
#06158:0013
#06152:63
#0625b:5353
#06258:00230023
#0635b:53
#06355:0013
#06052:6363
#06055:00230023
#02952:00530000
#02955:0053
#0645b:53
#06455:0000005300000000
#06458:0000000000000063
#0655b:00630000
#06558:0063
#000380:13
#000390:0033000000000033
#0003a0:00330033
#0003b0:0000003353330000
#001380:23
#002350:13
#002340:0033000000000033
#002330:00330033
#002320:0000003353330000
#003350:23
#004380:13
#004390:0033000000000033
#0043a0:00330033
#0043b0:0000003353330000
#005380:3333
#0053a0:0033000000000000
#0053b0:00330023
#006320:13
#006350:00230000
#0063b0:0000001300000000
#006380:0000000000230000
#008320:0000001300000000
#008350:0000000000230000
#0103b0:0000001300000000
#010380:0000000000230000
#012320:0000001300000000
#012350:0000000000230000
#0133b0:13
#013380:00330000
#0133a0:0033
#013370:00000023
#014320:13
#014350:00230000
#015380:0013
#0153b0:00000033
#016380:33
#0163b0:0000003300000000
#017360:00540000000000000000000000000000
#0173a0:00000024
#018320:13000023
#018350:0000003300000000
#019380:13
#0193b0:0000002300000000
#0203b0:13000023
#020380:0000003300000000
#021320:13000023
#021350:0000003300000000
#024380:13000000000033333300000000003333
#0243b0:00530053
#025380:33
#0253b0:00230000
#026350:13000000000033333300000000003333
#026320:00530053
#027350:33
#027320:00230000
#028320:13
#028350:00230000
#028380:0000001300000000
#0283b0:00000000000000333300000023000000
#028350:0000000000000013
#028340:00000000000000000000000000000033
#029330:33
#029320:00330023
#029350:0033
#0323b0:1323
#032380:00530000
#033350:1323
#033320:00530000
#036320:1323
#036350:00530000
#037380:1323
#0373b0:00530000
#0393b0:13
#039380:0000333323000000
#040320:13
#040350:00230000
#040381:13
#0403b1:00230000
#041321:13
#041351:00230000
#041380:13
#0413b0:00230000
#044320:13
#044350:0053
#045320:23
#0463b0:13
#046380:0053
#0473b0:23
#048350:13
#048320:0053
#049350:23
#050380:13
#0503b0:0053
#051380:23
#0523a0:14
#052360:0034343434343434
#0533a0:24
#0543a0:14
#054380:00000034000000000000000000000000
#054360:0000002400000000
#054320:0014
#054340:00000000000000000000003400000000
#054360:0000000000000024
#0553a0:14
#055360:00000000000000005454545454542400
#055370:0000000000000000000000000000000000540054005400540054005400000000
#056320:00000000145454545454545424000000
#056330:0000000000000000005400540054005400540054005400540000000000000000
#0573a0:00000000000014540000000000002400
#057390:0000000000000000000000000054000000000000000000000000000000000000
#057370:00000000000000000000345400000000
#057380:0000000000000000000000000000000000000000005400000000000000000000
#060320:13000000000033333300000000003333
#060350:00530053
#061320:33
#061350:00230000
#0623b0:13000000000033333300000000003333
#062380:00530053
#0633b0:33
#063380:00230000
#0643b0:13
#064380:00230000
#064350:0000001300000000
#064320:00000000000000333300000023000000
#064380:0000000000000013
#064390:00000000000000000000000000000033
#0653a0:33
#0653b0:00330023
#065380:0033
#068320:1323
#068350:00530000
#0693b0:1323
#069380:00530000
#072380:1323
#0723b0:00530000
#073350:1323
#073320:00530000
#075380:1300003323000000
#0753b0:00330000
#0763b0:13
#076380:00230000
#076351:13
#076321:00230000
#0773b1:13
#077381:00230000
#077350:13
#077320:00230000
#078320:1333
#078360:00330023
#078371:1333
#0783b1:00330023
#083321:00130033
#083351:0033
#084351:33
#084321:0000003300000000
#085351:00540000000000000000000000000000
#085321:00000024
#0863b1:13000023
#086381:0000003300000000
#087321:13
#087351:0000002300000000
#088321:0000001400000000
#088361:00000054
#089341:00540000000000000000000000000000
#089321:0000005400000000
#089361:00000024
#090361:13000023
#090321:0000003300000000
#0903b0:13000023
#090370:0000003300000000
#091370:13000023
#0913b0:0000003300000000
#091321:13000023
#091361:0000003300000000
#092381:16
#093381:0000000000000023
