This file was generated by Ched 2.7.0.0.
#TITLE ""
#ARTIST ""
#DESIGNER ""
#DIFFICULTY 0
#PLAYLEVEL
#SONGID ""
#WAVE ""
#WAVEOFFSET 0
#JACKET ""
#REQUEST "ticks_per_beat 480"
#00002: 4
#BPM01: 168
#00008: 01
#TIL00: ""
#HISPEED 00
#MEASUREHS 00
#0061b:0000131300000000
#00618:0000000000000013
#00615:00000013
#00612:1300001300130013
#01515:12001313
#01519:12
#01518:00001313
#01512:0000000000130013
#0151b:0000000000130013
#0171a:00140000000000000000000000000000
#01712:00140000000000000000000000000000
#01912:00000013001c1916
#0191b:1300001313000000
#01917:00130000
#01916:13
#01919:0013000000000000
#0221a:14
#02212:1400260026132600
#02218:00131313
#0221b:0000001300130013
#02215:0000001300000013
#02318:1326002600000013
#02312:2613260013000000
#0231b:00130000
#02315:0000001300000000
#02314:0000000000130000
#02316:00000013
#02815:00000000000013000000000000000013
#02812:1313130013000000
#02818:00000000000000130000000000001300
#0281b:1300000013131300
#02816:00000013000000000000000000000000
#02817:00000000000000000000001300000000
#02810:41
#02918:13130000
#02915:0013130000160016
#02912:1300001300001300
#0291b:0000001300001300
#03418:0013001300000000
#03415:0000000000130013
#0341b:13130000
#03412:00001313
#03512:1316001313001616
#0351b:1313000013000000
#03518:00000000130016000000130000160016
#03515:00000000130000000013000000000000
#0401b:1313
#04016:00130000
#04018:0000001300000000
#04015:00000000000000130000000000000000
#04012:2313000013131300
#04017:0013000000001300
#04019:0000000000130013
#04218:2613000013000013
#04215:00000000260013000000130026000013
#04212:13000000130000002600000000130000
#0421b:0000001300000000
#04312:2312131415161718
#04319:0000000000150000
#0431b:0000000000000013
#04317:0000001700000000
#0431a:00000014
#04318:2616
#04316:00180000
#04315:0019000000000000
#04418:0012
#04412:12
#04414:00000012
#04416:0000001200000000
#0441c:12
#0451c:1212
#04512:0012000000000000
#0451a:0012001200000000
#04518:00120000
#05116:0012000012001200
#05118:1200120000120000
#05114:0000120000120000
#0511a:0012000012000000
#05112:00000012
#0511c:12
#05212:1900131900131900
#05215:0013000013000013
#05218:00000013000000130000001300000013
#0521b:00130000001300000013000000130000
#05617:0013
#0561b:00000013
#05616:00001414000000000000000000001300
#0561a:00140000
#05718:0000001300000013
#05717:0013000000000000
#05714:00130000
#05712:13001313
#05715:00000000000000130000000000130000
#0571b:0000000013131300
#05716:0000000000130000
#0791a:00000000000000140014000000000000
#0791b:00130000
#07912:2c001300141c1814
#07916:0014001400000000
#08212:2600130000001816
#08216:00181300
#08214:0000001300000000
#08218:2600001600130000
#0821a:0014
#0821c:0000000000120000
#0821b:00000013
#08219:0000000000000013
#08312:2412140013000000
#08315:00001300000000000014140000000000
#08318:00160000
#08313:0000001400000000
#0831b:00000000000000000000000000000013
#08317:23000000000000130000000000141400
#08319:00000000000000000000001300000000
#08314:00000013
#09016:00141414
#09012:1400001c241c001c
#0901a:14240024
#0911b:00000000001300130000000000000000
#09119:00000000000000000013001300000000
#09118:0000001300000000
#09116:0000000000130000
#09117:00000000000000000000000000130013
#09114:0000000000000013
#09112:24282c001a001800
#0911a:14
#00912:00130000
#00919:0013000000000000
#00917:00131200
#0091b:13
#00916:1300000000000012
#00914:0013000000000000
#0091c:0012
#0091a:0000000000120000
#00915:00000000000000000000001200000000
#00918:00000012
#01115:2313000000000000
#01112:0000000000002313
#01114:0000231300000000
#01113:0000000023130000
#0081b:0013001300001300
#00818:23000013000000000000000000000000
#00815:13131313
#00812:0013001300130013
#0131b:13
#01318:13
#01319:0013
#01314:00130000
#01316:0013
#01312:00000013
#01615:13
#01612:0000001300000000
#01618:13
#0161b:0000001300000000
#01812:1300001300130013
#01816:00130000
#01817:1300000000130000
#01814:0013000000000000
#01815:00000013
#01818:0000000000000013
#0181b:0000001300000000
#01819:0013
#01810:41
#0501c:12
#05018:00000000000000120000000000000000
#05014:0012001200000000
#05016:00120000
#05012:1200000012320000
#05816:001414001414001414000000
#05812:24142400
#0581a:14241424
#05810:41
#05415:00130026000000000000002600130000
#05412:00000000130026002600130000000016
#05418:26000000001300160013000000002600
#0541b:0013000000001300
#0591b:00130000
#05912:2614
#05914:0000000000140000
#05916:00000014
#05918:1600000000000014
#07816:23132300
#0781b:13130013
#07812:0013000000130013
#07817:0023001300230000
#0931a:000000000000000000000014
#09312:000000000000000000000000000000000000000000000000000000000000000000000000000000000000000000000000000000000000000000000000000000000000000000000000000000000000000000000000000000000000000000000000000000000000000000000000000000000000000000000000000000000000000000000000000000000000000000000000000000000000000000000000000000000000000000000000000000000000000000000000000000000000000000000000000000000000000000000000000000000000000000000000000000000000000000000000000000000000000000000000000000000000000000000000000000000000000000000000000000000000000000000000000000000000000000000000000000000000000000000000000000000000000000000000000000000000000000000000000000000000000000000000000000000000000000000000000000000000000000000000000000000000000000000000000000000000000000000000000000000000000000000000000000000000000000000000000000000000000000000000000000000000000000000000000000000000000000000000000000000000000000000000000000000000000000000000000000000000000000000000000000000000000000000000000000000000000000000000000000000000000000000000000000000000000000000000000000000000000000000000000000000000000000000000000000000000000000000000000000000000000000000000000000000000000000000000000000000000000000000017000000000000000000000000000000000000000000000000000000000000000000000000000000000000000000000000000000000000000000000000000000000000000000000000000000000000000000000000000000000000000000000000000000000000000000000000000000000000000000000000000000000000000000000000000000000000000000000000000000000000000000000000000000000000000000000000000000000000000000000000000000000000000000000000000000000000000000000000000000000000000000000000000000000000000000000000000000000000000000000000000000000000000000000000000000000000000000000000000000000000000000000000000000000000000000000000000000000000000000000000000000000000000000000000000000000000000000000000000000000000000000000000000000000000000000000000000000000000000000000000000000000000000000000000000000000000000000000000000000000000000000000000000000000000000000000000000000000000000000000000000000000000000000000000000000000000000000000000000000000000000000000000000000000000000000000000000000000000000000000000000000000000000000000000000000000000000000000000000000000000000000000000000000000000000000000000000000000000000000000000000000000000000000000000000000000000000000000000000000000000000000000000000000000000000000000000000000000000000000000000000000000000000000000000000000000000000000000000000000000000000000000000000000000000000000000000000000000000000000000000000000000000000000000000000000000000000000000000000000000000000000000000000000000000000000000000000000000000000000000000000000000000000000000000000000000000000000000000000000000000000000000000000000000000000000000000000000000000000000000000000000000000000000000000000000000000000000000000000000000000000000000000000000000000000000000000000000000000000000000000000000000000000000000000000000000000000000000000000000000000000000000000000000000000000000000000000000000000000000000000000000000000000000000000000000000000000000000000000000000000000000000000000000000000000000000000000000000000000000000000000000000000000000000000000000000000000000000000000000000000000000000000000000000000000000000000000000000000000000000000000000000000000000000000000000000000000000000000000000000000000000000000000000000000000000000000000000000000000000000000000000000000000000000000000000000000000000000000000000000000000000000000000000000000000000000000000000000000000000000000000000000000000000000000000000000000000000000000000000000000000000000000000000000000000000000000000000000000000000000000000000000000000000000000000000000000000000000000000000000000000000000000000000001400000000000000000000000000000000000000000000000000000000000000000000000000000000000000000000000000000000000000000000000000000000000000000000000000000000000000
#09317:00000000001700000000000000000000
#09416:14
#00516:0013
#00519:00000013
#0051b:13130000
#00515:0013000000000013
#00512:1300130000130000
#00517:0000001300000000
#03218:0000003400000013
#03216:0000000000130000
#03214:0000001300000000
#03212:0013000000001400
#0321a:24000014
#03215:0000000000000013
#03217:00340000
#03219:0034
#00018:13000013
#00016:0013000000000000
#00014:00130000
#00012:0000001300130000
#00015:0000000000000013
#00017:0000001300000000
#0001b:0013
#0011b:13
#00112:13
#00118:0013000000000000
#00115:00130000
#00215:13000013
#00217:0013000000000000
#00219:00130000
#0021b:0000001300130000
#00218:0000000000000013
#00216:0000001300000000
#00212:0013
#00312:13130000
#0031b:1313
#00319:0000000000130000
#00317:00000013
#00315:0000000000000013
#0041b:1300001300001300
#00412:1300000000130000
#00419:0013000000000000
#00417:00131300
#00415:0000001300001300
#00418:0000000000000013
#03912:1600140014001414
#0391b:13
#03916:00001400000014140000140000140014
#0391a:00000014001400000014001400000000
#04112:1313
#04117:00130000
#04115:0000001300000000
#04118:00000000000000130000000000000000
#0411b:2313000013131300
#04116:0013000000001300
#04114:0000000000130013
#01012:0013001300001300
#01015:23000013000000000000000000000000
#01018:13131313
#0101b:0013001300130013
#0121b:2313001300000013
#01212:1300131300001300
#01217:00001313
#01216:000000000000000000000000000000000000000000000000140000000000000000000000000000000000000000000000140000000000000000000000000000000000000000000000000000000000000000000000000000000000000000000013000000000000000000000000000000000000000000000000000000000000000000000000000000000000000000000000000000000000000000000000000000000000000000000000000000000000000000000000000000000000000000000000
#01215:0000000000000013
#0141b:1300000013220000
#01416:0013130013000000
#01417:0000001300000000
#01412:0000001300000000
#01413:0000000000220000
#01415:00000033
#01418:00000033
#02012:1300130013000013
#02016:0013001300130000
#02017:1300000013000013
#0201b:0013001300001300
#02014:00000013
#0211a:00000014
#02116:13000000000000001300000000141400
#02112:00001300000013000000000000000014
#0211b:13131300
#02117:0013001300130000
#05314:0016000016000000
#05316:00000000001600000000001600000000
#05315:00000016
#05313:00160000000000160000000000000000
#05317:0000160000160000
#05312:2600002600000000
#05318:00000026000000000026000000000000
#0801a:2414240024002400
#08016:0000001400000014
#08012:2800280028142800
#0811a:0014000000000000
#08116:2800281428002814
#08112:2400240024142400
#03815:0013001300000000
#03818:0000000000130013
#03812:13130000
#0381b:00001313
#03810:41
#04616:0012
#0461c:12
#0461a:00000012
#04618:0000001200000000
#04612:12
#04712:1212
#0471c:0012000000000000
#04714:0012001200000000
#04716:00120000
#0491c:1212
#04912:0012000000000000
#04918:0012001200000000
#0491a:00120000
#04812:12
#04814:00000012
#04816:0000001200000000
#0481a:0012001200000000
#04818:00120000
#0481c:1212
#04810:41
#08712:13001313001c1916
#0871b:0013001313000000
#08716:1313000000000000
#08812:13001c0000001313
#08818:16
#08815:0019000000000000
#08817:0000001300001300
#0881b:0000001300130013
#08916:00000000000013000000000000001414
#08912:00001300000013000000130000140000
#0891a:00000014
#0891b:13130000
#08917:1313000000000000
#08412:0013001300001313
#08417:0000000000130017
#08416:2313131300000000
#0841b:13000013
#0851b:1300131300001300
#08512:0013001300130000
#08517:1313000000000000
#08516:00000013
#08514:0000000000000013
#08519:0000000000000013
#09214:001a00000000000000000000000000000000000000000000000000000000000000000000000000000000000000000000000000000000000000000000000000000000000000000000000000000000000000000000000000000000000000000000000000000000000000000000000000000000000000000000000000000000000000000000000000000000000000000000000000000000000000000000000000000000000000000000000000000000000000000000000000000000000000000000000000000000000000000000000000000000000000000000000000000000000000000000000000000000000000000000000000000000000000000000000000000000000000000000000000000000000000000000000000000000000000000000000000000000000000000000000000000000000000000000000000000000000000000000000000000000000000000000000000000000000000000000000000000000000000000000000000000000000000000000000000000000000000000000000000000000000000000000000000000000000000000000000000000000000000000000000000000000000000000000000000000000000000000000000000000000000000000000000000000000000000000000000000000000000000000000000000000000000000000000000000000000000000000000000000000000000000000000000000000000000000000000000000000000000000000000000000000000000000000000000000000000000000000000000000000000000000000000000000000000000000000000000000000000000000000000000000000000000000000000000000000000000000000000000000000000000000000000000000000000000000000000000000000000000000000000000000000000000000000000000000000000000000000000000000000000000000000000000000000000000000000000000000000000000000000000000000000000000000000000000000000000000000000000000000000000000000000000000000000000000000000000000000000000000000000000000000000000000000000000000000000000000000000000000000000000000000000000000000000000000000000000000000000000000000000000000000000000000000000000000000000000000000000000000000000000000000000000000000000000000000000000000000000000000000000000000000000000000000000000000000000000000000000000000000000000000000000000000000000000000000000000000000000000000000000000000000000000000000000000000000000000000000000000000000000000000000000000000000000000000000000000000000000000000000000000000000000000000000000000000000000000000000000000000000000000000000000000000000000000000000000000000000000000000000000000000000000000000000000000000000000000000000000000000000000000000000000000000000000000000000000000000000000000000000000000000000000000000000000000000000000000000000000000000000000000000000000000000000000000000000000000000000000000000000000000000000000000000000000000000000000000000000000000000000000000000000000000000000000000000000000000000000000000000000000000000000000000000000000000000000000000000000000000000000000000000000000000000000000000000000000000000000000000000000000000000000000000000000000000000000000000000000000000000000000000000000000000000000000000000000000000000000000000000000000000000000000000000000000000000000000000000000000000000000000000000000000000000000000000000000000000000000000000000000000000000000000000000000000000000000000000000000000000000000000000000000000000000000000000000000000000000000000000000000000000000000000000000000000000000000000000000000000000000000000000000000000000000000000000000000000000000000000000000000000000000000000000000000000000000000000000000000000000000000000000000000000000000000000000000000000000000000000000000000000000000000000000000000000000000000000000000000000000000000000000000000000000000000000000000000000000000000000000000000000000000000000000000000000000000000000000000000000000000000000000000000000000000000000000000000000000000000000000000000000000000000000000000000000000000000000000000000000000000000000000000000000000000000000000000000000000000000000000000000000000000000000000000000000000000000000000000000000000000000000000000000000000000000000000000000000000000000000000000000000000000000000000000000000000000000000000000000000000000000000000000000000000000000000000000000000000000000000000000000000000
#09212:000017000000000000000000000000000000000000000000000000000000000000000000000000000000000000000000000000000000000000000000000000000000000000000000000000000000000000000000000000000000000000000000000000000000000000000000000000000000000000000000000000000000000000000000000000000000000000000000000000000000000000000000000000000000000000000000000000000000000000000000000000000000000000000000000000000000000000000000000000000000000000000000000000000000000000000000000000000000000000000000000000000000000000000000000000000000000000000000000000000000000000000000000000000000000000000000000000000000000000000000000000000000000000000000000000000000000000000000000000000000000000000000000000000000000000000000000000000000000000000000000000000000000000000000000000000000000000000000000000000000000000000000000000000000000000000000000000000000000000000000000000000000000000000000000000000000000000000000000000000000000000000000000000000000000000000000000000000000000000000000000000000000000000000000000000000000000000000000000000000000000000000000000000000000000000000000000000000000000000000000000000000000000000000000000000000000000000000000000000000000000000000000000000000000000000000000000000000000000000000000000000000000000000000000000000000000000000000000000000000000000000000000000000000000000000000000000000000000000000000000000000000000000000000000000000000000000000000000000000000000000000000000000000000000000000000000000000000000000000000000000000000000000000000000000000000000000000000000000000000000000000000000000000000000000000000000000000000000000000000000000000000000000000000000000000000000000000000000000000000000000000000000000000000000000000000000000000000000000000000000000000000000000000000000000000000000000000000000000000000000000000000000000000000000000000000000000000000000000000000000000000000000000000000000000000000000000000000000000000000000000000000000000000000000000000000000000000000000000000000000001500000000000000000000000000000000000000000000000000000000000000000000000000000000000000000000000000000000000000000000000000000000000000000000000000000000000000000000000000000000000000000000000000000000000000000000000000000000000000000000000000000000000000000000000000000000000000000000000000000000000000000000000000000000000000000000000000000000000000000000000000000000000000000000000000000000000000000000000000000000000000000000000000000000000000000000000000000000000000000000000000000000000000000000000000000000000000000000000000000000000000000000000000000000000000000000000000000000000000000000000000000000000000000000000000000000000000000000000000000000000000000000000000000000000000000000000000000000000000000000000000000000000000000000000000000000000000000000000000000000000000000000000000000000000000000000000000000000000000000000000000000000000000000000000000000000000000000000000000000000000000000000000000000000000000000000000000000000000000000000000000000000000000000000000000000000000000000000000000000000000000000000000000000000000000000000000000000000000000000000000000000000000000000000000000000000000000000000000000000000000000000000000000000000000000000000000000000000000000000000000000000000000000000000000000000000000000000000000000000000000000000000000000000000000000000000000000000000000000000000000000000000000000000000000000000000000000000000000000000000000000000000000000000000000000000000000000000000000000000000000000000000000000000000000000000000000000000000000000000000000000000000000000000000000000000000000000000000000000000000001600000000000000000000000000000000000000000000000000000000000000000000000000000000000000000000000000000000000000000000000000000000000000000000000000000000000000000000000000000000000000000000000000000000000000000000000000000000000000000000000000000000000000000000000000000000000000000000000000000000000000000000000000000000000000000000000000000000000000000000
#09213:001b
#09215:0000000000000000000000000000000000000000000000000000000000190000
#07017:0013000000000013
#07012:0000001300001300
#0701b:1300000000130000
#07615:13
#0761b:0013001313000013
#07616:00000000000000130000000000001300
#07612:0013000000131300
#07617:0000000000131300
#07618:23130000
#06816:0000001300000013
#06812:001300001c130000
#0681b:0000000000000013
#0681a:0014000000000000
#06815:00140000
#06817:2300000000130000
#06819:00000013
#0681f:21
#07512:2800141814000014
#07516:00001418001400000014140000000014
#07514:00000014
#07518:00000000000000000000000000140000
#0751a:00140000000000140000001400000000
#07112:1300261313001616
#0711b:0013130000000000
#07118:26000000000000002600160000160016
#07116:0013000000000000
#07115:00000000000000000013000000000000
#07117:0000001300000000
#08617:1313131300000000
#08612:1300000000001317
#0861b:0013001300001313
#08616:0000000000130000
#07718:13
#07712:0013001313000013
#07717:00000000000000130000000000001300
#0771b:0013000000131300
#07716:0000000000131300
#07715:23130000
#06315:0000000000001313
#06318:00000000000000000000000000130013
#06312:0000000000130000
#0631b:00000000000000000000001300000000
#06316:24
#06418:00000000000013000000000000000013
#0641b:1313130013000000
#06415:00000000000000130000000000001300
#06412:1300000013131300
#06417:00000013000000000000000000000000
#06416:00000000000000000000001300000000
#06515:1300130000160016
#06518:0013130000000000
#0651b:1300001300001300
#06512:0000001300001300
#06612:2600120000140014
#06616:0012
#06617:0000001400000000
#0661a:00141412
#06618:2600000000000012
#06615:00000014
#06614:0000001200000000
#0661c:0000000000120000
#06118:0000000000000013
#06115:00000000000000000000000000000013
#0611b:00000013
#0611a:14
#06114:000000000000000000000000000000000000000000000000000000000000000000000000000000000000000000000000000000000000000000000000000000000000000000000000000000000000000000000000000000000000000000000000000000000000000000000000000000000000000000000000000000000000000000000000000000000000000000000000000000000000000000000000000000000000000000000000000000000000000000000000000000000000000000000000000000000000000000000000000000000000000000000000000000000000000000000000000000000000000000000000000000000000000000000000000000000000000000000000000000000000000000000000000000000000000000000000000000000000000000000000000000000000000000000000000000000000000000000000000000000000000000000000000000000000000000000000000000000000000000000000001500000000000000000000000000000000000000000000000000000000000000000000000000000000000000000000000000000000000000000000000000000000000000000000000000000000000000000000000000000000000000000000000000000000000000000000000000000000000000000000000000000000000000000000000000000000000000000000000000000000000000000000000000000000000000000000000000000000000000000000000000000000000000000000000000000000000000000000000000000000000000000000000000000000000000000000000000000000000000000000000000000000000000000000000000000000000000000000000000000000000000000000000000000000000000000000000000000000000000000000000000000000000000000000000000000000000000000000000000000000000000000000000000000000000000000000000000000000000000000000000000000000000000000000000000000000000000000000000000000000000000000000000000000000000000000000000000000000000000000000000000000000000000000000000000000000000000000000000000000000000000000000000000000000000000000000000000000000000000000000000000000000000000000000000000000000000000000000000000000000000000000000000000000000000000000000000000000000000000000000000000000000000000000000000000000000000000000000000000000000000000000000000000000000000000000000000000000000000000000000
#06119:000000000000000000000000000000000000000000000000000000000000000000000000000000000000000000000000000000000000000000000000000000000000000000000000000000000000000000000000000000000000000000000000000000000000000000000000000000000000000000000000000000000000000000000000000000000000000000000000000000000000000000000000000000000000000000000000000000000000000000000000000000000000000000000000000000000000000000000000000000000000000000000000000000000000000000000000000000000000000000000000001500000000000000000000000000000000000000000000000000000000000000000000000000000000000000000000000000000000000000000000000000000000000000000000000000000000000000000000000000000000000000000000000000000000000000000000000000000000000000000000000000000000000000000000000000000000000000000000000000000000000000000000000000000000000000000000000000000000000000000000000000000000000000000000000000000000000000000000000000000000000000000000000000000000000000000000000000000000000000000000000000000000000000000000000000000000000000000000000000000000000000000000000000000000000000000000000000000000000000000000000000000000000000000000000000000000000000000000000000000000000000000000000000000000000000000000000000000000000000000000000000000000000000000000000000000000000000000000000000000000000000000000000000000000000000000000000000000000000000000000000000000000000000000000000000000000000000000000000000000000000000000000000000000000000000000000000000000000000000000000000000000000000000000000000000000000000000000000000000000000000000000000000000000000000000000000000000000000000000000000000000000000000000000000000000000000000000000000000000000000000000000000000000000000000000000000000000000000000000000000000000000000000000000000000000000000000000000000000000000000000000000000000000000000000000000000000000000000000000000000000000000000000000000000000000000000000000000000000000000000000000000000000000000000000000000000000000000000000000000000
#06112:0014001400000000
#06117:00141400
#06116:24
#0301c:00120000
#03018:0012
#03015:0000001400000000
#0301a:0000001200140014
#03014:00000012
#03016:0000000000000012
#03012:1300140014120000
#03017:00000014
#0301b:13
#06012:000000000014000000000000000000000000140000000000140000000000000000000000140000000000000000000000
#06014:000000000014000000000000000000140000000000000000000000000000000000000000000000000000000000000000000000000000000000000000000000000000000000000000000000000000000000000000000000000000000000000000
#0601b:00130000
#0601a:240000000000000000000000000000000000000000000000000000000014000000000000000000000000140000000000
#06016:24000000000000142400000000000014
#06018:000000000000000000000000000000000000000000000000000000000000000000000000000000000000000000000000000000000014000000000000000000140000000000000000000000000000000000000000000000000000000000000000
#0601f:11
#0621b:1313
#06215:00000000000013000000140013000013
#06212:1313
#06217:0014000000000000
#06218:00000000130000130000000000001300
#03315:0000340000000013
#03317:0000000000130000
#03319:0000001300000000
#0331b:0013000000000000
#03312:00000014
#03318:0000000000000013
#0331a:00000014
#03314:0000003400000000
#03313:0034
#03615:0000340000000013
#03617:0000000000130000
#03619:0000001300000000
#0361b:0013000000000000
#03612:24000014
#03618:0000000000000013
#0361a:00000014
#03614:0000003400000000
#03613:0034
#03718:0000003400000013
#03716:0000000000130000
#03714:0000001300000000
#03712:0013000000001400
#0371a:00000014
#03715:0000000000000013
#03717:00340000
#03719:0034
#06917:0000141300000013
#0691b:0013000000130000
#06912:001400001c000013
#06916:0000000000130000
#06914:00000013
#06910:41
#07217:0000141300000013
#0721b:0013000000130000
#07212:001400001c000013
#07216:2300000000130000
#07214:00000013
#07316:0000001300000013
#07312:001300001c130000
#0731a:0014000000000000
#07315:00140000
#0731b:0000000000000013
#07317:0000000000130000
#07319:00000013
#07416:0013000000000013
#0741b:0000001300001300
#07412:1300000000130000
#02718:0000000000001313
#02715:00000000000000000000000000130013
#0271b:0000000000130000
#02712:00000000000000000000001300000000
#02716:24
#02515:0000140014000013
#02518:00000000000000000000000000000013
#02512:140000000000000000000000000000000000000000000000000000000000000000000000000000000000000000000000000000000000000000000000000000000000000000000000000000000000000000000000000000000000000000000000000000000000000000000000000000000000000000000000000000000000000000000000000000000000000000000000000000000000000000000000000000000000000000000000000000000000000000000000000000000000000000000000000000000000000000000000000000000000000000000000000000000000000000000000000000000000000000000000001500000000000000000000000000000000000000000000000000000000000000000000000000000000000000000000000000000000000000000000000000000000000000000000000000000000000000000000000000000000000000000000000000000000000000000000000000000000000000000000000000000000000000000000000000000000000000000000000000000000000000000000000000000000000000000000000000000000000000000000000000000000000000000000000000000000000000000000000000000000000000000000000000000000000000000000000000000000000000000000000000000000000000000000000000000000000000000000000000000000000000000000000000000000000000000000000000000000000000000000000000000000000000000000000000000000000000000000000000000000000000000000000000000000000000000000000000000000000000000000000000000000000000000000000000000000000000000000000000000000000000000000000000000000000000000000000000000000000000000000000000000000000000000000000000000000000000000000000000000000000000000000000000000000000000000000000000000000000000000000130000000000000000000000000000000000000000000000000000000000000000000000000000000000000000000000000000000000000000000000000000000000000000000000000000000000000000000000000000000000000000000000000000000000000000000000000000000000000000000000000000000000000000000000000000000000000000000000000000000000000000000000000000000000000000000000000000000000000000000000000000000000000000000000000000000000000000000000000000000000000000000000000000000000000000000000000000000000000000000000
#02517:000000000000000000000000000000000000000000000000000000000000000000000000000000000000000000000000000000000000000000000000000000000000000000000000000000000000000000000000000000000000000000000000000000000000000000000000000000000000000000000000000000000000000000000000000000000000000000000000000000000000000000000000000000000000000000000000000000000000000000000000000000000000000000000000000000000000000000000000000000000000000000000000000000000000000000000000000000000000000000000000000000000000000000000000000000000000000000000000000000000000000000000000000000000000000000000000000000000000000000000000000000000000000000000000000000000000000000000000000000000000000000000000000000000000000000000000000000000000000000000000001500000000000000000000000000000000000000000000000000000000000000000000000000000000000000000000000000000000000000000000000000000000000000000000000000000000000000000000000000000000000000000000000000000000000000000000000000000000000000000000000000000000000000000000000000000000000000000000000000000000000000000000000000000000000000000000000000000000000000000000000000000000000000000000000000000000000000000000000000000000000000000000000000000000000000000000000000000000000000000000000000000000000000000000000000000000000000000000000000000000000000000000000000000000000000000000000000000000000000000000000000000000000000000000000000000000000000000000000000000000000000000000000000000000000000000000000000000000000000000000000000000000000000000000000000000000000000000000000000000000000000000000000000000000000000000000000000000000000000000000000000000000000000000000000000000000000000000000000000000000000000000000000000000000000000000000000000000000000000000000000000000000000000000000000000000000000000000000000000000000000000000000000000000000000000000000000000000000000000000000000000000000000000000000000000000000000000000000000000000000000000000000000000000000000000000000000000000000000000000000
#0251a:0014001400000000
#02516:24
#0241a:000000000014000000000000000000000000140000000000140000000000000000000000140000000000000000000000
#02412:240000000000000000000000130000000000000000000000000000000014000000000000000000000000140000000000
#02416:24000000000000142400000000000014
#02418:000000000014000000000000000000140000000000000000000000000000000000000000000000000000000000000000000000000000000000000000000000000000000000000000000000000000000000000000000000000000000000000000
#02414:000000000000000000000000000000000000000000000000000000000000000000000000000000000000000000000000000000000014000000000000000000140000000000000000000000000000000000000000000000000000000000000000
#02612:1313
#02618:00000000000013000000000013000013
#02615:00001400130000130000000000001300
#0261b:1313
#02617:0000000000140000
#06716:24
#06712:0000000000000023
#0071b:23
#00712:23
#03117:0000000000000022
#05512:0024
#02252:14
#0225a:14
#02852:0053
#0285b:53
#02958:53533300
#02955:0023630043000000
#02952:0000002300000000
#0295b:0000002300000000
#0405b:53430000
#04052:00000013
#04057:0023000000000000
#04056:00330000
#00957:00130000
#00952:00130000
#01358:63
#0135b:63
#01359:0063
#01354:00630000
#01356:0063
#01352:00000063
#01555:32005353
#01558:00006363
#01559:42
#01552:0000000000230023
#0155b:0000000000230023
#01655:53
#01652:0000005300000000
#01658:63
#0165b:0000006300000000
#0175a:00240000000000000000000000000000
#01752:00240000000000000000000000000000
#04452:52
#04454:00000052
#04456:0000002200000000
#04552:0022000000000000
#0505c:62
#05058:00000000000000220000000000000000
#05054:0052005200000000
#05056:00220000
#05052:2222
#01857:53
#01852:0000001300000000
#0565a:00140000
#05958:16
#05952:16
#07856:53535300
#07852:0053000000530000
#07857:0053005300530000
#0785b:00530063
#00556:0063
#00559:00000063
#0055b:00630000
#00555:0000000000000023
#00552:0000000000230000
#00557:0000002300000000
#00652:63
#0065b:0000006300000000
#0085b:0000002300000000
#08258:16
#08252:16
#0195b:0000001300000000
#01956:63
#01952:0000005300000000
#05852:1414
#0585a:00140014
#00057:0000006300000000
#0005b:0023
#00256:0000005300000000
#00252:0023
#0045b:0000006300000000
#00457:0023
#03952:16
#04152:63330000
#0415b:00000013
#04156:0023000000000000
#04157:00430000
#01052:0000002300000000
#01252:0000005300000000
#0125b:0000005300000000
#01256:000000000000000000000000000000000000000000000000000000000000000000000000000000000000000000000000000000000000000000000000000000000000000000000000000000000000000000000000000000000000000000000023000000000000000000000000000000000000000000000000000000000000000000000000000000000000000000000000000000000000000000000000000000000000000000000000000000000000000000000000000000000000000000000000
#01257:0023
#0145b:53
#01456:0023000000000000
#02056:0000001300000000
#02057:5323
#0205b:0023006300000000
#05355:00000016
#03252:0013000000000000
#03254:0000001300000000
#03256:0000000000130000
#03258:0000000000000013
#0465c:62
#0465a:00000062
#04658:0000002200000000
#0475c:0022000000000000
#04852:52
#04854:00000052
#04856:0000002200000000
#0485a:0062006200000000
#04858:00220000
#0485c:2222
#04952:0022000000000000
#0035b:53
#00352:00630000
#02157:0000001300000000
#02156:6323
#02152:0023005300000000
#0845b:53
#08452:0000001300000000
#08456:1323005300000000
#08552:0023001300000000
#08557:63
#0855b:1300006300000000
#09254:005a00000000000000000000000000000000000000000000000000000000000000000000000000000000000000000000000000000000000000000000000000000000000000000000000000000000000000000000000000000000000000000000000000000000000000000000000000000000000000000000000000000000000000000000000000000000000000000000000000000000000000000000000000000000000000000000000000000000000000000000000000000000000000000000000000000000000000000000000000000000000000000000000000000000000000000000000000000000000000000000000000000000000000000000000000000000000000000000000000000000000000000000000000000000000000000000000000000000000000000000000000000000000000000000000000000000000000000000000000000000000000000000000000000000000000000000000000000000000000000000000000000000000000000000000000000000000000000000000000000000000000000000000000000000000000000000000000000000000000000000000000000000000000000000000000000000000000000000000000000000000000000000000000000000000000000000000000000000000000000000000000000000000000000000000000000000000000000000000000000000000000000000000000000000000000000000000000000000000000000000000000000000000000000000000000000000000000000000000000000000000000000000000000000000000000000000000000000000000000000000000000000000000000000000000000000000000000000000000000000000000000000000000000000000000000000000000000000000000000000000000000000000000000000000000000000000000000000000000000000000000000000000000000000000000000000000000000000000000000000000000000000000000000000000000000000000000000000000000000000000000000000000000000000000000000000000000000000000000000000000000000000000000000000000000000000000000000000000000000000000000000000000000000000000000000000000000000000000000000000000000000000000000000000000000000000000000000000000000000000000000000000000000000000000000000000000000000000000000000000000000000000000000000000000000000000000000000000000000000000000000000000000000000000000000000000000000000000000000000000000000000000000000000000000000000000000000000000000000000000000000000000000000000000000000000000000000000000000000000000000000000000000000000000000000000000000000000000000000000000000000000000000000000000000000000000000000000000000000000000000000000000000000000000000000000000000000000000000000000000000000000000000000000000000000000000000000000000000000000000000000000000000000000000000000000000000000000000000000000000000000000000000000000000000000000000000000000000000000000000000000000000000000000000000000000000000000000000000000000000000000000000000000000000000000000000000000000000000000000000000000000000000000000000000000000000000000000000000000000000000000000000000000000000000000000000000000000000000000000000000000000000000000000000000000000000000000000000000000000000000000000000000000000000000000000000000000000000000000000000000000000000000000000000000000000000000000000000000000000000000000000000000000000000000000000000000000000000000000000000000000000000000000000000000000000000000000000000000000000000000000000000000000000000000000000000000000000000000000000000000000000000000000000000000000000000000000000000000000000000000000000000000000000000000000000000000000000000000000000000000000000000000000000000000000000000000000000000000000000000000000000000000000000000000000000000000000000000000000000000000000000000000000000000000000000000000000000000000000000000000000000000000000000000000000000000000000000000000000000000000000000000000000000000000000000000000000000000000000000000000000000000000000000000000000000000000000000000000000000000000000000000000000000000000000000000000000000000000000000000000000000000000000000000000000000000000000000000000000000000000000000000000000000000000000000000000000000000000000000000000000000000000000000000000000000000000000000000000000000000000000000000000000000000000000000000000000000000000000000000000000000000000000000000000000000000000000000000000000000000000
#09252:000057000000000000000000000000000000000000000000000000000000000000000000000000000000000000000000000000000000000000000000000000000000000000000000000000000000000000000000000000000000000000000000000000000000000000000000000000000000000000000000000000000000000000000000000000000000000000000000000000000000000000000000000000000000000000000000000000000000000000000000000000000000000000000000000000000000000000000000000000000000000000000000000000000000000000000000000000000000000000000000000000000000000000000000000000000000000000000000000000000000000000000000000000000000000000000000000000000000000000000000000000000000000000000000000000000000000000000000000000000000000000000000000000000000000000000000000000000000000000000000000000000000000000000000000000000000000000000000000000000000000000000000000000000000000000000000000000000000000000000000000000000000000000000000000000000000000000000000000000000000000000000000000000000000000000000000000000000000000000000000000000000000000000000000000000000000000000000000000000000000000000000000000000000000000000000000000000000000000000000000000000000000000000000000000000000000000000000000000000000000000000000000000000000000000000000000000000000000000000000000000000000000000000000000000000000000000000000000000000000000000000000000000000000000000000000000000000000000000000000000000000000000000000000000000000000000000000000000000000000000000000000000000000000000000000000000000000000000000000000000000000000000000000000000000000000000000000000000000000000000000000000000000000000000000000000000000000000000000000000000000000000000000000000000000000000000000000000000000000000000000000000000000000000000000000000000000000000000000000000000000000000000000000000000000000000000000000000000000000000000000000000000000000000000000000000000000000000000000000000000000000000000000000000000000000000000000000000000000000000000000000000000000000000000000000000000000000000000000000000000002500000000000000000000000000000000000000000000000000000000000000000000000000000000000000000000000000000000000000000000000000000000000000000000000000000000000000000000000000000000000000000000000000000000000000000000000000000000000000000000000000000000000000000000000000000000000000000000000000000000000000000000000000000000000000000000000000000000000000000000000000000000000000000000000000000000000000000000000000000000000000000000000000000000000000000000000000000000000000000000000000000000000000000000000000000000000000000000000000000000000000000000000000000000000000000000000000000000000000000000000000000000000000000000000000000000000000000000000000000000000000000000000000000000000000000000000000000000000000000000000000000000000000000000000000000000000000000000000000000000000000000000000000000000000000000000000000000000000000000000000000000000000000000000000000000000000000000000000000000000000000000000000000000000000000000000000000000000000000000000000000000000000000000000000000000000000000000000000000000000000000000000000000000000000000000000000000000000000000000000000000000000000000000000000000000000000000000000000000000000000000000000000000000000000000000000000000000000000000000000000000000000000000000000000000000000000000000000000000000000000000000000000000000000000000000000000000000000000000000000000000000000000000000000000000000000000000000000000000000000000000000000000000000000000000000000000000000000000000000000000000000000000000000000000000000000000000000000000000000000000000000000000000000000000000000000000000000000000000000000005600000000000000000000000000000000000000000000000000000000000000000000000000000000000000000000000000000000000000000000000000000000000000000000000000000000000000000000000000000000000000000000000000000000000000000000000000000000000000000000000000000000000000000000000000000000000000000000000000000000000000000000000000000000000000000000000000000000000000000000
#09253:002b
#09255:0000000000000000000000000000000000000000000000000000000000590000
#08852:13
#0885b:0000001300000000
#08857:0000002300000000
#07655:53330000
#07657:00000013
#07658:00430000
#07652:0023000000001300
#08952:0023001300000000
#0895b:13
#08956:0000002300000000
#08957:63
#0355b:1313
#03555:00130000
#0685a:0054000000000000
#06855:00240000
#06852:0033000000330000
#06856:0000003300000033
#0905a:44
#09052:34
#07552:18
#07952:00130000
#0795b:00130000
#08352:00340000
#08358:00460000
#08652:63
#08657:1323006300000000
#0865b:0000001300000000
#08752:1300006300000000
#0875b:0023001300000000
#08756:53
#09357:00000000002700000000000000000000
#09352:000000000000000000000000000000000000000000000000000000000000000000000000000000000000000000000000000000000000000000000000000000000000000000000000000000000000000000000000000000000000000000000000000000000000000000000000000000000000000000000000000000000000000000000000000000000000000000000000000000000000000000000000000000000000000000000000000000000000000000000000000000000000000000000000000000000000000000000000000000000000000000000000000000000000000000000000000000000000000000000000000000000000000000000000000000000000000000000000000000000000000000000000000000000000000000000000000000000000000000000000000000000000000000000000000000000000000000000000000000000000000000000000000000000000000000000000000000000000000000000000000000000000000000000000000000000000000000000000000000000000000000000000000000000000000000000000000000000000000000000000000000000000000000000000000000000000000000000000000000000000000000000000000000000000000000000000000000000000000000000000000000000000000000000000000000000000000000000000000000000000000000000000000000000000000000000000000000000000000000000000000000000000000000000000000000000000000000000000000000000000000000000000000000000000000000000000000000000000000000000027000000000000000000000000000000000000000000000000000000000000000000000000000000000000000000000000000000000000000000000000000000000000000000000000000000000000000000000000000000000000000000000000000000000000000000000000000000000000000000000000000000000000000000000000000000000000000000000000000000000000000000000000000000000000000000000000000000000000000000000000000000000000000000000000000000000000000000000000000000000000000000000000000000000000000000000000000000000000000000000000000000000000000000000000000000000000000000000000000000000000000000000000000000000000000000000000000000000000000000000000000000000000000000000000000000000000000000000000000000000000000000000000000000000000000000000000000000000000000000000000000000000000000000000000000000000000000000000000000000000000000000000000000000000000000000000000000000000000000000000000000000000000000000000000000000000000000000000000000000000000000000000000000000000000000000000000000000000000000000000000000000000000000000000000000000000000000000000000000000000000000000000000000000000000000000000000000000000000000000000000000000000000000000000000000000000000000000000000000000000000000000000000000000000000000000000000000000000000000000000000000000000000000000000000000000000000000000000000000000000000000000000000000000000000000000000000000000000000000000000000000000000000000000000000000000000000000000000000000000000000000000000000000000000000000000000000000000000000000000000000000000000000000000000000000000000000000000000000000000000000000000000000000000000000000000000000000000000000000000000000000000000000000000000000000000000000000000000000000000000000000000000000000000000000000000000000000000000000000000000000000000000000000000000000000000000000000000000000000000000000000000000000000000000000000000000000000000000000000000000000000000000000000000000000000000000000000000000000000000000000000000000000000000000000000000000000000000000000000000000000000000000000000000000000000000000000000000000000000000000000000000000000000000000000000000000000000000000000000000000000000000000000000000000000000000000000000000000000000000000000000000000000000000000000000000000000000000000000000000000000000000000000000000000000000000000000000000000000000000000000000000000000000000000000000000000000000000000000000000000000000000000000000000000000000000000000000000000000000000000000000000000000000000000000000000000000000000000000000000000000000000000000000000000000000000000000000000000000000000000000000000000000000000000000000000000000000000000000000000000000000000000000000000000000000000000000000000000000000000000000000000000000000000000000000000000000000000000000000000000000
#07758:63430000
#07756:00000013
#07755:00330000
#0775b:0023000000001300
#07158:4646
#07152:00360000
#0645b:0063
#06452:63
#06555:63634300
#06558:0023530033000000
#0655b:0000002300000000
#06552:0000002300000000
#06352:0033
#06054:000000000064000000000000000000640000000000000000000000000000000000000000000000000000000000000000000000000000000000000000000000000000000000000000000000000000000000000000000000000000000000000000
#06052:000000000024000000000000000000000000000000000000000000000000000000000000000000000000000000000000
#0605a:140000000000000000000000000000000000000000000000000000000024000000000000000000000000000000000000
#06058:000000000000000000000000000000000000000000000000000000000000000000000000000000000000000000000000000000000054000000000000000000540000000000000000000000000000000000000000000000000000000000000000
#06056:2424
#06252:63
#06257:0024000000000000
#0625b:0053
#06255:0000000000240000
#03355:0000000000000013
#03357:0000000000130000
#03359:0000001300000000
#0335b:0013000000000000
#03655:0000000000000013
#03657:0000000000130000
#03659:0000001300000000
#0365b:0013000000000000
#03758:0000000000000013
#03756:0000000000130000
#03754:0000001300000000
#03752:0013000000000000
#06957:0000244300000043
#0695b:0043000000430000
#06952:0064000000000000
#07257:0000244300000043
#0725b:0043000000430000
#07252:0064000000000000
#07356:0000003300000033
#07352:0033000000330000
#0735a:0054000000000000
#07355:00240000
#08152:3434
#08156:00480048
#0805a:00440044
#08052:3838
#0615b:0043
#06156:54
#06157:00545400
#06159:000000000000000000000000000000000000000000000000000000000000000000000000000000000000000000000000000000000000000000000000000000000000000000000000000000000000000000000000000000000000000000000000000000000000000000000000000000000000000000000000000000000000000000000000000000000000000000000000000000000000000000000000000000000000000000000000000000000000000000000000000000000000000000000000000000000000000000000000000000000000000000000000000000000000000000000000000000000000000000000000005500000000000000000000000000000000000000000000000000000000000000000000000000000000000000000000000000000000000000000000000000000000000000000000000000000000000000000000000000000000000000000000000000000000000000000000000000000000000000000000000000000000000000000000000000000000000000000000000000000000000000000000000000000000000000000000000000000000000000000000000000000000000000000000000000000000000000000000000000000000000000000000000000000000000000000000000000000000000000000000000000000000000000000000000000000000000000000000000000000000000000000000000000000000000000000000000000000000000000000000000000000000000000000000000000000000000000000000000000000000000000000000000000000000000000000000000000000000000000000000000000000000000000000000000000000000000000000000000000000000000000000000000000000000000000000000000000000000000000000000000000000000000000000000000000000000000000000000000000000000000000000000000000000000000000000000000000000000000000000000000000000000000000000000000000000000000000000000000000000000000000000000000000000000000000000000000000000000000000000000000000000000000000000000000000000000000000000000000000000000000000000000000000000000000000000000000000000000000000000000000000000000000000000000000000000000000000000000000000000000000000000000000000000000000000000000000000000000000000000000000000000000000000000000000000000000000000000000000000000000000000000000000000000000000000000000000000000000000000000000
#06154:000000000000000000000000000000000000000000000000000000000000000000000000000000000000000000000000000000000000000000000000000000000000000000000000000000000000000000000000000000000000000000000000000000000000000000000000000000000000000000000000000000000000000000000000000000000000000000000000000000000000000000000000000000000000000000000000000000000000000000000000000000000000000000000000000000000000000000000000000000000000000000000000000000000000000000000000000000000000000000000000000000000000000000000000000000000000000000000000000000000000000000000000000000000000000000000000000000000000000000000000000000000000000000000000000000000000000000000000000000000000000000000000000000000000000000000000000000000000000000000000002500000000000000000000000000000000000000000000000000000000000000000000000000000000000000000000000000000000000000000000000000000000000000000000000000000000000000000000000000000000000000000000000000000000000000000000000000000000000000000000000000000000000000000000000000000000000000000000000000000000000000000000000000000000000000000000000000000000000000000000000000000000000000000000000000000000000000000000000000000000000000000000000000000000000000000000000000000000000000000000000000000000000000000000000000000000000000000000000000000000000000000000000000000000000000000000000000000000000000000000000000000000000000000000000000000000000000000000000000000000000000000000000000000000000000000000000000000000000000000000000000000000000000000000000000000000000000000000000000000000000000000000000000000000000000000000000000000000000000000000000000000000000000000000000000000000000000000000000000000000000000000000000000000000000000000000000000000000000000000000000000000000000000000000000000000000000000000000000000000000000000000000000000000000000000000000000000000000000000000000000000000000000000000000000000000000000000000000000000000000000000000000000000000000000000000000000000000000000000000000
#06152:0024002400000000
#02557:000000000000000000000000000000000000000000000000000000000000000000000000000000000000000000000000000000000000000000000000000000000000000000000000000000000000000000000000000000000000000000000000000000000000000000000000000000000000000000000000000000000000000000000000000000000000000000000000000000000000000000000000000000000000000000000000000000000000000000000000000000000000000000000000000000000000000000000000000000000000000000000000000000000000000000000000000000000000000000000000000000000000000000000000000000000000000000000000000000000000000000000000000000000000000000000000000000000000000000000000000000000000000000000000000000000000000000000000000000000000000000000000000000000000000000000000000000000000000000000000002500000000000000000000000000000000000000000000000000000000000000000000000000000000000000000000000000000000000000000000000000000000000000000000000000000000000000000000000000000000000000000000000000000000000000000000000000000000000000000000000000000000000000000000000000000000000000000000000000000000000000000000000000000000000000000000000000000000000000000000000000000000000000000000000000000000000000000000000000000000000000000000000000000000000000000000000000000000000000000000000000000000000000000000000000000000000000000000000000000000000000000000000000000000000000000000000000000000000000000000000000000000000000000000000000000000000000000000000000000000000000000000000000000000000000000000000000000000000000000000000000000000000000000000000000000000000000000000000000000000000000000000000000000000000000000000000000000000000000000000000000000000000000000000000000000000000000000000000000000000000000000000000000000000000000000000000000000000000000000000000000000000000000000000000000000000000000000000000000000000000000000000000000000000000000000000000000000000000000000000000000000000000000000000000000000000000000000000000000000000000000000000000000000000000000000000000000000000000000000000
#02552:000000000000000000000000000000000000000000000000000000000000000000000000000000000000000000000000000000000000000000000000000000000000000000000000000000000000000000000000000000000000000000000000000000000000000000000000000000000000000000000000000000000000000000000000000000000000000000000000000000000000000000000000000000000000000000000000000000000000000000000000000000000000000000000000000000000000000000000000000000000000000000000000000000000000000000000000000000000000000000000000006500000000000000000000000000000000000000000000000000000000000000000000000000000000000000000000000000000000000000000000000000000000000000000000000000000000000000000000000000000000000000000000000000000000000000000000000000000000000000000000000000000000000000000000000000000000000000000000000000000000000000000000000000000000000000000000000000000000000000000000000000000000000000000000000000000000000000000000000000000000000000000000000000000000000000000000000000000000000000000000330000000000000000000000000000000000000000000000000000000000000000000000000000000000000000000000000000000000000000000000000000000000000000000000000000000000000000000000000000000000000000000000000000000000000000000000000000000000000000000000000000000000000000000000000000000000000000000000000000000000000000000000000000000000000000000000000000000000000000000000000000000000000000000000000000000000000000000000000000000000000000000000000000000000000000000000000000000000000000000000000000000000000000000000000000000000000000000000000000000000000000000000000000000000000000000000000000000000000000000000000000000000000000000000000000000000000000000000000000000000000000000000000000000000000000000000000000000000000000000000000000000000000000000000000000000000000000000000000000000000000000000000000000000000000000000000000000000000000000000000000000000000000000000000000000000000000000000000000000000000000000000000000000000000000000000000000000000000000000000000
#0255a:0024002400000000
#02555:00646400
#02556:64
#02452:140000000000000000000000000000000000000000000000000000000024000000000000000000000000000000000000
#02456:2424
#0245a:000000000024000000000000000000000000000000000000000000000000000000000000000000000000000000000000
#02458:000000000054000000000000000000540000000000000000000000000000000000000000000000000000000000000000000000000000000000000000000000000000000000000000000000000000000000000000000000000000000000000000
#02454:000000000000000000000000000000000000000000000000000000000000000000000000000000000000000000000000000000000064000000000000000000640000000000000000000000000000000000000000000000000000000000000000
#0275b:0043
#02657:0000000000240000
#02652:0063
#0265b:53
#02655:0024000000000000
#09152:003c3a38
#000370:0000001300230000
#0003b0:0053
#002360:0000001300230000
#002320:0053
#0033b0:13
#003360:00230000
#003321:00130000
#003371:0023
#0043b1:0000001300230000
#004371:0053
#0053b1:00130000
#005371:0000005300000000
#0053a1:0023
#005360:0013
#005320:0000000000530000
#005350:00000023
#005391:00000013
#005351:0000000000000053
#006381:23
#006320:13
#006370:00230000
#0063b0:0000001300000000
#006360:0000000000230000
#0083b0:0000001300000000
#008370:0000000000230000
#010320:0000001300000000
#010360:0000000000230000
#011380:1323000000000000
#011390:0000132300000000
#0113a0:0000000013230000
#0113b0:0000000000001323
#0123b0:0000001300230000
#012370:0053
#012321:0000001300230000
#012361:000000000000000000000000000000000000000000000000000000000000000000000000000000000000000000000000000000000000000000000000000000000000000000000000000000000000000000000000000000000000000000000053000000000000000000000000000000000000000000000000000000000000000000000000000000000000000000000000000000000000000000000000000000000000000000000000000000000000000000000000000000000000000000000000
#013381:13
#013341:00330000
#013361:0033
#013321:00000033
#014361:23
#0133b0:13
#013370:00230000
#013390:0013
#013350:00000023
#0143b0:13230000
#014360:0053000000000000
#0143b0:0000000000120000
#014380:000000000000000000000000000000000000000000000000000000000000000000000000000000000000000000000000000000000000000000000000000000000000000000000000000000000000000000000000000000000000000000000000000000000000000000000000000000000000000000000000000000000000000000000000000000000000000000000000000000000000000000000000000000000000000000000000000000000000000000000000000000000000000000000000000000000000000000000000000000000000000000000000000000000000000000000000000000000000000000000000000000000000000000000000000000000000000000000000000000000000000000000000000000000000000000000000000000000000000000000000000000000000000000000000000000000000000000000000000000000000000000000000000000000000000000000000000000000000000000000000000000000000000000000000000000000000000000000000000000000000000000000000000000000000000000000000000000000000000000000000000000000000000000000000000000000000000000000000000000000000000000000000000000000000000000000000000000000000000000000000000000000000000000000000000000000000000000000000000000000000000000000000000000000000000000000000000000000000000000000000000000000000000000000000000000000000000000000000000000000000000000000000000000000000000000000000000000000000000000000000000000000000000000000000000000000000000000000000000000000000000000000000000000000000000000000000000000000000000000000000000000000000000000000000000000000000000000000000000000000000000000000000000000000000000000000000000000000000000000000000000000000000000000000000000000000000000000000000000000000000000000000000000000000000000000000000000000000000000000000000000000000000000000000000000000000000000000000000000000000000000000000000000000000000000000000000000000000000000000000000000000000000000000000000000000000000000000000000000000000000000000000000000000000000000000000000000000000000000000000000000000000000000000000000000000000000000000000000000000000000000000000000000000000000000000000000000000000000000000000000000000000000000000000000000000000000000000000000000000000000000000000000000000000000000000000000000000000000000000000000000000000000000000000000000000000000000000000000000000000000000000000000000000000000000000000000000000000000000000000000000000000000000000000000000000000000000000000000000000000000000000000000000000000000000000000000000000000000000000000000000000000000000000000000000000000000000000000000000000000000000000000000000000000000000000000000000000000000000000000000000000000000000000000000000000000000000000000000000000000000000000000000000000000000000000000000000000000000000000000000000000000000000000000000000000000000000000000000000000000000000000000000000000005400000000000000000000000000000000000000000000000000000000000000000000000000000000000000000000000000000000000000000000000000000000000000000000000000000000000000000000000000000000000000000000000000000053000000000000000000000000000000000000000000000000000000000000000000000000000000330000000000000000000000000000000000000000000000000000000000000000000000000000000000000000000000000000000000000000000000000000000000000000000000000000000000000056530000000000000000000000000000000000000000000000000000000000000000000000000000000000000000000000000000000000000000000000000000000000000000000000000000000000000000000000000000000000000000000000000000000000000000000000000000000000000000000000000000000000000000000000000000000000000000000000000000000000000000000000000000220000000000000000000000000000000000000000000000000000000000000000000000000000000000000000000000000000000000000000000000000000000000000000000000000000000000000000000000000000000000000000000000000000000000000000000000000000000000000000000000000000000000000000000000000000000000000000000000000000000000000000000000000000000000000000000000000000000000000000000000000000000000000000000000000000000000000000000000000000000000000000000000000000000000000000000000000000000000000000000000
#014331:0000000000120000
#014341:000000000000000000000000000000000000000000000000000000000000000000000000000000000000000000000000000000000000000000000000000000000054000000000000000000000000000000000000000000000000000000000000
#014351:000000000000000000000000000000000000000000000000000000000000000000000000000000000000000000000000000000000000000000000000000000000000000000000000000000000000000000000000000000000000000000000000000000000000000000000000000000000000000000000000000000000000000000000000000000000000000000000000000000000000000000000000000000000000000000000000000000000000000000000000000000000000000000000000000000000000000000000000000000000000000000000000000000000000000000000000000000000000000000000000000000000000000000000000000000000000000000000000000000000000000000000000000000000000000000000000000000000000000000000000000000000000000000000000000000000000000000000000000000000000000000000000000000000000000000000000000000000000000000000000000000000000000000000000000000000000000000000000000000000000000000000000000000000000000000000000000000000000000000000000000000000000000000000000000000000000000000000000000000000000000000000000000000000000000000000000000000000000000000000000000000000000000000000000000000000000000000000000000000000000000000000000000000000000000000000000000000000000000000000000000000000000000000000000000000000000000000000000000000000000000000000000000000000000000000000000000000000000000000000000000000000000000000000000000000000000000000000000000000000000000000000000000000000000000000000000000000000000000000000000000000000000000000000000000000000000000000000000000000000000000000000000000000000000000000000000000000000000000000000000000000000000000000000000000000000000000000000000000000000000000000000000000000000000000000000000000000000000000000000000000000000000000000000000000000000000000000000000000000000000000000000000000000000000000000000000000000000000000000000000000000000000000000000000000000000000000000000000000000000000000000000000000000000000000000000000000000000000000000000000000000000000000000000000000000000000000000000000000000000000000000000000000000000000000000000000000000000000000000000000000000000000000000000000000000000000000000000000000000000000000000000000000000000000000000000000000000000000000000000000000000000000000000000000000000000000000000000000000000000000000000000000000000000000000000000000000000000000000000000000000000000000000000000000000000000000000000000000000000000000000000000000000000000000000000000000000000000000000000000000000000000000000000000000000000000000000000000000000000000000000000000000000000000000000000000000000000000000000000000000000000000000000000000000000000000000000000000000000000000000000000000000000000000000000000000000000000000000000000000000000000000000000000000000000000000000000000000000000000000000000000000000000000000000000000000000000000000000000000000000000000000000000000000000000000000000000000000000000000000000000000000000000000000000000000000000000000000000000000000000000000000000000000000000000000000000000053000000000000000000000000000000000000000000000000000000000000000000000000000000330000000000000000000000000000000000000000000000000000000000000000000000000000000000000000000000000000000000000000000000000000000000000000000000000000000000000000530000000000000000000000000000000000000000000000000000000000000000000000000000000000000000000000000000000000000000000000000000000000000000000000000000000000000000000000000000000000000000000000000000000000000000000000000000000000000000000000000000000000000000000000000000000000000000000000000000000000000000000000000000000000000000000000000000000000000000000000000000000000000000000000000000000000000000000000000000000000000000000000000000000000000000000000000000000000000000000000000000000000000000000000000000000000000000000000000000000000000000000000000000000000000000000000000000000000000000000000000000000000000000000000000000000000000000000000000000000000000000000000000000000000000000000000000000000000000000000000000000000000000000000000000000000000000000000000000000000000000000000000000000
#014321:000000000000000000000000000000000000005600000000
#014361:0000000000000022
#015351:00001333
#015321:0000000000530053
#016351:33
#016321:0000003300000000
#0173a1:00540000000000000000000000000000
#017321:00000023
#015380:00001333
#0153b0:0000000000530053
#016380:33
#0163b0:0000003300000000
#017320:00540000000000000000000000000000
#0173b0:00000023
#018370:13
#0183b0:00230000
#019360:13
#019320:00230000
#019320:0000001300000000
#019360:0023
#020370:13230000
#0203b0:0053000000000000
#0203b0:0000001300230000
#020370:0053
#021360:13230000
#021320:0053000000000000
#021320:0000001300230000
#021360:0053
#023380:0016
#0233b0:0000000000000023
#024360:140000000054000000000000000000000000000000000000
#024380:000000000054000000000000000000540000000000000000000000000000000000000000000000000000000000000000000000000000000000000000000000000000000000000000000000000000000000000000000000000000000000000000
#0243a0:000000000054000000000000000000000000000000000000000000000000000000000000000000000000000000000000
#024350:0000000000000000000000000000000000000000000000000000000000000000000000000000000000000000000000000000000000000000000000000000000000000056000000000000000000000000000000000000000000000000000000000000000000000000000000000000000000000000000000000000000000000000000000000000000000000000000000000000000000000000000000000000000000000000000000000000000000000000000000000000000000000000000000000000000000000000000000000000000000000000000000000000000000000000000000000000000000000000000000000000000000000000000000000000000000000000000000000000000000000000000000000000000000000000000000000000000000000000000000000000000000000000000000000000000000000000
#024370:00220000
#024360:000000000000000000000000140000000054000000000000
#024340:000000000000000000000000000000000000000000000000000000000000000000000000000000000000000000000000000000000054000000000000000000540000000000000000000000000000000000000000000000000000000000000000
#024320:000000000000000000000000000000000000000000000000000000000054000000000000000000000000000000000000
#024350:0000000000000000000000000000000000000000000000000000000000000000000000000000000000000000000000000000000000000000000000000000000000000000000000000000000000000000000000000000000000000000000000000000000000000000000000000000000000000000000000000000000000000000000000000000000000000000000000000000000000000000000000000000000000000000000000000000000000000000000000000000000000000000000000000000000000000000000000000000000000000000000000000000000000000000000000560000000000000000000000000000000000000000000000000000000000000000000000000000000000000000000000000000000000000000000000000000000000000000000000000000000000000000000000000000000000000000
#024370:00000022
#025360:14
#0253a0:0054005400002400
#025350:00545400
#025321:000000000000000000000000000000000000000000000000000000000000000000000000000000000000000000000000000000000000000000000000000000000000000000000000000000000000000000000000000000000000000000000000000000000000000000000000000000000000000000000000000000000000000000000000000000000000000000000000000000000000000000000000000000000000000000000000000000000000000000000000000000000000000000000000000000000000000000000000000000000000000000000000000000000000000000000000000000000000000000000000135500000000000000000000000000000000000000000000000000000000000000000000000000000000000000000000000000000000000000000000000000000000000000000000000000000000000000000000000000000000000000000000000000000000000000000000000000000000000000000000000000000000000000000000000000000000000000000000000000000000000000000000000000000000000000000000000000000000000000000000000000000000000000000000000000000000000000000000000000000000000000000000000000000000000000000000000000000000000000000055230000000000000000000000000000000000000000000000000000000000000000000000000000000000000000000000000000000000000000000000000000000000000000000000000000000000000000000000000000000000000000000000000000000000000000000000000000000000000000000000000000000000000000000000000000000000000000000000000000000000000000000000000000000000000000000000000000000000000000000000000000000000000000000000000000000000000000000000000000000000000000000000000000000000000000000000000000000000000000000000000000000000000000000000000000000000000000000000000000000000000000000000000000000000000000000000000000000000000000000000000000000000000000000000000000000000000000000000000000000000000000000000000000000000000000000000000000000000000000000000000000000000000000000000000000000000000000000000000000000000000000000000000000000000000000000000000000000000000000000000000000000000000000000000000000000000000000000000000000000000000000000000000000000000000000000000000000000000000000000000
#025371:000000000000000000000000000000000000000000000000000000000000000000000000000000000000000000000000000000000000000000000000000000000000000000000000000000000000000000000000000000000000000000000000000000000000000000000000000000000000000000000000000000000000000000000000000000000000000000000000000000000000000000000000000000000000000000000000000000000000000000000000000000000000000000000000000000000000000000000000000000000000000000000000000000000000000000000000000000000000000000000000000000000000000000000000000000000000000000000000000000000000000000000000000000000000000000000000000000000000000000000000000000000000000000000000000000000000000000000000000000000000000000000000000000000000000000000000000000000000000000000000005500000000000000000000000000000000000000000000000000000000000000000000000000000000000000000000000000000000000000000000000000000000000000000000000000000000000000000000000000000000000000000000000000000000000000000000000000000000000000000000000000000000000000000000000000000000000000000000000000000000000000000000000000000000000000000000000000000000000000000000000000000000000000000000000000000000000000000000000000000000000000000000000000000000000000000000000000000000000000000000000000000000000000000000000000000000000000000000000000000000000000000000000000000000000000000000000000000000000000000000000000000000000000000000000000000000000000000000000000000000000000000000000000000000000000000000000000000000000000000000000000000000000000000000000000000000000000000000000000000000000000000000000000000000000000000000000000000000000000000000000000000000000000000000000000000000000000000000000000000000000000000000000000000000000000000000000000000000000000000000000000000000000000000000000000000000000000000000000000000000000000000000000000000000000000000000000000000000000000000000000000000000000000000000000000000000000000000000000000000000000000000000000000000000000000000000000000000000000000000000
#0263b0:13230000
#026350:0054000000000000
#026320:00001323
#026370:0000000000540000
#027360:1400000000240000
#0273b1:1323
#027321:00330000
#0283b0:13
#028360:0023000000000000
#028320:0013
#028370:0000000000230000
#029380:13332300
#029350:0033000000000000
#0293b0:0000003300000000
#029351:00132300
#029321:0000005300000000
#0323a1:1400000000240000
#032351:0034000000000000
#032371:00340000
#032381:0000003400000000
#032391:0034
#033321:1400000000240000
#033371:0034000000000000
#033351:00340000
#033341:0000003400000000
#033331:0034
#034321:1323000000000000
#034351:0000132300000000
#034381:0000000013230000
#0343b1:0000000000001323
#036321:1400000000240000
#036371:0034000000000000
#036351:00340000
#036341:0000003400000000
#036331:0034
#0373a1:1400000000240000
#037351:0034000000000000
#037371:00340000
#037381:0000003400000000
#037391:0034
#0383b1:1323000000000000
#038381:0000132300000000
#038351:0000000013230000
#038321:0000000000001323
#0403b1:13230000
#040371:0053000000000000
#041321:13230000
#041361:0053000000000000
#044321:12
#044361:0000005200000000
#044341:00000052
#045321:0052000000000000
#045361:0022
#0463c1:12
#046381:0000005200000000
#0463a1:00000052
#0473c1:0052000000000000
#047381:0022
#048321:12
#048361:0000005200000000
#048341:00000052
#049321:0052000000000000
#049361:0022
#0483c0:1232
#0483a0:0032003200000000
#048380:00320022
#0503c1:1200000000000022
#050381:00000000000000520000000000000000
#050320:1200000032320000
#050340:0032003200000000
#050360:0000320000000022
#055380:160000000000000000000000560000000000000000000000560000000000000056000000000000560000000000560000000056000000560000005600000056000000560000005600000056000000560000005600000056000000000000000000
#055360:000000560000000000560000000056000000560000560000560056005600560056005600560056005600560026000000
#055321:000000000000000000000000145454545454545454542400
#055341:000000000000000000000000000000000000000000000000005400540054005400540054005400540054005400000000
#056321:000000000000145454545454545454000000000000000000
#056331:000000000000000000000000005400540054005400540054005400540000540000000000000000000000000000000000
#056341:000000000000000000000000000000000000000000000000000000000054000054000000000000000000000000000000
#056351:000000000000000000000000000000000000000000000000000000000000005400005400000000000000000000000000
#056361:00000000000000000000005424000000
#056371:000000000000000000000000000000000000000000000000000000000000000000000054000000000000000000000000
#0563b1:000000000000000000000000000000000000000000135300
#056391:000000000000000000000000000000000000000000000000000000000000000000000000000000000000005300330053
#056371:000000000000000000000000000000000000000000000053
#057371:23
#058321:000000000000000000000000000000000000145454545454
#058341:000000000000000000000000000000000000000000000000000000000000000000000000005400540054005400540054
#059321:26
#059361:00000000135300000000000000000000
#059371:000000000000000000000000005300000000000000000000000000000000000000000000000000000000000000000000
#059341:000000000000005300000000000000000000000000000000
#059331:005300
#059351:000000000000000000000000000000000053000000000000000000000000000000000000000000000000000000000000
#059321:0000002300000000
#059370:00000000000013530000000000000000
#059360:000000000000000000000000000000000000005300000000000000000000000000000000000000000000000000000000
#059390:000000000000000000000000000000000000000053000000005300530053005300530053000000000000000000000000
#0593a0:000000000000000000000053000000000000000000000000
#059380:000000000000000000000000000000000000000000000053000000000000000000000000000000000000000000000000
#0593b0:000000000000000000000000535353535353230000000000
#060360:140000000054000000000000000000000000000000000000
#060340:000000000054000000000000000000540000000000000000000000000000000000000000000000000000000000000000000000000000000000000000000000000000000000000000000000000000000000000000000000000000000000000000
#060320:000000000054000000000000000000000000000000000000000000000000000000000000000000000000000000000000
#060350:0000000000000000000000000000000000000000000000000000000000000000000000000000000000000000000000000000000000000000000000000000000000000056000000000000000000000000000000000000000000000000000000000000000000000000000000000000000000000000000000000000000000000000000000000000000000000000000000000000000000000000000000000000000000000000000000000000000000000000000000000000000000000000000000000000000000000000000000000000000000000000000000000000000000000000000000000000000000000000000000000000000000000000000000000000000000000000000000000000000000000000000000000000000000000000000000000000000000000000000000000000000000000000000000000000000000000000
#060370:00220000
#060360:000000000000000000000000140000000054000000000000
#060380:000000000000000000000000000000000000000000000000000000000000000000000000000000000000000000000000000000000054000000000000000000540000000000000000000000000000000000000000000000000000000000000000
#0603a0:000000000000000000000000000000000000000000000000000000000054000000000000000000000000000000000000
#060350:0000000000000000000000000000000000000000000000000000000000000000000000000000000000000000000000000000000000000000000000000000000000000000000000000000000000000000000000000000000000000000000000000000000000000000000000000000000000000000000000000000000000000000000000000000000000000000000000000000000000000000000000000000000000000000000000000000000000000000000000000000000000000000000000000000000000000000000000000000000000000000000000000000000000000000000000560000000000000000000000000000000000000000000000000000000000000000000000000000000000000000000000000000000000000000000000000000000000000000000000000000000000000000000000000000000000000000
#060370:00000022
#061360:14
#061320:0054005400002400
#061370:00545400
#0613b1:00132300
#061391:000000000000000000000000000000000000000000000000000000000000000000000000000000000000000000000000000000000000000000000000000000000000000000000000000000000000000000000000000000000000000000000000000000000000000000000000000000000000000000000000000000000000000000000000000000000000000000000000000000000000000000000000000000000000000000000000000000000000000000000000000000000000000000000000000000000000000000000000000000000000000000000000000000000000000000000000000000000000000000000000005500000000000000000000000000000000000000000000000000000000000000000000000000000000000000000000000000000000000000000000000000000000000000000000000000000000000000000000000000000000000000000000000000000000000000000000000000000000000000000000000000000000000000000000000000000000000000000000000000000000000000000000000000000000000000000000000000000000000000000000000000000000000000000000000000000000000000000000000000000000000000000000000000000000000000000000000000000000000000000055000000000000000000000000000000000000000000000000000000000000000000000000000000000000000000000000000000000000000000000000000000000000000000000000000000000000000000000000000000000000000000000000000000000000000000000000000000000000000000000000000000000000000000000000000000000000000000000000000000000000000000000000000000000000000000000000000000000000000000000000000000000000000000000000000000000000000000000000000000000000000000000000000000000000000000000000000000000000000000000000000000000000000000000000000000000000000000000000000000000000000000000000000000000000000000000000000000000000000000000000000000000000000000000000000000000000000000000000000000000000000000000000000000000000000000000000000000000000000000000000000000000000000000000000000000000000000000000000000000000000000000000000000000000000000000000000000000000000000000000000000000000000000000000000000000000000000000000000000000000000000000000000000000000000000000000000000000000000000000000000
#061341:000000000000000000000000000000000000000000000000000000000000000000000000000000000000000000000000000000000000000000000000000000000000000000000000000000000000000000000000000000000000000000000000000000000000000000000000000000000000000000000000000000000000000000000000000000000000000000000000000000000000000000000000000000000000000000000000000000000000000000000000000000000000000000000000000000000000000000000000000000000000000000000000000000000000000000000000000000000000000000000000000000000000000000000000000000000000000000000000000000000000000000000000000000000000000000000000000000000000000000000000000000000000000000000000000000000000000000000000000000000000000000000000000000000000000000000000000000000000000000000000005500000000000000000000000000000000000000000000000000000000000000000000000000000000000000000000000000000000000000000000000000000000000000000000000000000000000000000000000000000000000000000000000000000000000000000000000000000000000000000000000000000000000000000000000000000000000000000000000000000000000000000000000000000000000000000000000000000000000000000000000000000000000000000000000000000000000000000000000000000000000000000000000000000000000000000000000000000000000000000000000000000000000000000000000000000000000000000000000000000000000000000000000000000000000000000000000000000000000000000000000000000000000000000000000000000000000000000000000000000000000000000000000000000000000000000000000000000000000000000000000000000000000000000000000000000000000000000000000000000000000000000000000000000000000000000000000000000000000000000000000000000000000000000000000000000000000000000000000000000000000000000000000000000000000000000000000000000000000000000000000000000000000000000000000000000000000000000000000000000000000000000000000000000000000000000000000000000000000000000000000000000000000000000000000000000000000000000000000000000000000000000000000000000000000000000000000000000000000000000000
#062320:13230000
#062370:0054000000000000
#0623b0:00001323
#062350:0000000000540000
#063360:1400000000240000
#063321:1323
#0633b1:00330000
#064320:13
#064370:0023000000000000
#0643b0:0013
#064360:0000000000230000
#065350:13332300
#065380:0033000000000000
#065320:0000003300000000
#065381:00132300
#0653b1:0000005300000000
#068371:13
#0683a1:0034002400000000
#068351:00340000
#069361:13
#069321:0034002300000000
#069371:00340000
#070361:13230000
#070321:0033000000000000
#0703b0:00132300
#070370:0000003300000000
#070321:0013
#070371:0000000000230000
#070361:00000013
#0703b1:0000000000000023
#072361:13
#072321:0034002400000000
#072371:00340000
#073371:13
#0733a1:0034000000000000
#073351:00340000
#0733b1:0000002300000000
#074371:13230000
#0743b1:0033000000000000
#074320:00132300
#074360:0000003300000000
#0743b1:0013
#074361:0000000000230000
#074371:00000013
#074321:0000000000000023
#076351:13230000
#076321:0053000000000000
#077381:13230000
#0773b1:0053000000000000
#078361:13330000
#078321:0033002300000000
#078370:0013003300000000
#0783b0:00332300
#078361:00001323
#078321:0000000000330000
#078370:0000000000130023
#0783b0:00000033
#0843b0:13230000
#084360:0053000000000000
#084360:0000001300000000
#0843b0:0000000000230000
#085370:13230000
#085320:0053000000000000
#0853b0:0000001300000000
#085360:0000000000230000
#086320:13230000
#086370:0053000000000000
#086370:0000001300000000
#086320:0000000000230000
#087360:13230000
#0873b0:0053000000000000
#087320:0000001300000000
#087370:0023
#088370:0000001300000000
#088320:0000000000230000
#089370:13230000
#089320:0053000000000000
#089360:0000001300000000
#0893b0:0000000000230000
#092380:16
#092340:005a00000000000000000000000000000000000000000000000000000000000000000000000000000000000000000000000000000000000000000000000000000000000000000000000000000000000000000000000000000000000000000000000000000000000000000000000000000000000000000000000000000000000000000000000000000000000000000000000000000000000000000000000000000000000000000000000000000000000000000000000000000000000000000000000000000000000000000000000000000000000000000000000000000000000000000000000000000000000000000000000000000000000000000000000000000000000000000000000000000000000000000000000000000000000000000000000000000000000000000000000000000000000000000000000000000000000000000000000000000000000000000000000000000000000000000000000000000000000000000000000000000000000000000000000000000000000000000000000000000000000000000000000000000000000000000000000000000000000000000000000000000000000000000000000000000000000000000000000000000000000000000000000000000000000000000000000000000000000000000000000000000000000000000000000000000000000000000000000000000000000000000000000000000000000000000000000000000000000000000000000000000000000000000000000000000000000000000000000000000000000000000000000000000000000000000000000000000000000000000000000000000000000000000000000000000000000000000000000000000000000000000000000000000000000000000000000000000000000000000000000000000000000000000000000000000000000000000000000000000000000000000000000000000000000000000000000000000000000000000000000000000000000000000000000000000000000000000000000000000000000000000000000000000000000000000000000000000000000000000000000000000000000000000000000000000000000000000000000000000000000000000000000000000000000000000000000000000000000000000000000000000000000000000000000000000000000000000000000000000000000000000000000000000000000000000000000000000000000000000000000000000000000000000000000000000000000000000000000000000000000000000000000000000000000000000000000000000000000000000000000000000000000000000000000000000000000000000000000000000000000000000000000000000000000000000000000000000000000000000000000000000000000000000000000000000000000000000000000000000000000000000000000000000000000000000000000000000000000000000000000000000000000000000000000000000000000000000000000000000000000000000000000000000000000000000000000000000000000000000000000000000000000000000000000000000000000000000000000000000000000000000000000000000000000000000000000000000000000000000000000000000000000000000000000000000000000000000000000000000000000000000000000000000000000000000000000000000000000000000000000000000000000000000000000000000000000000000000000000000000000000000000000000000000000000000000000000000000000000000000000000000000000000000000000000000000000000000000000000000000000000000000000000000000000000000000000000000000000000000000000000000000000000000000000000000000000000000000000000000000000000000000000000000000000000000000000000000000000000000000000000000000000000000000000000000000000000000000000000000000000000000000000000000000000000000000000000000000000000000000000000000000000000000000000000000000000000000000000000000000000000000000000000000000000000000000000000000000000000000000000000000000000000000000000000000000000000000000000000000000000000000000000000000000000000000000000000000000000000000000000000000000000000000000000000000000000000000000000000000000000000000000000000000000000000000000000000000000000000000000000000000000000000000000000000000000000000000000000000000000000000000000000000000000000000000000000000000000000000000000000000000000000000000000000000000000000000000000000000000000000000000000000000000000000000000000000000000000000000000000000000000000000000000000000000000000000000000000000000000000000000000000000000000000000000000000000000000000000000000000000000000000000000000000000000000000000000000000000000000000000000000000000000000000000000000000000000000000000000000000
#092330:005b
#092350:0000000000000000000000000000000000000000000000000000000000590000
#093370:00000000005700000000000000000000
#093360:0000000000000028
#092321:160057000000000000000000000000000000000000000000000000000000000000000000000000000000000000000000000000000000000000000000000000000000000000000000000000000000000000000000000000000000000000000000000000000000000000000000000000000000000000000000000000000000000000000000000000000000000000000000000000000000000000000000000000000000000000000000000000000000000000000000000000000000000000000000000000000000000000000000000000000000000000000000000000000000000000000000000000000000000000000000000000000000000000000000000000000000000000000000000000000000000000000000000000000000000000000000000000000000000000000000000000000000000000000000000000000000000000000000000000000000000000000000000000000000000000000000000000000000000000000000000000000000000000000000000000000000000000000000000000000000000000000000000000000000000000000000000000000000000000000000000000000000000000000000000000000000000000000000000000000000000000000000000000000000000000000000000000000000000000000000000000000000000000000000000000000000000000000000000000000000000000000000000000000000000000000000000000000000000000000000000000000000000000000000000000000000000000000000000000000000000000000000000000000000000000000000000000000000000000000000000000000000000000000000000000000000000000000000000000000000000000000000000000000000000000000000000000000000000000000000000000000000000000000000000000000000000000000000000000000000000000000000000000000000000000000000000000000000000000000000000000000000000000000000000000000000000000000000000000000000000000000000000000000000000000000000000000000000000000000000000000000000000000000000000000000000000000000000000000000000000000000000000000000000000000000000000000000000000000000000000000000000000000000000000000000000000000000000000000000000000000000000000000000000000000000000000000000000000000000000000000000000000000000000000000000000000000000000000000000000000000000000000000000000000000000000000000000000000000000000005500000000000000000000000000000000000000000000000000000000000000000000000000000000000000000000000000000000000000000000000000000000000000000000000000000000000000000000000000000000000000000000000000000000000000000000000000000000000000000000000000000000000000000000000000000000000000000000000000000000000000000000000000000000000000000000000000000000000000000000000000000000000000000000000000000000000000000000000000000000000000000000000000000000000000000000000000000000000000000000000000000000000000000000000000000000000000000000000000000000000000000000000000000000000000000000000000000000000000000000000000000000000000000000000000000000000000000000000000000000000000000000000000000000000000000000000000000000000000000000000000000000000000000000000000000000000000000000000000000000000000000000000000000000000000000000000000000000000000000000000000000000000000000000000000000000000000000000000000000000000000000000000000000000000000000000000000000000000000000000000000000000000000000000000000000000000000000000000000000000000000000000000000000000000000000000000000000000000000000000000000000000000000000000000000000000000000000000000000000000000000000000000000000000000000000000000000000000000000000000000000000000000000000000000000000000000000000000000000000000000000000000000000000000000000000000000000000000000000000000000000000000000000000000000000000000000000000000000000000000000000000000000000000000000000000000000000000000000000000000000000000000000000000000000000000000000000000000000000000000000000000000000000000000000000000000000000000000000000000000005600000000000000000000000000000000000000000000000000000000000000000000000000000000000000000000000000000000000000000000000000000000000000000000000000000000000000000000000000000000000000000000000000000000000000000000000000000000000000000000000000000000000000000000000000000000000000000000000000000000000000000000000000000000000000000000000000000000000000000000
#093321:000000000000000000000000000000000000000000000000000000000000000000000000000000000000000000000000000000000000000000000000000000000000000000000000000000000000000000000000000000000000000000000000000000000000000000000000000000000000000000000000000000000000000000000000000000000000000000000000000000000000000000000000000000000000000000000000000000000000000000000000000000000000000000000000000000000000000000000000000000000000000000000000000000000000000000000000000000000000000000000000000000000000000000000000000000000000000000000000000000000000000000000000000000000000000000000000000000000000000000000000000000000000000000000000000000000000000000000000000000000000000000000000000000000000000000000000000000000000000000000000000000000000000000000000000000000000000000000000000000000000000000000000000000000000000000000000000000000000000000000000000000000000000000000000000000000000000000000000000000000000000000000000000000000000000000000000000000000000000000000000000000000000000000000000000000000000000000000000000000000000000000000000000000000000000000000000000000000000000000000000000000000000000000000000000000000000000000000000000000000000000000000000000000000000000000000000000000000000000000000057000000000000000000000000000000000000000000000000000000000000000000000000000000000000000000000000000000000000000000000000000000000000000000000000000000000000000000000000000000000000000000000000000000000000000000000000000000000000000000000000000000000000000000000000000000000000000000000000000000000000000000000000000000000000000000000000000000000000000000000000000000000000000000000000000000000000000000000000000000000000000000000000000000000000000000000000000000000000000000000000000000000000000000000000000000000000000000000000000000000000000000000000000000000000000000000000000000000000000000000000000000000000000000000000000000000000000000000000000000000000000000000000000000000000000000000000000000000000000000000000000000000000000000000000000000000000000000000000000000000000000000000000000000000000000000000000000000000000000000000000000000000000000000000000000000000000000000000000000000000000000000000000000000000000000000000000000000000000000000000000000000000000000000000000000000000000000000000000000000000000000000000000000000000000000000000000000000000000000000000000000000000000000000000000000000000000000000000000000000000000000000000000000000000000000000000000000000000000000000000000000000000000000000000000000000000000000000000000000000000000000000000000000000000000000000000000000000000000000000000000000000000000000000000000000000000000000000000000000000000000000000000000000000000000000000000000000000000000000000000000000000000000000000000000000000000000000000000000000000000000000000000000000000000000000000000000000000000000000000000000000000000000000000000000000000000000000000000000000000000000000000000000000000000000000000000000000000000000000000000000000000000000000000000000000000000000000000000000000000000000000000000000000000000000000000000000000000000000000000000000000000000000000000000000000000000000000000000000000000000000000000000000000000000000000000000000000000000000000000000000000000000000000000000000000000000000000000000000000000000000000000000000000000000000000000000000000000000000000000000000000000000000000000000000000000000000000000000000000000000000000000000000000000000000000000000000000000000000000000000000240000000000000000000000000000000000000000000000000000000000000000000000000000000000000000000000000000000000000000000000000000000000000000000000000000000000000000000000000000000000000000000000000000000000000000000000000000000000000000000000000000000000000000000000000000000000000000000000000000000000000000000000000000000000000000000000000000000000000000000000000000000000000000000000000000000000000000000000000000000000000000000000000000000000000000000000000000000000000000000000
