This file was generated by Ched 2.7.0.0.
#TITLE ""
#ARTIST ""
#DESIGNER ""
#DIFFICULTY 0
#PLAYLEVEL
#SONGID ""
#WAVE ""
#WAVEOFFSET 0
#JACKET ""
#REQUEST "ticks_per_beat 480"
#00002: 4
#BPM01: 168
#00008: 01
#TIL00: ""
#HISPEED 00
#MEASUREHS 00
#00612:14
#00618:0014
#0081a:14
#00814:00140000
#00818:0014
#00812:00000014
#0091a:14140000
#01012:14
#01018:00140000
#01014:0014
#0101a:00000014
#01214:00140000
#0121a:14
#01218:0014
#01212:00000014
#01412:14
#0141a:00140000
#01414:0014
#01418:00000014
#01614:0000001400000000
#01712:00000014000000000000000000000000
#0181a:0014
#01810:41
#01914:14
#01918:0014
#03217:00000014
#0321a:14
#03218:0000000000340034
#03412:14
#03418:00140000
#03414:0014
#0341a:00000014
#03512:14
#03516:00140000
#0351a:0014
#0381a:14
#03814:00140000
#03818:0014
#03812:00000014
#03810:41
#0391a:14
#03917:0000343400000000
#03615:00000014
#03612:14
#03614:0000000000340034
#04016:00140014
#0401a:0014
#04012:24
#04116:00140000
#0411a:0014
#04112:24
#04216:00140014
#0421a:0014
#04212:24
#04318:00140000
#04314:0014
#0431a:00000014
#04312:24
#04412:14
#04414:00003414
#05212:14
#0521a:00140000
#05214:0014
#05218:00000014
#05312:14
#0531a:00140000
#05314:0014
#05318:00000014
#05812:14140000
#0581a:00001414
#05810:41
#08216:00140014
#0821a:0014
#08212:24
#08318:00140000
#08314:0014
#0831a:00000014
#08312:24
#08414:0000001400000000
#08512:00140000000000000000000000000000
#08612:00140000
#0861a:14
#08618:0014
#08614:00000014
#08712:00140000
#08718:0014
#0871a:14
#08714:00000014
#09014:14
#09012:0014
#09018:00140000
#0901a:00000014
#09114:14
#09118:00140000
#09112:0014
#0911a:00000014
#02012:14
#02013:0000003400000000
#02412:14
#02414:0014
#02512:14
#0261a:14
#02618:0014
#0271a:14
#02812:14
#02818:00140000
#02814:0014
#0281a:00000014
#02810:41
#02912:14
#02918:00140000
#02914:0014
#0291a:00000014
#04618:14
#0461a:00003414
#04814:14
#04812:00003414
#04810:41
#0501a:14
#05018:00003414
#05912:14
#06018:14
#0601a:0014
#0601f:11
#06118:14
#06214:14
#06212:0014
#06314:14
#0641a:14
#06414:00140000
#06418:0014
#06412:00000014
#0651a:14
#06514:00140000
#06518:0014
#06512:00000014
#0211a:14
#02119:0000003400000000
#05712:14
#05718:00140000
#05714:0014
#0571a:00000014
#08818:0000001400000000
#0881a:24
#0891a:00140000000000000000000000000000
#02214:14
#02213:0000003400000000
#02318:14
#02319:0000003400000000
#06815:00000014
#06812:14
#0681f:21
#06814:0000000000340034
#0701a:14
#07014:00140000
#07018:0014
#07012:00000014
#0711a:14
#07116:00140000
#07112:0014
#07412:14
#07418:00140000
#07414:0014
#0741a:00000014
#07512:14
#07515:0000343400000000
#07217:00000014
#0721a:14
#07218:0000000000340034
#07616:00140014
#07612:0014
#0761a:24
#07716:00140000
#07712:0014
#0771a:24
#07816:00140014
#07812:0014
#0781a:24
#07914:00140000
#07918:0014
#07912:00000014
#0791a:24
#01513:24
#01519:24
#0311a:0000000000000024
#05619:00250000
#08012:00002424
#0801a:24240000
#08118:2424
#08114:00240000
#00714:24
#06712:0000000000000024
#03318:34
#03714:34
#04514:34
#0471a:34
#04912:34
#05118:34
#06914:34
#06910:41
#07318:34
#01752:00000024000000000000000000000000
#01654:0000005400000000
#0325a:54
#03257:00000024
#03655:00000024
#03652:64
#04452:64
#04454:00000024
#05659:00150000
#08158:0014
#08454:0000005400000000
#08552:00240000000000000000000000000000
#02052:54
#02452:54
#02454:0054
#02552:54
#02554:0014
#0265a:64
#02658:0064
#0275a:64
#02758:0014
#0355a:0014
#04658:64
#0465a:00000024
#04854:54
#04852:00000024
#0505a:54
#05058:00000024
#05252:14
#05952:64
#06058:54
#0605a:0054
#06158:54
#0615a:0014
#06254:64
#06252:0064
#06354:64
#06352:0014
#0215a:54
#08858:0000006400000000
#0895a:00240000000000000000000000000000
#02254:64
#02358:64
#0415a:0014
#03957:0014
#0395a:54
#06855:00000024
#06852:64
#07152:0014
#07552:64
#07555:0014
#07257:00000024
#0725a:54
#07752:0014
#0003a0:14
#000380:0034
#0013a0:24
#002320:14
#002340:0034
#003320:34
#003340:0024
#0043a0:14
#004380:0034
#0053a0:34
#005380:0024
#011320:14000024
#011340:00343400
#0133a0:14000024
#013380:00343400
#016320:14
#016340:0000003400000000
#017320:00000054000000000000000000000000
#018340:24
#020320:14
#020330:0000003400000000
#020340:00000024
#0213a0:14
#021390:0000003400000000
#021380:00000024
#022340:14
#022330:0000003400000000
#022320:00000024
#023380:14
#023390:0000003400000000
#0233a0:00000024
#024320:14
#024340:0034
#025320:34
#025340:0024
#0263a0:14
#026380:0034
#0273a0:34
#027380:0024
#030320:1400340034003424
#0313a0:0000000000000014
#0323a0:34
#032380:0000000000340034
#032370:00000034
#033380:34
#0333a0:0024
#035320:0000000000000014
#036320:34
#036340:0000000000340034
#036350:00000034
#037340:34
#037320:0024
#0393a0:14
#039370:0000343424000000
#044320:14
#044340:00003454
#045340:34
#045320:0024
#046380:14
#0463a0:00003454
#0473a0:34
#047380:0024
#048340:14
#048320:00003454
#049320:34
#049340:0024
#0503a0:14
#050380:00003454
#051380:34
#0513a0:0024
#054320:1535
#054330:00000035000000000000003500000000
#054340:0000003500000035
#055320:35
#055340:0000000000000025
#059320:14
#059340:00000024
#060380:14
#0603a0:0034
#061380:34
#0613a0:0024
#062340:14
#062320:0034
#063340:34
#063320:0024
#0663a0:1400340034003424
#067320:0000000000000014
#068320:34
#068340:0000000000340034
#068350:00000034
#069340:34
#069320:0024
#0713a0:0000000000000014
#0723a0:34
#072380:0000000000340034
#072370:00000034
#073380:34
#0733a0:0024
#075320:14
#075350:0000343424000000
#084320:14
#084340:0000003400000000
#085320:00540000000000000000000000000000
#085340:00000024
#0883a0:14
#088380:0000003400000000
#0893a0:00540000000000000000000000000000
#089380:00000024
#092340:14
#093320:0000000000000034
#094320:24
