This file was generated by Ched 2.6.4.0.
#TITLE ""
#ARTIST ""
#DESIGNER ""
#DIFFICULTY 0
#PLAYLEVEL
#SONGID ""
#WAVE ""
#WAVEOFFSET 0
#JACKET ""
#REQUEST "ticks_per_beat 480"
#00002: 4
#BPM01: 200
#00008: 01
#TIL00: ""
#HISPEED 00
#MEASUREHS 00
#01812:14
#01810:41
#01912:14
#0481f:11
#01718:14
#0201a:14
#0211a:14
#02214:14
#02314:14
#02418:14
#02518:14
#03414:14
#0771a:14
#07614:14
#07812:14
#07918:14
#08014:14
#0811a:14
#08110:41
#08212:14
#05118:14
#00212:1616
#00412:1616
#00612:1616
#00812:1616
#01018:16
#01012:0016
#01218:16
#01212:0016
#01418:16
#01412:0016
#01618:16
#01612:0016
#0351a:14
#0361a:14
#03712:14
#03812:14
#03918:14
#04018:14
#04114:14
#04110:41
#04214:14
#06118:1616
#06110:41
#06318:1616
#06518:1616
#06718:1616
#06912:16
#06918:0016
#07112:16
#07118:0016
#07312:16
#07318:0016
#07512:16
#07518:0016
#08318:14
#08414:14
#09318:14
#10318:16
#10312:0016
#10512:16
#10518:0016
#10718:16
#10712:0016
#10912:16
#10918:0016
#11112:1616
#11318:1616
#11512:1616
#11718:1616
#0601f:21
#06012:2626
#00118:2626
#00318:2626
#00518:2626
#00718:2626
#00918:26
#00912:0026
#01118:26
#01112:0026
#01318:26
#01312:0026
#01518:26
#01512:0026
#06212:2626
#06412:2626
#06612:2626
#06812:26
#06818:0026
#07012:26
#07018:0026
#07212:26
#07218:0026
#07412:26
#07418:0026
#10212:2626
#10418:2626
#10612:2626
#10818:2626
#11012:26
#11018:0026
#11218:26
#11212:0026
#11412:26
#11418:0026
#11618:26
#11612:0026
#09110:41
#03010:41
#026320:14
#027320:24
#0283a0:14
#0293a0:24
#030340:14
#031340:24
#032380:14
#033380:24
#0433a0:14
#0443a0:24
#045320:14
#046320:24
#047380:14
#048380:24
#049340:14
#050340:24
#052320:14
#053340:24
#0543a0:14
#055380:24
#056320:14
#057340:24
#0583a0:14
#059380:24
#085380:14
#086380:24
#087340:14
#088340:24
#0893a0:14
#0903a0:24
#091320:14
#092320:24
#094340:14
#095320:24
#096380:14
#0973a0:24
#098340:14
#099320:24
#100380:14
#1013a0:24
#118320:16000000000000000000005400000000
#119320:00000000000000003400000000000024
