This file was generated by Ched 2.6.4.0.
#TITLE ""
#ARTIST ""
#DESIGNER ""
#DIFFICULTY 0
#PLAYLEVEL
#SONGID ""
#WAVE ""
#WAVEOFFSET 0
#JACKET ""
#REQUEST "ticks_per_beat 480"
#00002: 4
#BPM01: 200
#00008: 01
#TIL00: ""
#HISPEED 00
#MEASUREHS 00
#0481f:11
#0481b:00130000
#04812:14001313
#04818:13000014
#04816:0014
#04814:00140000
#09716:13000013
#0971b:13000013
#09712:0013
#09717:0013
#09517:13000013
#09512:13000013
#09516:0013
#0951b:0013
#09817:13
#09812:13
#0981b:0013
#09816:0013
#09616:0013
#0961b:0013
#09612:13000013
#09617:13000013
#10116:13
#1011b:13
#10117:0013
#10112:0013
#10017:13000013
#10012:13000013
#10016:0013
#1001b:0013
#0991b:0013
#09916:0013
#09912:13
#09917:13
#0941b:13000013
#09416:13000013
#09412:0013
#09417:0013
#05416:00130013
#05412:13
#0541b:13000013
#05417:0013
#05512:0013
#0551b:00130013
#05517:13
#0501b:00130000
#05012:14001313
#05018:13000014
#05016:0014
#05014:00140000
#0491b:00001313
#04912:00130000
#04915:13
#04914:00000014
#04916:0014
#04918:00140000
#0491a:14
#0471b:00001313
#04712:00130000
#04715:13
#04714:00000014
#04716:0014
#04718:00140000
#0471a:14
#04612:00130000
#0461b:00001313
#04615:13
#04614:00000014
#04616:0014
#04618:00140000
#0461a:14
#04512:14001313
#0451b:00130000
#04518:13000014
#04516:0014
#04514:00140000
#04412:00130000
#0441b:00001313
#04415:13
#04414:00000014
#04416:0014
#04418:00140000
#0441a:14
#04312:14001313
#0431b:00130000
#04318:13000014
#04316:0014
#04314:00140000
#09218:00000014
#09216:0014
#09214:00140000
#09212:14
#09114:00000014
#09116:0014
#09118:00140000
#0911a:14
#09110:41
#09018:00000014
#09016:0014
#09014:00140000
#09012:14
#08914:00000014
#08916:0014
#08918:00140000
#0891a:14
#02612:1413
#02614:00140013
#02616:0014
#02618:00000014
#0261b:13
#02619:00130000
#0271a:14
#02718:00140000
#02716:1314
#02714:00130014
#02712:0013
#02719:00000013
#02812:1413
#02814:00140013
#02816:0014
#02818:00000014
#0281b:13
#02819:00130000
#0291a:14
#02918:00140000
#02916:1314
#02914:00130014
#02912:0013
#02919:00000013
#0301a:14
#03018:00140000
#03016:0014
#03014:00130014
#03012:13
#0301b:0013
#03019:00000013
#03010:41
#03112:14
#03114:00140013
#03116:0014
#03118:00000014
#03117:13
#03119:00130000
#0311b:0013
#0321a:14
#03218:00140000
#03216:0014
#03214:00130014
#03212:13
#0321b:0013
#03219:00000013
#03312:14
#03314:00140013
#03316:0014
#03318:00000014
#03317:13
#03319:00130000
#0331b:0013
#0811b:1300000013000013
#08115:1300000013130000
#08112:00130000
#08118:00130000
#08110:41
#0831b:1300000013000013
#08315:1300000013130000
#08312:00130000
#08318:00130000
#07912:1300000013000013
#07918:1300000013130000
#0791b:00130000
#07915:00130000
#07712:1300000013000013
#07718:1300000013130000
#0771b:00130000
#07715:00130000
#08415:0013000000001300
#08418:0000001313000000
#08412:0013
#08215:0013000000001300
#08218:0000001313000000
#08212:0013
#08015:0000001313000000
#08018:0013000000001300
#0801b:0013
#07815:0000001313000000
#07818:0013000000001300
#0781b:0013
#05916:0013
#05917:00130000
#0591b:13000013
#05816:00130013
#05817:0013
#05812:13
#05217:00130013
#0521b:13
#05212:13000013
#05216:0013
#0531b:0013
#05312:00130013
#05316:13
#05612:00130000
#05616:13
#0561b:1313
#05617:00000013
#0571b:00000013
#05717:0013
#05716:00130000
#05712:13
#0351b:1300000013130000
#03515:1313
#03518:0000130000000013
#03512:0000130000000013
#0361b:0013000000001300
#03612:0000001313000000
#03618:0013
#03615:0013000000001300
#09318:00120012
#09316:1212
#08814:00000014
#08816:0014
#08818:00140000
#0881a:14
#08718:00000014
#08716:0014
#08714:00140000
#08712:14
#08614:00000014
#08616:0014
#08618:00140000
#0861a:14
#08518:00000014
#08516:0014
#08514:00140000
#08512:14
#07616:00120012
#07618:1212
#05118:00120012
#05116:1212
#04218:0013000000001300
#04212:0013000000001300
#0421b:0000001313000000
#04215:0013
#04115:0000130000000013
#0411b:0000130000000013
#04112:1300000013130000
#04118:1313
#04110:41
#04018:0013000000001300
#04012:0013000000001300
#0401b:0000001313000000
#04015:0013
#03915:0000130000000013
#0391b:0000130000000013
#03912:1300000013130000
#03918:1313
#03815:0013000000001300
#0381b:0013000000001300
#03812:0000001313000000
#03818:0013
#03718:0000130000000013
#03712:0000130000000013
#0371b:1300000013130000
#03715:1313
#03418:00120012
#03416:1212
#02512:00000013
#02515:0000001300000000
#02415:1313
#02412:00130000
#02418:00130000
#0241b:13
#02312:00000013
#02315:0000001300000000
#02215:1313
#02212:00130000
#02218:00130000
#0221b:13
#0211b:00000013
#02118:0000001300000000
#02018:1313
#0201b:00130000
#02015:00130000
#02012:13
#0191b:00000013
#01918:0000001300000000
#01818:1313
#0181b:00130000
#01815:00130000
#01812:13
#01810:41
#11918:00000000000000000000000000000012
#11916:0012
#01716:00120012
#01718:1212
#00018:00000000000000001300130000130013
#00015:0000000000001313
#0601f:21
#06015:2323
#06013:0033000000330000
#0671b:2323
#06718:00230000
#06719:0000000000330000
#0661b:2323
#06619:0033000000330000
#06518:2323
#0651b:00230000
#0651a:0000000000330000
#06418:2323
#0641a:0033000000330000
#06312:2323
#06315:00230000
#06314:0000000000330000
#06212:2323
#06214:0033000000330000
#06115:2323
#06112:00230000
#06113:0000000000330000
#06110:41
#11616:00230023
#1161b:00230023
#11619:0023000000230000
#11612:2323
#11617:2323
#11716:00230023
#1171b:00230023
#11719:0023000000230000
#11712:2323
#11717:2323
#11714:0000002300000000
#11416:00230023
#1141b:00230023
#11419:0023000000230000
#11412:2323
#11417:2323
#11516:00230023
#1151b:00230023
#11519:0023000000230000
#11512:2323
#11517:2323
#11514:0000002300000000
#11217:00230023
#11212:00230023
#11214:0023000000230000
#1121b:2323
#11216:2323
#11317:00230023
#11312:00230023
#11314:0023000000230000
#1131b:2323
#11316:2323
#11319:0000002300000000
#11017:00230023
#11012:00230023
#11014:0023000000230000
#1101b:2323
#11016:2323
#11117:00230023
#11112:00230023
#11114:0023000000230000
#1111b:2323
#11116:2323
#11119:0000002300000000
#10916:00230023
#10912:2323
#1091b:23230023
#10914:0023000000230000
#10917:0023
#10919:0000002300000000
#1081b:23232323
#10816:00230023
#10812:2323
#10814:0023000000230000
#10716:00230023
#10712:2323
#1071b:23230023
#10714:0023000000230000
#10717:0023
#10719:0000002300000000
#1061b:23232323
#10616:00230023
#10612:2323
#10614:0023000000230000
#10517:00230023
#1051b:2323
#10512:23230023
#10519:0023000000230000
#10516:0023
#10514:0000002300000000
#10412:23232323
#10417:00230023
#1041b:2323
#10419:0023000000230000
#10317:00230023
#1031b:2323
#10312:23230023
#10319:0023000000230000
#10316:0023
#10314:0000002300000000
#10212:23232323
#10217:00230023
#1021b:2323
#10219:0023000000230000
#07515:2300002323002300
#0751b:23002323
#07518:0023230000230000
#07512:00230000
#07412:00002323
#07418:0023000023002300
#07415:2300230000230000
#0741b:23230000
#07315:2300002323002300
#0731b:23002323
#07318:0023230000230000
#07312:00230000
#07212:00002323
#07218:0023000023002300
#07215:2300230000230000
#0721b:23230000
#07118:2300002323002300
#07112:23002323
#07115:0023230000230000
#0711b:00230000
#0701b:00002323
#07015:0023000023002300
#07018:2300230000230000
#07012:23230000
#06918:2300002323002300
#06912:23002323
#06915:0023230000230000
#0691b:00230000
#0681b:00002323
#06815:0023000023002300
#06818:2300230000230000
#06812:23230000
#01615:00230023
#0161b:0000002300002300
#01618:0023000000230000
#01612:2323
#01515:00230023
#0151b:00230023
#01518:0023000000230000
#01512:2323
#01218:00230023
#01212:0000002300002300
#01215:0023000000230000
#0121b:2323
#01118:00230023
#01112:00230023
#01115:0023000000230000
#0111b:2323
#0081b:00230023
#00815:0000002300002300
#00812:0023000000230000
#00818:2323
#0071b:00230023
#00715:00230023
#00712:0023000000230000
#00718:2323
#00412:00230023
#00418:0000002300002300
#0041b:0023000000230000
#00415:2323
#00312:00230023
#00318:00230023
#0031b:0023000000230000
#00315:2323
#01415:00230023
#0141b:0000002300002300
#01418:0023000000230000
#01412:2323
#01315:00230023
#0131b:00230023
#01318:0023000000230000
#01312:2323
#01018:00230023
#01012:0000002300002300
#01015:0023000000230000
#0101b:2323
#00918:00230023
#00912:00230023
#00915:0023000000230000
#0091b:2323
#0061b:00230023
#00615:0000002300002300
#00612:0023000000230000
#00618:2323
#0051b:00230023
#00515:00230023
#00512:0023000000230000
#00518:2323
#00212:00230023
#00218:0000002300002300
#0021b:0023000000230000
#00215:2323
#00112:00230023
#00118:00230023
#0011b:0023000000230000
#00115:2323
#11812:003c3c3c3c3c3c3c3c3c3c0000000000
#1175b:00000013
#1165b:00130013
#1155b:00000013
#1145b:00130013
#11352:00000013
#11252:00130013
#11152:00000013
#11052:00130013
#07555:00000013
#07458:00000013
#07455:00130000
#07355:00000013
#07258:00000013
#07255:00130000
#07158:00000013
#07055:00000013
#07058:00130000
#06958:00000013
#06855:00000013
#06858:00130000
#01655:00000013
#01555:00130013
#01258:00000013
#01158:00130013
#01455:00000013
#01355:00130013
#01058:00000013
#00958:00130013
#09857:13
#09856:0013
#09652:00000013
#09657:13
#0975b:13
#09752:0013
#10156:13
#10157:0013
#10057:13000013
#10056:0013
#09956:0013
#09957:13
#09456:13
#0945b:00000013
#0955b:0013
#09552:13
#05456:00230063
#05452:53
#05552:0053
#0555b:00230000
#05557:53
#0505b:00130000
#05052:00000013
#0495b:00000013
#04952:00130000
#0485b:00130000
#04852:00000013
#0475b:00000013
#04752:00130000
#04652:00130000
#0465b:00000013
#04552:00000013
#0455b:00130000
#04452:00130000
#0445b:00000013
#04352:00000013
#0435b:00130000
#0895a:14
#02652:14
#0305a:14
#0815b:0000000000000063
#08155:0000000000630000
#0835b:0000000000000063
#08355:0000000000630000
#07952:0000000000000053
#07958:0000000000530000
#07752:0000000000000053
#07758:0000000000530000
#08455:0063000000000000
#08458:0053
#08255:0063000000000000
#08258:0053
#08055:0063
#08058:0053000000000000
#07855:0063
#07858:0053000000000000
#05956:0063
#05957:00230000
#0595b:63
#05856:00230063
#05857:0053
#05852:53
#05257:00230053
#0525b:63
#0535b:0063
#05352:00230000
#05356:63
#05652:00230000
#05656:63
#05657:00000023
#0565b:0063
#0575b:00000023
#05757:0053
#05756:00230000
#05752:53
#03558:00130000
#03658:0013
#03655:00000013
#08552:14
#04258:00000013
#04255:0013
#04155:00130000
#04058:00000013
#04055:0013
#03955:00130000
#03855:00000013
#03858:0013
#03758:00130000
#11958:00000000000000000000000000000012
#018320:0000000000130000
#018350:0000000000000023
#018381:0000000000000013
#0193b1:0023000000000000
#019350:0013000000000000
#019320:0000002300000000
#019320:0013
#019350:00000023
#020320:0000000000130000
#020350:0000000000000023
#020381:0000000000000013
#0213b1:0023000000000000
#021350:0013000000000000
#021320:0000002300000000
#021320:0013
#021350:00000023
#0223b0:0000000000130000
#022380:0000000000000023
#022351:0000000000000013
#023321:0023000000000000
#023380:0013000000000000
#0233b0:0000002300000000
#0233b0:0013
#023380:00000023
#0243b0:0000000000130000
#024380:0000000000000023
#024351:0000000000000013
#025321:0023000000000000
#025380:0013000000000000
#0253b0:0000002300000000
#0253b0:0013
#025380:00000023
#0523b0:1323
#052370:00530000
#052370:00000013
#0533b0:23
#053361:1323
#053321:00530000
#0533b0:0013
#053370:00000023
#054320:1323
#054360:00530000
#054360:00000013
#055320:23
#055371:1323
#0553b1:00530000
#055320:0013
#055360:00000023
#056360:1323
#056320:00530000
#0563b1:0013
#056371:00000053
#0573b1:23
#057320:1323
#057360:00530000
#057371:0013
#0573b1:00000053
#058371:23
#058320:1323
#058360:00530000
#058371:0013
#0583b1:00000023
#058360:00000013
#059320:23
#0593b1:1323
#059371:00530000
#059360:0013
#059320:00000023
#060350:13
#060330:0033000000000000
#060320:00230000
#0603b1:13
#062381:56
#0633b1:00000023
#060350:0013
#060330:0000000000330000
#060320:00000023
#061350:0013
#061330:0000000000330000
#061320:00000023
#062320:13
#062340:0033000000000000
#062350:00230000
#062320:0013
#062340:0000000000330000
#062350:00000023
#063320:0013
#063340:0000000000330000
#063350:00000023
#064380:13
#0643a0:0033000000000000
#0643b0:00230000
#064321:13
#066321:56
#067321:00000023
#064380:0013
#0643a0:0000000000330000
#0643b0:00000023
#065380:0013
#0653a0:0000000000330000
#0653b0:00000023
#0663b0:13
#066390:0033000000000000
#066380:00230000
#0663b0:0013
#066390:0000000000330000
#066380:00000023
#0673b0:0013
#067390:0000000000330000
#067380:00000023
#077380:0000000000130000
#0773b0:0000000000000023
#077321:0000000000000013
#078351:0023000000000000
#078380:0013000000000000
#0783b0:0000002300000000
#078350:0013
#078320:00000023
#079380:0000000000130000
#0793b0:0000000000000023
#079321:0000000000000013
#080351:0023000000000000
#080380:0013000000000000
#0803b0:0000002300000000
#080350:0013
#080320:00000023
#081350:0000000000130000
#081320:0000000000000023
#0813b1:0000000000000013
#082381:0023000000000000
#082350:0013000000000000
#082320:0000002300000000
#082380:0013
#0823b0:00000023
#083350:0000000000130000
#083320:0000000000000023
#0833b1:0000000000000013
#084381:0023000000000000
#084350:0013000000000000
#084320:0000002300000000
#084380:0013
#0843b0:00000023
#085380:13230000
#085320:00001323
#086350:13230000
#0863b0:00001323
#087380:13230000
#087320:00001323
#088350:13230000
#0883b0:00001323
#089350:13230000
#0893b0:00001323
#090380:13230000
#090320:00001323
#091350:13230000
#0913b0:00001323
#092380:13230000
#092320:00001323
#118320:1c3c3c3c3c3c3c3c3c3c3c0000000000
#118370:00000000000000000000002200000000
