This file was generated by Ched 2.6.4.0.
#TITLE ""
#ARTIST ""
#DESIGNER ""
#DIFFICULTY 0
#PLAYLEVEL
#SONGID ""
#WAVE ""
#WAVEOFFSET 0
#JACKET ""
#REQUEST "ticks_per_beat 480"
#00002: 4
#BPM01: 200
#00008: 01
#TIL00: ""
#HISPEED 00
#MEASUREHS 00
#00018:00001313
#00015:0000000000130013
#11915:0013
#11918:00000000000000000000000000000013
#0181b:13
#01812:13
#01818:00130000
#01815:0013
#01810:41
#07715:0013
#07718:1300000000130000
#07712:0000000000000013
#03612:0013000000000000
#03618:00000013
#03615:0013
#0361b:0000001300000000
#03518:0000000013000013
#03512:13
#0351b:13
#03515:0000130000130000
#05212:00130013
#05216:13
#0521b:13
#05217:00130013
#02914:00000014
#02916:0014
#02918:00140000
#0291a:14
#02818:00000014
#02816:0014
#02814:00140000
#02812:14
#02714:00000014
#02716:0014
#02718:00140000
#0271a:14
#02618:00000014
#02616:0014
#02614:00140000
#02612:14
#0261a:14
#0941b:1313
#09412:1313
#09418:00000013
#09515:13
#09518:0013
#09512:0013
#09812:13
#09818:13
#0981b:0013
#09815:0013
#10112:1313
#1011b:0013
#10117:13
#0481f:11
#0481a:14
#04816:0014
#0481b:00000013
#04812:00130000
#01718:1313
#01715:00130013
#0201b:13
#02012:13
#02018:00130000
#02015:0013
#02212:13
#0221b:13
#02215:00130000
#02218:0013
#02412:13
#0241b:13
#02415:00130000
#02418:0013
#03318:00000014
#03316:0014
#03314:00140000
#03312:14
#03214:00000014
#03216:0014
#03218:00140000
#0321a:14
#03118:00000014
#03116:0014
#03114:00140000
#03112:14
#03014:00000014
#03016:0014
#03018:00140000
#0301a:14
#03012:14
#03010:41
#03415:1313
#03418:00130013
#03812:0013000000000000
#03818:00000013
#03815:0013
#0381b:0000001300000000
#03718:0000000013000013
#03712:13
#0371b:13
#03715:0000130000130000
#07818:0000001300000000
#07815:0013
#0781b:00000013
#07812:00000013
#07618:1313
#07615:00130013
#05316:13
#0531b:13
#05317:00130000
#05312:00130000
#0541b:00130013
#05417:13
#05412:13
#05416:00130013
#05517:13
#05512:13
#05516:00130000
#0551b:00130000
#05616:13
#0561b:13
#05617:00130000
#05612:00130000
#05717:13
#05712:13
#05716:00130000
#0571b:00130000
#05816:1313
#05812:00130013
#0581b:1313
#05817:00130013
#05916:1313
#05912:00130000
#0591b:1313
#05917:00130000
#09315:1313
#09318:00130013
#09612:1313
#0961b:1313
#09615:00000013
#09718:13
#09715:0013
#0971b:0013
#09912:13
#09918:13
#0991b:0013
#09915:0013
#10012:13
#10018:13
#1001b:0013
#10016:0013
#10019:00000013
#10014:00000013
#07915:0013
#07918:1300000000130000
#07912:0000000000000013
#08018:0000001300000000
#08015:0013
#0801b:00000013
#08012:00000013
#08118:0013
#08115:1300000000130000
#0811b:0000000000000013
#08110:41
#08215:0000001300000000
#08218:0013
#08212:00000013
#0821b:00000013
#08318:0013
#08315:1300000000130000
#0831b:0000000000000013
#08415:0000001300000000
#08418:0013
#08412:00000013
#0841b:00000013
#0431a:14
#04316:0014
#04312:14130000
#0431b:00000013
#04412:14000013
#04416:0014
#0441b:00130000
#0451a:14
#04516:0014
#04512:00130000
#0451b:00000013
#04612:14000013
#04616:0014
#0461b:00130000
#04712:14000013
#04716:0014
#0471b:00130000
#0471a:14
#04912:14000013
#04916:0014
#0491b:00130000
#0501a:14
#05016:0014
#0501b:00000013
#05012:00130000
#05115:1313
#05118:00130013
#0401b:0013000000000000
#04015:00000013
#04018:0013
#04012:0000001300000000
#03915:0000000013000013
#0391b:13
#03912:13
#03918:0000130000130000
#0421b:0013000000000000
#04215:00000013
#04218:0013
#04212:0000001300000000
#04115:0000000013000013
#0411b:13
#04112:13
#04118:0000130000130000
#04110:41
#0011b:2323
#00115:0023000000230000
#00118:00230023
#00918:2323
#00915:0023000000230000
#0091b:00230023
#01018:23232300
#01015:0023002300230000
#0101b:00000023
#06812:23
#06815:0023000000002300
#06818:0000230000230000
#0681b:0023
#06912:2323
#06915:0023000000230000
#0691b:00230000
#06918:0000002300002300
#0601f:21
#06012:23
#06015:0023000023000000
#06018:0000230000230000
#0601b:00000023
#0021b:23232300
#00215:0023002300230000
#00218:00000023
#0031b:2323
#00315:0023000000230000
#00318:00230023
#0041b:23232300
#00415:0023002300230000
#00418:00000023
#00512:2323
#00518:0023000000230000
#00515:00230023
#00612:23232300
#00618:0023002300230000
#00615:00000023
#00712:2323
#00718:0023000000230000
#00715:00230023
#00812:23232300
#00818:0023002300230000
#00815:00000023
#01118:2323
#01115:0023000000230000
#0111b:00230023
#01218:23232300
#01215:0023002300230000
#0121b:00000023
#01315:2323
#01318:0023000000230000
#01312:00230023
#01415:23232300
#01418:0023002300230000
#01412:00000023
#01515:2323
#01518:0023000000230000
#01512:00230023
#01615:23232300
#01618:0023002300230000
#01612:00000023
#1021a:2424
#10216:0024000000240000
#10212:00240024
#1031a:24242400
#10316:0024002400240000
#10312:00000024
#1041a:2424
#10416:0024000000240000
#10412:00240024
#1051a:24242400
#10516:0024002400240000
#10512:00000024
#10612:2424
#10616:0024000000240000
#1061a:00240024
#10712:24242400
#10716:0024002400240000
#1071a:00000024
#10812:2424
#10816:0024000000240000
#1081a:00240024
#10912:24242400
#10916:0024002400240000
#1091a:00000024
#1101a:2424000024240000
#11014:00240024
#1111a:2424000024240000
#11112:0000242400000000
#11114:00000024
#07012:23
#07015:0023000000002300
#07018:0000230000230000
#0701b:0023
#07112:2323
#07115:0023000000230000
#0711b:00230000
#07118:0000002300002300
#0721b:23
#07218:0023000000002300
#07215:0000230000230000
#07212:0023
#0731b:2323
#07318:0023000000230000
#07312:00230000
#07315:0000002300002300
#0741b:23
#07418:0023000000002300
#07415:0000230000230000
#07412:0023
#0751b:2323
#07518:0023000000230000
#07512:00230000
#07515:0000002300002300
#1121a:2424000024240000
#11214:00240024
#1131a:2424000024240000
#11312:0000242400000000
#11314:00000024
#11412:2424000024240000
#11418:00240024
#11512:2424000024240000
#1151a:0000242400000000
#11518:00000024
#11612:2424000024240000
#11618:00240024
#11712:2424000024240000
#1171a:0000242400000000
#11718:00000024
#06112:2323
#06115:0023002300230000
#06118:00230023
#06110:41
#06212:23
#06215:0023000023000000
#06218:0000230000230000
#0621b:00000023
#06312:2323
#06315:0023002300230000
#06318:00230023
#0641b:23
#06418:0023000023000000
#06415:0000230000230000
#06412:00000023
#0651b:2323
#06518:0023002300230000
#06515:00230023
#0661b:23
#06618:0023000023000000
#06615:0000230000230000
#06612:00000023
#0671b:2323
#06718:0023002300230000
#06715:00230023
#11812:003c3c3c3c3c3c3c3c3c3c0000000000
#09110:41
#11958:00000000000000000000000000000013
#0095b:00130013
#06858:00130000
#06855:00000013
#06958:00000013
#05256:63
#0525b:63
#05257:00230000
#05252:00230000
#09458:00000013
#09452:13
#0945b:13
#09555:13
#09852:13
#09858:13
#0985b:0013
#09855:0013
#0105b:00000013
#0115b:00130013
#0125b:00000013
#01352:00130013
#01452:00000013
#01552:00130013
#01652:00000013
#03658:00000013
#03655:0013
#03858:00000013
#03855:0013
#11054:00140014
#11154:00000014
#05356:63
#0535b:63
#05357:00230000
#05352:00230000
#05457:53
#05452:53
#05456:00230000
#0545b:00230000
#05557:53
#05552:53
#05556:00230000
#0555b:00230000
#05656:63
#0565b:63
#05657:00230000
#05652:00230000
#05757:53
#05752:53
#05756:00230000
#0575b:00230000
#05856:6363
#05852:00230053
#0585b:6363
#05857:00230053
#05956:6353
#05952:00230000
#0595b:6353
#05957:00230000
#07058:00130000
#07055:00000013
#07158:00000013
#07255:00130000
#07258:00000013
#07355:00000013
#07455:00130000
#07458:00000013
#07555:00000013
#09655:00000013
#0965b:13
#09652:13
#09758:13
#09952:13
#09958:13
#0995b:0013
#09955:0013
#10052:13
#10058:13
#11254:00140014
#11354:00000014
#11458:00140014
#11558:00000014
#11658:00140014
#11758:00000014
#07752:0000000000000053
#07758:53
#07952:0000000000000053
#07958:53
#0815b:0000000000000063
#08155:63
#0835b:0000000000000063
#08355:63
#04452:00000013
#0445b:00130000
#0435b:00000013
#04352:00130000
#04552:00130000
#0455b:00000013
#04652:00000013
#0465b:00130000
#0475b:00130000
#04752:00000013
#0485b:00000013
#04852:00130000
#0495b:00130000
#04952:00000013
#0505b:00000013
#05052:00130000
#04055:00000013
#04058:0013
#04255:00000013
#04258:0013
#018380:0000000000130000
#0183b0:0000000000000033
#019380:0033000000000000
#0193b0:0000002300000000
#019350:0013
#019320:00000023
#020380:0000000000130000
#0203b0:0000000000000033
#021380:0033000000000000
#0213b0:0000002300000000
#021350:0013
#021320:00000023
#022350:0000000000130000
#022320:0000000000000033
#023350:0033000000000000
#023320:0000002300000000
#023380:0013
#0233b0:00000023
#024350:0000000000130000
#024320:0000000000000033
#025350:0033000000000000
#025320:0000002300000000
#025380:0013
#0253b0:00000023
#052360:1323
#052320:00530000
#0523b1:1323
#052371:00530000
#053361:1323
#053321:00530000
#0533b0:1323
#053370:00530000
#054370:1323
#0543b0:00530000
#054321:1323
#054361:00530000
#055371:1323
#0553b1:00530000
#055320:1323
#055360:00530000
#056360:1323
#056320:00530000
#0563b1:1323
#056371:00530000
#057371:1323
#0573b1:00530000
#057320:1323
#057360:00530000
#058360:1333
#058320:00530033
#059360:3333
#059320:00530023
#0583b1:1333
#058371:00530033
#0593b1:3333
#059371:00530023
#077381:13
#0773b1:00230000
#077321:0000000000000013
#078351:0023000000000000
#079381:13
#0793b1:00230000
#079321:0000000000000013
#080351:0023000000000000
#081351:13
#081321:00230000
#0813b1:0000000000000013
#082381:0023000000000000
#083351:13
#083321:00230000
#0833b1:0000000000000013
#084381:0023000000000000
#085321:13330023
#085351:0033
#0853b0:13003323
#085380:00330000
#0863b0:13003323
#086380:00330000
#086321:13330023
#086351:0033
#087321:13330023
#087351:0033
#0873b0:13003323
#087380:00330000
#0883b0:13003323
#088380:00330000
#088321:13330023
#088351:0033
#0893b1:13330023
#089381:0033
#089320:13003323
#089350:00330000
#090320:13003323
#090350:00330000
#0903b1:13330023
#090381:0033
#0913b1:13330023
#091381:0033
#091320:13003323
#091350:00330000
#092320:13003323
#092350:00330000
#0923b1:13330023
#092381:0033
#118321:1c3c3c3c3c3c3c3c3c3c3c0000000000
#118361:00000000000000000000002400000000
