This file was generated by Ched 2.6.4.0.
#TITLE ""
#ARTIST ""
#DESIGNER ""
#DIFFICULTY 0
#PLAYLEVEL
#SONGID ""
#WAVE ""
#WAVEOFFSET 0
#JACKET ""
#REQUEST "ticks_per_beat 480"
#00002: 4
#BPM01: 200
#00008: 01
#TIL00: ""
#HISPEED 00
#MEASUREHS 00
#0181a:1414
#01814:00140014
#01810:41
#0481f:11
#01718:14
#01714:0014
#01918:1414
#01912:00140014
#0201a:1414
#02014:00140014
#02118:1414
#02112:00140014
#0221a:14
#02214:00140000
#02218:0014
#02212:00000014
#0231a:14
#02314:00140000
#02318:0014
#02312:00000014
#0241a:14
#02414:00140000
#02418:0014
#02412:00000014
#0251a:14
#02514:00140000
#02518:0014
#02512:00000014
#09318:14
#09314:0014
#03418:14
#03414:0014
#0351a:1414
#03512:00140014
#03618:1414
#03614:00140014
#0371a:1414
#03712:00140014
#03818:1414
#03814:00140014
#0391a:14
#03912:00140000
#03918:0014
#03914:00000014
#0401a:14
#04012:00140000
#04018:0014
#04014:00000014
#0411a:14
#04112:00140000
#04118:0014
#04114:00000014
#04110:41
#0421a:14
#04212:00140000
#04218:0014
#04214:00000014
#07618:14
#07614:0014
#0771a:1414
#07714:00140014
#0781a:14
#07816:00140014
#07812:0014
#0791a:1414
#07914:00140014
#0801a:14
#08016:00140014
#08012:0014
#0811a:14
#08114:00140000
#08118:0014
#08112:00000014
#08110:41
#08216:1414
#0821a:00140000
#08212:00000014
#0831a:14
#08314:00140000
#08318:0014
#08312:00000014
#08416:1414
#0841a:00140000
#08412:00000014
#0941a:14
#09418:00140000
#09512:14
#09514:00140000
#09618:14
#0961a:00140000
#09714:14
#09712:00140000
#0981a:14
#09818:00140000
#0991a:14
#09918:00140000
#10012:14
#10014:00140000
#10112:14
#10114:00140000
#05118:14
#05114:0014
#00214:00140014
#00218:1414
#00414:00140014
#00418:1414
#00614:00140014
#00618:1414
#00814:00140014
#00818:1414
#01012:00140014
#0101a:1414
#01212:00140014
#0121a:1414
#01412:00140014
#0141a:1414
#01612:00140014
#0161a:1414
#06112:00140000
#06114:00000014
#0611a:14
#06118:0014
#06110:41
#06312:00140000
#06314:00000014
#0631a:14
#06318:0014
#06512:00140000
#06514:00000014
#0651a:14
#06518:0014
#06712:00140000
#06714:00000014
#0671a:14
#06718:0014
#06912:00000014
#06914:00140000
#0691a:0014
#06918:14
#07112:00000014
#07114:00140000
#0711a:0014
#07118:14
#07312:00000014
#07314:00140000
#0731a:0014
#07318:14
#07512:00000014
#07514:00140000
#0751a:0014
#07518:14
#1031a:14
#10314:00140000
#10318:0014
#10312:00000014
#10512:14
#10518:00140000
#10514:0014
#1051a:00000014
#1071a:14
#10714:00140000
#10718:0014
#10712:00000014
#10912:14
#10918:00140000
#10914:0014
#1091a:00000014
#11118:14
#11112:00140000
#1111a:0014
#11114:00000014
#11314:14
#1131a:00140000
#11312:0014
#11318:00000014
#11518:14
#11512:00140000
#1151a:0014
#11514:00000014
#11714:14
#1171a:00140000
#11712:0014
#11718:00000014
#0601f:21
#0601a:24
#06012:0024
#10214:2424
#1021a:2424
#10412:2424
#10418:2424
#11014:24
#11018:0024
#1101a:24
#11012:0024
#11212:24
#1121a:0024
#11218:24
#11214:0024
#0011a:24
#00112:0024
#0031a:24
#00312:0024
#0051a:24
#00512:0024
#0071a:24
#00712:0024
#00918:24
#00914:0024
#01118:24
#01114:0024
#01318:24
#01314:0024
#01518:24
#01514:0024
#0621a:24
#06212:0024
#0641a:24
#06412:0024
#0661a:24
#06612:0024
#06818:24
#06814:0024
#07018:24
#07014:0024
#07218:24
#07214:0024
#07418:24
#07414:0024
#10614:2424
#1061a:2424
#10812:2424
#10818:2424
#11414:24
#11418:0024
#1141a:24
#11412:0024
#11612:24
#1161a:0024
#11618:24
#11614:0024
#09110:41
#03010:41
#0945a:64
#09458:00240000
#09552:54
#09554:00240000
#09658:54
#0965a:00240000
#09754:64
#09752:00240000
#0985a:64
#09858:00240000
#0995a:64
#09958:00240000
#10052:54
#10054:00240000
#10152:54
#10154:00240000
#1195a:00000000000000000000000000000014
#0263a0:14000034
#026380:00343400
#0273a0:34000024
#027380:00343400
#028340:14000034
#028320:00343400
#029340:34000024
#029320:00343400
#030380:14000034
#0303a0:00343400
#031380:34000024
#0313a0:00343400
#032320:14000034
#032340:00343400
#033320:34000024
#033340:00343400
#0433a0:14340000
#043380:00003434
#0443a0:34340000
#044380:00003424
#045340:14340000
#045320:00003434
#046340:34340000
#046320:00003424
#047380:14340000
#0473a0:00003434
#048380:34340000
#0483a0:00003424
#049320:14340000
#049340:00003434
#050320:34340000
#050340:00003424
#0523a0:14
#052380:0024
#053320:14
#053340:0024
#054380:14
#0543a0:0024
#055340:14
#055320:0024
#0563a0:14
#056380:0034
#0573a0:34
#057380:0024
#058320:14
#058340:0034
#058330:00000034
#059320:34
#059340:0024
#0853a0:1434
#085390:00340034
#0863a0:3434
#086390:00340024
#087330:1434
#087320:00340034
#088330:3434
#088320:00340024
#089390:1434
#0893a0:00340034
#090390:3434
#0903a0:00340024
#091320:1434
#091330:00340034
#092320:3434
#092330:00340024
#0943a0:1424
#094380:00540000
#095320:1424
#095340:00540000
#096380:1424
#0963a0:00540000
#097340:1424
#097320:00540000
#0983a0:1434
#098380:00540000
#0993a0:3424
#099380:00540000
#100320:14003434
#100340:00540000
#101320:3424
#101340:00540000
#118320:16000000000000000000002400000000
#1193a0:00000000000000001400000000000024
