This file was generated by Ched 2.6.4.0.
#TITLE ""
#ARTIST ""
#DESIGNER ""
#DIFFICULTY 0
#PLAYLEVEL
#SONGID ""
#WAVE ""
#WAVEOFFSET 0
#JACKET ""
#REQUEST "ticks_per_beat 480"
#00002: 4
#BPM01: 185
#BPM02: 92.5
#00008: 01
#02908: 0000000000000001
#02608: 02
#TIL00: ""
#HISPEED 00
#MEASUREHS 00
#00118:2616
#00212:1616
#00318:16
#00312:0016
#00418:16
#00412:0016
#00518:1616
#00510:41
#00612:1616
#00718:16
#00712:0016
#00818:16
#00812:0016
#0111a:14
#01212:14
#01312:14
#01418:14
#01410:41
#01518:14
#01614:14
#01714:14
#0181a:14
#01912:14
#0201a:14
#02112:14
#02218:14
#02314:14
#02418:14
#02514:14
#03312:0000002600000016
#03418:0000001600000016
#03512:0000001600000000
#03518:0000000000000016
#03612:0000001600000000
#03618:0000000000000016
#03712:0000001600000016
#03710:0000004100000000
#03818:0000001600000016
#03912:0000001600000000
#03918:0000000000000016
#04012:0000001600000000
#04018:0000000000000016
#04512:0000001400000000
#04618:0000001400000000
#04610:0000004100000000
#04714:0000001400000000
#0481a:0000001400000000
#04914:0000001400000000
#0491f:0000001100000000
#05014:0000001400000000
#05118:0000001400000000
#05218:0000001400000000
#05818:0000000000000016
#05812:0000002600000000
#0581f:0000002100000000
#06018:0000001600000000
#06012:0000000000000016
#06212:0000001600000000
#06218:0000000000000016
#06512:0000001600000000
#06518:0000000000000016
#06818:0000001400000000
#06914:0000001400000000
#0701a:0000001400000000
#07112:0000001400000000
#07218:0000001400000000
#07314:0000001400000000
#05910:0000004100000000
#02610:41
#009380:16
#010380:26
#0263a0:14000024
#027320:0014
#028320:00240000
#0293a0:1400003400003434
#0303a0:0000000000340000
#0313a0:0000003400000000
#0323a0:0000002400000000
#041320:0000001600000000
#042320:0000002600000000
#043380:0000001400000000
#044380:0000002400000000
#053320:0000001400000000
#054320:0000002400000000
#0553a0:0000001400000000
#0563a0:0000003400000000
#0573a0:0000002400000000
#059320:0000001600000026
#061380:0000001600000026
#063320:0000001600000026
#064380:0000001600000026
#066320:0000001600000000
#067320:0000002600000000
#0743a0:0000001400000000
#0753a0:00240000
