This file was generated by Ched 2.6.4.0.
#TITLE ""
#ARTIST ""
#DESIGNER ""
#DIFFICULTY 0
#PLAYLEVEL
#SONGID ""
#WAVE ""
#WAVEOFFSET 0
#JACKET ""
#REQUEST "ticks_per_beat 480"
#00002: 4
#BPM01: 185
#BPM02: 92.5
#00008: 01
#02908: 0000000000000001
#02608: 02
#TIL00: ""
#HISPEED 00
#MEASUREHS 00
#0051b:23131313
#00514:00000000000000000000001300000000
#00516:1313
#00512:0000000000000013
#00510:41
#0061b:13131313
#00616:0000130000000013
#00614:0000001300000000
#00612:0013
#0081b:1300000000000023
#00819:0000130000230000
#00818:0000002313000000
#0081a:0023000000001300
#00814:0000230000130000
#00815:0000001323000000
#00813:0013000000002300
#00812:2300000000000023
#0071b:13131313
#00714:00130000
#00716:0000001313000000
#0331a:0014000000000000
#03312:0014001300260000
#0331b:0000000000130013
#03316:0000000000000013
#03318:0000002600000000
#0291b:1300000000130023
#02916:130000000000001300000000
#02919:001300000000130000000000
#02914:000000130000000000000013000000000000000000000000
#02917:000000000013000000130000000000000000000000000000
#02912:0000131300000000
#02915:0000000000001323
#02918:00000000000000000000000000130000
#0261b:1300001300001300
#02619:000013000000000000000000000000130000000000000000
#02616:000000130000000000000000000013000000000000000013
#02617:000000000013000000000000130000000000000013000000
#02614:000000000000130000000013000000000000000000000000
#02612:0000001300001313
#02610:41
#0271b:1300001300130000
#02717:000013000000000000000000000000000000000000130000
#02712:0013001300000013
#02715:000000000000000000000013000000000000000000000000
#02718:0013
#02719:00000013
#02716:0000000000130000
#02714:00000013
#02816:0013000000130000
#0281b:130013000000000000000000000013000000000000130000
#02814:000000000013000000000013000000000000000000000000
#02819:00131300
#02817:001300
#02812:1300001300000013
#01015:1323
#01018:00130000
#01012:00000000230000000000001300001300
#01017:0000000000000013
#0101b:23
#01112:00130000
#01114:0000001300000000
#01117:00000000001300000000000013000000
#01116:0000000013000013
#0111b:0013000000000013
#00918:0013000000000000
#00915:0013000000000000
#01212:0013130013000013
#0121b:0000130013000013
#01217:0000001300000000
#01215:0000000000130000
#01218:00000013
#0131b:0013130013001300
#01316:00130000
#01312:00000000000013000000001300000013
#01315:00000000000000000013000000130000
#01318:0000000000130013
#01415:00130000
#0141b:00000000230000000000001300001300
#01416:0000000000000013
#01418:1323
#01412:23
#01410:41
#0151b:00130000
#01519:0000001300000000
#01516:00000000001300000000000013000000
#01517:0000000013000013
#01512:0013000000000013
#0161b:0013130013000013
#01612:0000130013000013
#01616:0000001300000000
#01618:0000000000130000
#01615:00000013
#01712:0013130000000000
#01717:00130000
#0171b:0000001300000000
#01718:0012
#01716:00000000000013000012000000000000
#0201b:1300130000000013
#02016:00001300001300000000000000000000
#02017:0000000000130000
#02012:13000000000000001300001300000000
#02118:13
#02115:0013000000000000
#02112:00130013
#0211b:00000013
#02116:0000000000130000
#02117:0000001300000000
#04214:0000000012000012
#04216:0000000000120000
#04218:00000012
#0421a:0000000000000012
#04414:0000001200000012
#04416:00001212
#04418:1200120000120000
#0441a:0000001200000012
#04516:12121300
#0451b:0000000000130013
#04512:0000002400130013
#04517:00000013
#0451a:0000002400000000
#02412:13130013
#02417:00001300001300000000000000001300
#02416:0000000000130000
#0241b:13001313
#02316:00000013000000000000000000001300
#02312:13
#0231b:0013000000000000
#02318:0000001300000000
#02512:13
#04316:12120012
#0431c:0000001200000000
#0431a:0000000012000012
#04318:0000000000120000
#04314:0000000000000012
#04312:0000001200000000
#04616:13000013
#04612:0000131300130013
#0461b:00130000000013000000130000001300
#04617:0013
#04610:0000004100000000
#04915:0000001200120000
#04918:0000000000000012
#04912:0000130000000012
#04917:00130000000000000000000000000000
#0491f:0000001100000000
#05018:0000000012000012
#05014:0000000000120000
#05016:00000012
#0501c:00120000000000000000000000000000
#05114:00121200
#05118:0000000000120000
#05116:00000012
#0511a:0000000000000012
#0521a:00121200
#05216:0000000000120000
#05218:00000012
#05214:0000000000000012
#0571a:0000000000000014
#05712:1300000000000024
#05714:0013000000000000
#05716:00130000
#0571b:0023230000000000
#0581a:00240000140024000000000000000000
#05812:00140000240024000000000000001300
#0581b:0000000000000013
#05815:0013
#05818:0013
#0581f:0000002100000000
#05314:0012000000000000
#05317:0000000000130000
#0531b:0000000000000013
#05312:0000002300230023
#05416:13
#05419:00130000000000000000000013000000
#05417:0000000000130000
#0541b:0000130000000013
#05412:0023002300230023
#05518:00130000
#05512:0023000013000000
#05516:0000000000001313
#05514:0000000000130000
#0551b:0000002300230023
#05616:0013
#05614:0000000000130000
#05612:00000013
#0561b:0023002300230023
#00216:0013000013000000
#00217:13130013
#00212:0000130000000013
#00214:0000001300000000
#00219:0000001300000000
#0021b:0000000013000013
#00416:0013000013000000
#0041b:00001313
#00412:00130013
#00417:13130000
#00414:0000001300000000
#00419:0000001300000000
#03416:0000000000130000
#03419:00000000000000000000001300000000
#03414:00000013
#03417:0000130000000013
#03412:0000230000000013
#03612:0000230000130000
#03617:00000000130000000000001300000000
#03614:00000013
#0361b:0000001300000013
#03616:0000001300000013
#03517:0000000000130000
#03514:00000000000000000000001300000000
#03519:00000013
#03516:0000130000000013
#0351b:0000230000000013
#0391b:00131300
#03914:0000000000130000
#03912:0000001300001313
#03917:0000000000000013
#03916:00230000
#0401b:1300001300000000
#04012:0000001300001400
#0401a:0014
#04016:1300000000140000
#05915:0013
#05917:0000001300130000
#05919:00000013
#0591b:0000130000000013
#05912:00130000000000000000001300000000
#05916:0000000000000013
#05910:0000004100000000
#06012:0013130000000013
#06017:00130000
#06016:0000001300130000
#06014:00000013
#06212:0013000000260013
#06217:0013000000000000
#0621b:0000000000000013
#06218:0000002600140000
#06214:0000001400000000
#06318:0013
#06312:0000130000000013
#06316:0000001300130000
#0631b:00130000000000000000001300000000
#06314:00000013
#06317:0000000000000013
#0641b:0013230000230000
#06417:0000001300000023
#06416:0000230000230000
#06412:0000000023000023
#06419:00000023
#06414:00000023
#06515:0000000013231300
#06518:0000000023132300
#06516:13
#0651b:0023000000000000
#0011b:0000000000000013
#00112:0000240000000014
#0011a:2424
#00116:00000000000000000000002400000000
#03712:1300002600130013
#03717:1300000000000013
#0371b:0000001300000000
#03718:0000000000260000
#03710:0000004100000000
#04112:0013
#04115:26000000000000000000000000000013
#0411b:0013
#04118:00000000000000000000000000000013
#06117:1300001300230000
#06119:0013000000002300
#06114:00130000000000000000000000000000
#0611b:0000230000000023
#06116:00230000
#06112:0023
#06719:00000013
#06717:0000000000000013
#0671b:0000000000130000
#06712:0000000000230013
#06718:13
#06715:13
#06915:1323000000000000
#06918:00130000000000000000000000000000
#06916:0013
#06912:0000130000130013
#06919:00000013
#0691b:0000000000000013
#06917:0000130000230000
#07012:0000130000230000
#07017:1300130000130000
#0701b:0000002300000013
#07016:0023001300000000
#06816:1300130000130000
#06812:0000000013000013
#06814:00000013
#06817:0023000000000013
#0681b:0000130000230000
#07219:00000013
#07217:1300130000130000
#0721b:0000000013000013
#07212:0000130000230000
#07216:0023000000000013
#07114:00000013
#07116:0000000000000013
#07112:0000000013130000
#07117:00130000000000000000000000000000
#0711b:0000130000230013
#07414:0013000000240000
#07417:00000013000000000000000000000000
#07412:0000130000000014
#07416:13
#07419:00130000000000000000000000000000
#07418:0000002400000000
#0741a:0000000000000024
#0751a:00140000240000000000000000000000
#07512:00240000140000000000000000000000
#07317:00000000130000000000001300000000
#07312:0023130000130000
#07316:0000001300000013
#07314:00000013
#07319:00000000000000000000000000130000
#0731b:00000000000000001300000000000013
#0661b:0013
#06612:0013
#06618:0015000000000000
#06614:0013000000000000
#06613:23
#0661a:23
#01817:00000000130000000000001300000000
#01812:0000130000130000
#01816:0000000013000013
#0181b:2313
#0191b:13
#01912:0013000000000000
#01915:0000001300000000
#01917:00000013000000000000000000000000
#02216:00000000130000000000001300000000
#0221b:0000130000130000
#02217:1300000013000013
#02212:1313
#03116:0000001300000000
#03112:13000013
#0311b:0000001300000000
#03117:00000013
#03118:23
#03018:13231313
#03015:0013001300230013
#0301b:0000000000230000
#03012:00230000
#03217:00000000000000120000000000000000
#0321b:0012
#03216:00000000000000000012000000002400
#0321a:0000002400120000
#03215:00000000000000000000001200000000
#03219:00000012
#03214:00000000000000000000000000120000
#00317:0013000013000000
#00316:13130013
#0031b:0000130000000013
#00319:0000001300000000
#00314:0000001300000000
#00312:0000000013000013
#03817:0000000000130000
#03814:00000000000000000000001300000000
#03819:00000013
#03816:0000130000000013
#0381b:0000230000000013
#04717:1300000000000013
#0471b:0000131300130000
#04712:00130000000000001300000000001300
#04716:00000000000013000000001300000000
#04816:00130000130000000000000000001300
#0481b:00000013000000001300000000001300
#04817:00000000000013000000001300000000
#04812:0000001300130000
#02956:13
#02957:0000001300000000
#01055:13
#01058:00130000
#01052:0000000000000053
#0105b:00000000000000000000001300000000
#00958:0053000000000000
#00955:0063000000000000
#0095c:00000012
#00952:00000012
#01455:00130000
#0145b:0000000000000063
#01458:13
#01452:00000000000000000000001300000000
#0015b:0000000000000063
#0015a:44
#00152:00340000
#00257:23
#00252:0000000000000053
#00256:0063
#0115b:0063000000000063
#01157:00000000002300000000000000000000
#01156:0063
#01552:0053000000000053
#01556:00000000002300000000000000000000
#01557:0053
#03657:00530000
#0365b:0000002300000063
#03656:0000002300000063
#03652:00530000
#03752:2300003600000053
#03757:2300000000000053
#03758:0000000000460000
#0375b:0043000000000000
#03756:0043000000000000
#03952:0000002300000053
#03957:0000000000000053
#0395b:0063
#03956:00630000
#0405b:23
#04056:23
#04052:0033000000000000
#04057:0033000000000000
#04152:0053
#04155:00000000000000000000000000000023
#0415b:0063
#04158:00000000000000000000000000000023
#0595b:0000630000000063
#05957:0000002300000000
#05952:00530000000000000000000000000000
#06052:00530000
#06056:0000002300000000
#06157:0000002300000000
#0615b:0000630000000013
#06352:0000530000000053
#06356:0000002300000000
#0635b:00630000000000000000000000000000
#06457:0000002300000000
#06452:0000000000000053
#0645b:00630000
#06556:23
#0655b:0043000000000000
#06552:0033000000000000
#0585b:0000000000000063
#05855:0023
#05858:0023
#05852:0000005400340000
#0585a:0000006400440000
#06252:0000000000360053
#06258:0000004600000000
#0545b:00630000
#05556:0000000000000063
#0465b:00630000000000000000000000000000
#03457:0000530000000023
#03452:0000530000000023
#0335b:0000000000000063
#03356:0000000000000063
#03358:0000004600000000
#03352:0000000000360000
#02052:00000000000000000000005300000000
#02157:0000005300000000
#0165b:0000000000000063
#01252:0000000000000053
#00552:0000000000000053
#00556:63
#00656:0000000000000063
#00652:0023
#00756:0063
#04952:0000000000000052
#04957:00530000000000000000000000000000
#0505c:00620000000000000000000000000000
#06752:0000000000000053
#06758:23
#06755:23
#06856:23
#0685b:00630000
#0695b:0000000000000063
#06957:00530000
#07057:23
#07052:0000000000130000
#0705b:0000001300000000
#0715b:0000630000000063
#07257:23
#07252:00530000
#07352:00530000
#07356:0000002300000000
#0665b:0063
#06652:0053
#06658:0055000000000000
#06654:0053000000000000
#06653:53
#01857:00000000000000000000005300000000
#01955:0000006300000000
#01957:00000053000000000000000000000000
#0195b:0000000000130000
#01952:0000000000130000
#02256:00000000000000000000006300000000
#02358:0000005300000000
#02356:00000063000000000000000000000000
#02352:0000000000130000
#0235b:0000000000130000
#03156:0000006300000000
#03152:53000023
#0315b:0000006300000000
#03157:00000023
#00356:23
#00357:0053
#0035b:0000000000000063
#00457:23
#03556:0000630000000023
#0355b:0000630000000023
#03856:0000630000000023
#0385b:0000630000000023
#04752:00530000000000000000000000000000
#04757:0000000000000053
#04856:0000000000000063
#00852:0000000000000053
#0085b:0000000000000063
#0455a:0000001400000000
#0755a:00440000
#07552:00340000000000000000000000000000
#07458:0000004400000000
#07454:0000000000340000
#0745a:0000000000000044
#0013b0:0000000000000013
#002370:53
#0023b0:0023000000000000
#002360:0013
#002320:00000023
#002320:0000000000000013
#003360:53
#003320:0023000000000000
#003370:0013
#0033b0:00000023
#0033b0:0000000000000013
#004370:53
#0043b0:0023000000000000
#005360:13
#005320:00230000
#005320:0000000000000013
#006360:0023000000000000
#006320:0013
#006360:00000023
#006360:0000000000000013
#007320:0023000000000000
#007360:0013
#007320:00000023
#0083b0:0000000000000013
#009380:0053000000000000
#0093c0:00000022
#008321:0000000000000013
#009351:0053000000000000
#009321:00000022
#0103b1:00000000000000001300002300000000
#010321:0000000000000013
#011361:0023000000000000
#0113b0:0013000023000000
#011370:00000000005300000000000000000000
#011361:0013
#011321:00000023
#0113b1:0000000000000013
#012371:0023000000000000
#012321:0000000000000013
#013361:0023000000000000
#014321:00000000000000001300002300000000
#0143b1:0000000000000013
#015371:0023000000000000
#015320:0013000023000000
#015360:00000000005300000000000000000000
#015371:0013
#0153b1:00000023
#015321:0000000000000013
#016361:0023000000000000
#0163b1:0000000000000013
#017371:0023000000000000
#017381:000000000000000000000000000000125252220000000000
#017391:000000000000000000000000000000000000000000000000000000000000005200520052000000000000000000000000
#017360:000000000000000000000000000000000000125252525252
#017350:000000000000000000000000000000000000000000000000000000000000000000000000005200520052005200520052
#018360:22
#018370:00000000000000000000001300000000
#0183b0:0000000000000023
#019370:00000013000000000000000000000000
#0193b0:0000000000230000
#019351:0000001300000000
#019321:0000000000230000
#0203b1:0000001323000000
#020321:00000000000000000000001300000000
#020361:0000000000000023
#021371:0000001300000000
#0213b1:0000000000230000
#022361:00000000000000000000001300000000
#022321:0000000000000023
#023361:00000013000000000000000000000000
#023321:0000000000230000
#023380:0000001300000000
#0233b0:0000000000230000
#024320:0000001323000000
#0253b0:13
#025390:00230000
#025361:00130000
#025341:0023
#025390:0013
#025370:00000023
#025341:00000013
#026321:23
#031321:13
#031361:00230000
#0313b0:0000133300000000
#031370:00000053
#0323b0:0023000000000000
#031361:0000001300000000
#031321:00000053
#032361:0023000000000000
#0333b1:0000000000000013
#034371:00230000000000000000000000000000
#033360:0000000000000013
#034320:00230000000000000000000000000000
#034320:00130000
#034360:0023
#034371:00130000
#0343b1:0023
#034321:0000000000000013
#035361:0023000000000000
#034370:0000000000000013
#0353b0:0023000000000000
#0353b0:00130000
#035370:0023
#035361:00130000
#035321:0023
#0353b1:0000000000000013
#036371:0023000000000000
#035360:0000000000000013
#036320:0023000000000000
#036320:00132300
#036360:0000005300000000
#036371:00132300
#0363b1:0000005300000000
#0363b1:0000000000000013
#037371:53
#0373b1:0023000000000000
#036360:0000000000000013
#037320:53
#037360:0023000000000000
#037320:0000000000000013
#038360:00230000000000000000000000000000
#037371:0000000000000013
#0383b1:00230000000000000000000000000000
#0383b1:00130000
#038371:0023
#038360:00130000
#038320:0023
#0383b0:0000000000000013
#039370:0023000000000000
#038361:0000000000000013
#039321:0023000000000000
#039361:00132300
#039321:0000005300000000
#0393b0:0013
#039370:00000023
#039320:0000000000000013
#040360:53
#040320:0023000000000000
#039371:0000000000000013
#0403b1:53
#040371:0023000000000000
#041351:1656000000000056260000000000000000000000000000000000000000000000
#041361:000000000000000000000000000000000000000000000000000000000000000000000000000000000000000000000000000000000000000000000000005400000000000000000000000000000000000000000000000000000000000000000000000000000000000000000000000000000000000000000000000000000000000000000000000000000000000000000000000000000000000000000000000000000000000000000000000000000000000000000000000000000000000000000000000000000000000000000000000000000000000000000000000000000000000000000000000000000000000000000000000000000000000000000000000000000000000000000000000000000000000000000000000000000000000000000000000000000000000000000000000000000000000000000000000000000000000000000000000000000000000000000000000000000000000000000000000000000000000000000000000000000000000000000000000000000000000000000000000000000000000000000000000000000000000000000000000000000000000000000054000000000000000000000000000000000000000000000000000000000000000000000000000000000000000000000000000000000000000000000000000000000000000000000000000000000000000000000000000000000000000000000000000000000000000000000000000000000000000000000000000000000000000000000000000000000000000000000000000000000000000000000000000000000000000000000000000000000000000000000000000000000000000000000000000000000000000000000000000000000000000000000000000000000000000000000000000000000000000000000000000000000000000000000000000000000000000000000000000000000000000000000000000000000000000000000000000000000000000000000000000000000000000000000000000000000000000000000000000000000000000000000000000000000000000000000000000000000000000000000000000000000000000000000000000000000000000000000000000000000000000000000000000000000000000000000000000000000000000000000000000000000000000000000000000000000000000000000000000000000000000000000000000000000000000000000000000000000000000000000000000000000000000000000000000000000000000000000000000000000000000000000000000000000000000000000000000000000000000000000000000000000000000000000000000000000000000000000000000000000000000000000000000000000000000000000000000000000000000000000000000000000000000000000000000000000000000000000000000000000000000000000000000000000000000000000000000000000000000000000000000000000000000000000000000000000000000000000000000000000000000000000000000000000000000000000000000000000000000000000000000000000000000000000000000000000000000000000000000000000000000000000000000000000000000000000000000000000000000000000000000000000000000000000000000000000000000000000000000000000000000000000000000000000000000000000000000000000000000000000000000000000000000000000000000000000000000000000000000000000000000000000000000000000000000000000000000000000000000000000000000000000000000000000000000000000000000000000000000000000000000000000000000000000000000000000000000000000000000000000000000000000000000000000000000000000000000000000000000000000000000000000000000000000000000000000000000000000000000000000000000000000000000000000000000000000000000000000000000000000000000000000000000000000000000000000000000000000000000000000000000000000000000000000000000000000000000000000000000000000000000000000000000000000000000000000000000000000000000000000000000000000000000000000000000000000000000000000000000000000000000000000000000000000000000000000000000000000000000000000000000000000000000000000000000000000000000000000000000000000000000000000000000000000000000000000000000000000000000000000000000000000000000000000000000000000000000000000000000000000000000000000000000000000000000000000000000000000000000000000000000000000000000000000000000000000000000000000000000000000000000000000000000000000000000000000000000000000000000000000000000000000000000000000000000000000000000000000000000000000000000000000000000000000000000000000000000000000000000000000000000000000000000000000000000000000000000000000000000000000000000000000000000000000000000000000000000000000000000000000000
#0413b1:0013
#041381:00000000000000000000000000000053
#0423b1:0000002300000000
#041320:0013
#041350:00000000000000000000000000000053
#042320:0000002300000000
#043380:00120000220000000000000000000000
#044360:00120000220000000000000000000000
#045380:00120000220000000000000000000000
#0463b0:00130000000000000000000000000000
#046370:00230000
#047320:00130000000000000000000000000000
#047360:00230000
#047370:0000000000000013
#0483b0:00230000000000000000000000000000
#048360:0000000000000013
#049320:00230000000000000000000000000000
#049371:00130000000000000000000000000000
#0493b1:00230000
#049391:0000001200220000
#049321:0000000000000012
#050361:00220000000000000000000000000000
#0503c0:00120000000000000000000000000000
#050380:00220000
#050321:00122200
#0513a1:00122200
#052341:00122200
#0533a1:0012002200000000
#0543b1:00130000
#054371:0023
#055361:0000000000000013
#056321:0023000000000000
#0583a1:0000001400240000
#058381:0053
#058320:0000001400240000
#058350:0053
#0583b0:0000000000000013
#059370:00230000000000000000000000000000
#059321:00130000000000000000000000000000
#059361:00230000
#0593b0:00132300
#059370:0000005300000000
#0593b0:0000000000000013
#060370:0023000000000000
#060320:00132300
#060360:0000005300000000
#0603b1:0000000013330000
#060391:00000033
#060371:0000000000000023
#0613b1:00132300
#061371:0000005300000000
#061320:0000000013330000
#061340:00000033
#061360:0000000000000023
#062320:0000000000000013
#063360:00230000000000000000000000000000
#0633b1:00130000000000000000000000000000
#063371:00230000
#063320:00132300
#063360:0000005300000000
#063320:0000000000000013
#064360:0023000000000000
#0643b0:00132300
#064370:0000005300000000
#064320:0000000000000013
#065360:53
#065320:0023000000000000
#0663a0:130000000000000000000000000000000000000000000000000000000000000000000000000000000000000000000000000000000000000000000000000000000000000000000000000000000000000000000000000000000000000000000000000000000000000000000000000000000000000000000000000000000000000000000000000000000000000000000000000000000000000000000000000000000000000000000000000000000000000000000000000000000000000000000000000000000000000000000000000000000000000000000000000000000000000000000000000000000000000000000053000000000000000000000000000000000000000000000000000000000000000000000000000000000000000000000000000000000000000000000000000000000000000000000000000000000000000000000000000000000000000000000000000000000000000000000000000000000000000000000000000000000000000000000000000000000000000000000000000000000000000000000000000000000000000000000000000000000000000000000000000000000000000000000000000000000000000000000000000000000000000000000000000000000000000000000000000000000000000000000000000000000000000000000000000000000000000000000000000000000000000000000000000000000000000000000000000000000000000000000000000000000000000000000000000000000000000000000000000000000000000000000000000000000000000000000000000000000000000000000000000000000000000000000000000000000000000000000000000000000000000000000000000000000000000000000000000000000000000000000000000000000000000000000000000000000000000000000000000000000000000000000000000000000000000000000000000000000000000000000000000000000000000000000000000000000000000000000000000000000000000000000000000000000000000000000000000000000000000000000000000000000000000000000000000000000000000000000000000000000000000000000000000000000000000000000000000000000000000000000000000000000000000000000000000000000000000000000000000000000000000000000000000000000000000000000000000000000000000000000000000000000000000000000000000000000000000000000000000000000000000000000000000000000000000000000000000000000000000000000000000000000000000000000000000000000000000000000000000000000000000000000000000000000000000000000000000000000000000000000000000000000000000000000000000000000000000000000000000000000000000000000000000000000000000000000000000000000000000000000000000000000000000000000000000000000000000000000000000000000000000000000000000000000000000000000000000000000000000000000000000000000000000000000000000000000000000000000000000000000000000000000000000000000000000000000000000000000000000000000000000000000000000000000000000000000000000000000000000000000000000000000000000000000000000000000000000000000000000000000000000000000000000000000000000000000000000000000000000000000000000000000000000000000000000000000000000000000000000000000000000000000000000000000000000000000000000000000000000000000000000000000000000000000000000000000000000000000000000000000000000000000000000000000000000000000000000000000000000000000000000000000000000000000000000000000000000000000000000000000000000000000000000000000000000000000000000000000000000000000000000000000000000000000000000000000000000000000000000000000000000000000000000000000000000000000000000000000000000000000000000000000000000000000000000000000000000000000000000000000000000000000000000000000000000000000000000000000000000000000000000000000000000000000000000000000000000000000000000000000000000000000000000000000000000000000000000000000000000000000000000000000000000000000000000000000000000000000000000000000000000000000000000000000000000000000000000000000000000000000000000000000000000000000000000000000000000000000000000000000000000000000000000000000000000000000000000000000000000000000000000000000000000000000000000000000000000000000000000000000000000000000000000000000000000000000000000000000000000000000000000000000000000000000000000000000000000000000000000000000000000000000000000000000000000000000000000000000000000000000000000000000000000000000000000000000000000000000000000000000000
#066380:0055000000000000
#0663b0:00230000
#066331:13
#066341:00000000000000000000000000000000000000000000000000000000000000000000000000000000000000000000000000000000000000000000000000000000000000000000000000000000000000005300000000000000000000000000000000000000000000000000000000000000000000000000000000000000000000000000000000550000000000000000000000000000000000000000000000000000000000000000000000000000000000000000000000000000000000000000000000000000000000000000000000000000000000000000000000000000000000000000000000000000000000000000000000000000000000000000000000000000000000000000000000000000000000000000000000000000000000000000000000000000000000000000000000000000000000000000000000000000000000000000000000000000000000000000000000000000000000000000000000000000000000000000000000000000000000000000000000000000000000000000000000000000000000000000000000000000000000000000000000000000000000000000000000000000000000000000000000000000000000000000000000000000000000000000000000000000000000000000000000000000000000000000000000000000000000000000000000000000000000000000000000000000000000000000000000000000000000000000000000000000000000000000000000000000000000000000000000000000000000000000000000000000000000000000000000000000000000000000000000000000000000000000000000000000000000000000000000000000000000000000000000000000000000000000000000000000
#066321:000000000057270000000000000000000000000000000000
#0663b1:0013
#067381:53
#0673b1:0023
#066320:0013
#067350:53
#067320:0023
#067320:0000000000000013
#068360:53
#068320:0023000000000000
#0683b0:00130000
#068370:0023
#069370:00130000
#0693b0:0023
#0693b0:0000000000000013
#070370:53
#0703b0:0023000000000000
#070360:0000000000000013
#071320:00330000000000000000000000000000
#071360:00230000
#0713b1:00130000
#071371:0023
#0713b1:0000000000000013
#072371:53
#0723b1:0023000000000000
#072321:00130000
#072361:0023
#0733b1:13
#0733a1:0033000000000000000000000000000000000000000000000000000000000000
#073391:00330000000000000000000000000000
#073381:0000003300000000000000000000000000000000000000000000000000000000
#073371:0023000000000000
#073321:00132300
#073361:0000005300000000
