This file was generated by Ched 2.6.4.0.
#TITLE ""
#ARTIST ""
#DESIGNER ""
#DIFFICULTY 0
#PLAYLEVEL
#SONGID ""
#WAVE ""
#WAVEOFFSET 0
#JACKET ""
#REQUEST "ticks_per_beat 480"
#00002: 4
#BPM01: 185
#BPM02: 92.5
#00008: 01
#02908: 0000000000000001
#02608: 02
#TIL00: ""
#HISPEED 00
#MEASUREHS 00
#00618:00130000
#00615:0000001300000013
#0061b:0013
#00718:00130000
#00715:0000001300000000
#0071b:0013
#0331b:0013000000000013
#03312:0013000000260000
#03318:0000002600000000
#02918:13000000000000001300000000130000
#02915:0013001300001300
#02912:0000130000000023
#0291b:0000000000130000
#0261b:1300001300001300
#02618:0013000000130000
#02615:0000130013000013
#02612:1300001300001300
#02610:41
#02718:1300001300130000
#02715:0013000000001300
#0271b:0013
#02712:0000000013000013
#02815:1313
#0281b:0000130000000013
#02818:0013001300000000
#02812:0000000000130013
#01012:13
#0101b:00130000
#01218:0000001300130000
#01215:00131313
#0201b:1300000000000013
#02018:0013001300130000
#02015:00000000130000000000001300000000
#02012:1313
#02112:00130000
#02115:13000013
#02118:0013001300000000
#04216:0000000000120000
#04218:0000000000000012
#04214:0000000000000012
#04414:0000001200000000
#04416:0012000000120012
#0441a:0000000000000012
#04418:0000001200000000
#02412:1300000000000013
#02415:0013001300130000
#02418:00130013
#0241b:1313
#02318:0000000000000013
#02312:13
#02315:0000001300000000
#04318:0012000000120000
#0431a:0000001200000012
#04316:0000001200000012
#05318:0000000000130000
#0531b:0000001300000000
#0531a:0012000000000000
#05312:0000002300000000
#05415:0000000000130000
#05418:00000013
#05412:0000000000000013
#0541b:00130000
#0551b:00130000
#05518:00001313
#05515:0000000000130013
#05512:00130000
#00215:00130000
#00218:0000001300000013
#00212:0013
#00415:00130000
#00418:0000001300000000
#00412:00001313
#0041b:00000013
#03418:0000000000130013
#03412:00130013
#0591b:0000000000130000
#05918:00000013
#05915:0000000000000013
#05912:00130000
#05910:0000004100000000
#06112:13
#0611b:0013000000230000
#06115:0000230000000023
#06118:00000023
#06012:0000000000130000
#06015:00000013
#06018:0000130000000013
#06212:0013000000260013
#06218:0013002600000013
#05815:0000000000000013
#0581b:0000000000000013
#05812:0000002400000000
#0581a:0000002400000000
#05818:00240000000000000000000000000000
#05814:00240000
#0581f:0000002100000000
#00515:13
#00512:0000000000000013
#00510:41
#06915:13130013
#06918:0013000000000013
#0691b:0000000000130000
#07015:0000130000230000
#0701b:0000000000130000
#07012:0000001300000000
#07018:0000002300000000
#06815:0000000000130000
#0681b:00130013
#06812:0000000000000013
#06712:0000000000000013
#06715:1300000000130000
#06718:13000013
#06612:2313
#0661b:2313
#06618:00130000
#06615:00130000
#01818:0000130000130000
#01812:00130000
#01815:1313
#0181b:2313
#00318:0000001300000013
#00315:00130000
#00312:0013
#02215:0000130000130000
#0221b:00130000
#02218:1313
#02212:1313
#0191b:13
#01918:0000001300000000
#0301b:13230013
#03015:0013000000000013
#03012:0000001300230000
#03018:0013
#0311b:0000001300000000
#03116:0000001300000000
#0091b:0013000000000000
#01318:00130000
#01315:0000001300000000
#01412:00130000
#01410:41
#01615:0000001300130000
#01618:00131313
#01715:00130000
#01718:0000001300000000
#03618:0000000000130013
#03612:00130013
#03815:0000000000130013
#0381b:00130013
#03712:0000002600000013
#03718:0000000000260000
#03710:0000004100000000
#0411b:1313
#04118:00130000
#04112:1313
#04115:00130000
#04518:0012000000130000
#04512:0000002400000013
#0451a:0000002400000000
#05018:0000000000120012
#05016:00000012
#05014:00120000
#05118:0000000000120000
#05116:00000012
#0511a:0000000000000012
#04916:0000001200000000
#0491f:0000001100000000
#05216:0000000000120000
#05218:00000012
#05214:0000000000000012
#0561a:0014
#05616:0000000000140000
#05612:00000014
#05712:14
#05716:0014000000000000
#0571a:00140000
#05714:0000000000000024
#07312:0000000000130000
#07316:00000000000000000000000000003313
#07318:13130000
#07315:00001300000000000000000000330000
#07314:00000033
#07313:00000000000000000000003300000000
#06312:0000000000130000
#06315:00000013
#06318:0000000000000013
#0631b:00130000
#07218:0000000000130000
#07212:00130013
#0721b:0000000000000013
#0711b:0000000000000013
#07115:00130013
#07118:0000000000130000
#03518:0000000000130013
#03512:00130013
#03915:0000000000130013
#0391b:00130013
#04018:00001414
#04014:0000000000140000
#01518:00131300
#01515:0000001300000000
#01115:00131300
#01118:0000001300000000
#04618:13
#0461b:0000001300000013
#04612:0000001300000000
#04615:0000000000130000
#04610:0000004100000000
#04712:0000001300000000
#0471b:0000001300000000
#04715:13
#04718:0000000000130000
#04812:0000001300000000
#0481b:0000001300000000
#04815:0000000000130000
#00814:00230000
#00813:0023
#00812:00000023
#0081a:0000000000230000
#00819:0000002300000000
#00818:0023000000000000
#0081b:0000000000000023
#00815:23
#00118:24
#00114:00240000
#07518:00240000
#07514:00240000000000000000000000000000
#0741a:0000002400000000
#07412:0000000000240000
#07418:0000000000240024
#07414:0033002400000000
#07413:00000033000000000000000000000000
#07415:00330000000000000000000000000000
#07416:33
#06415:00230023
#06418:0000000000230023
#06515:00002323
#06518:0000000000230000
#0321a:00000000000000330000000000000000
#03219:0033
#03218:00000000000000000033000000000000
#03217:00000000000000000000333333330000
#02958:13
#02955:0000001300000000
#01052:13
#0105b:00130000
#05855:0000000000000063
#0585b:0000000000000063
#05852:0000005400000000
#0585a:0000006400000000
#05858:0000000000140000
#05854:0000000000140000
#05955:0000000000000063
#05952:00530000
#0545b:00630000
#05555:0000000000000063
#03452:00530000
#03458:0000000000000053
#0335b:0000000000000063
#03358:0000001600000000
#03352:0000000000160000
#02158:0000005300000000
#00555:63
#00552:0000000000000053
#06752:0000000000000053
#06755:23
#06758:23
#0685b:00630000
#06652:5353
#0665b:6363
#06658:00530000
#06655:00630000
#00252:0053
#00258:0000000000000053
#00358:0000000000000053
#00352:0053
#0195b:6300000000130000
#01958:0000005300000000
#02352:5300000000130000
#02355:0000006300000000
#0315b:0000006300000000
#03156:0000006300000000
#00655:0000000000000063
#0065b:0063
#0095b:0063000000000000
#00957:00000013
#01452:00130000
#0145b:13
#03652:00530000
#03658:0000000000000053
#0385b:00630000
#03855:0000000000000063
#03752:0000001600000053
#03758:0000000000160000
#0375b:0013000000000000
#0415b:6363
#04158:00530000
#04152:5353
#04155:00630000
#04956:0000006200000000
#05054:00520000
#07352:0000000000530000
#07356:00000000000000000000000000000023
#07358:00530000
#06058:00530000
#06258:0000004600000053
#06252:0000000000360053
#06358:0000000000000053
#0635b:00630000
#06955:00630000
#06958:0000000000000053
#0715b:0000000000000063
#07155:00630000
#07252:00530000
#03552:00530000
#03558:0000000000000053
#0395b:00630000
#03955:0000000000000063
#0075b:0063
#0455a:0000001400000000
#04552:0000001400000000
#00158:14
#00154:00140000
#07558:00140000
#07554:00140000000000000000000000000000
#07458:0000000000000014
#06455:00630000
#06458:0000000000000053
#06155:00630000
#0655b:0013000000000000
#04052:0013000000000000
#0013b0:0013
#001390:00000000000000000000003300000000
#001370:0000000000000033
#0023b0:0023000000000000
#002320:0013
#002350:00000023
#002380:0000000000000013
#0033b0:0023000000000000
#003320:0013
#003350:00000023
#003380:0000000000000013
#0043b0:0023000000000000
#005350:13
#005320:00230000
#005380:00000000000000001300002300000000
#005320:0000000000000013
#006350:0023000000000000
#0063b0:0013
#006380:00000023
#006350:0000000000000013
#007320:0023000000000000
#0073b0:0013
#007380:00000023
#0083b0:0000000000000013
#0093b0:0033000000000000
#009370:00000023
#010320:00000000000000001300002300000000
#0103b0:0000000000000013
#011380:0023000000000000
#0113b0:0000000000000013
#012380:0023000000000000
#012320:0000000000000013
#013350:0023000000000000
#0133b0:0013
#0133a0:00000000000000000033000000000033
#013390:0000000000330033
#013380:00000000000000000000003300330000
#013370:00000033
#0143b0:23
#0143b0:00000000000000001300002300000000
#014320:0000000000000013
#015350:0023000000000000
#015320:0000000000000013
#016350:0023000000000000
#0163b0:0000000000000013
#017380:0023000000000000
#018350:00000000000000000000001300002300
#0193b0:1300000000230000
#019380:00000033000033000000000000000000
#021380:0000001300000000
#0213b0:0000000000230000
#022380:00000000000000000000001300002300
#023320:1300000000230000
#023350:00000033000033000000000000000000
#025380:13230000
#025350:00001323
#0313b0:1300333300000000
#032370:0023000000000000
#031361:0000133300000000
#032321:0023000000000000
#0323b1:0000001300000000
#0323a1:00000000000000330000000000000000
#032391:0033
#032381:00000000000000000033000000000000
#032371:00000000000000000000333333332300
#0333b1:0000000000000013
#034381:00230000000000000000000000000000
#034321:00130000
#034351:0023
#034381:0000000000000013
#0353b1:0023000000000000
#035321:00130000
#035351:0023
#035381:0000000000000013
#0363b1:0023000000000000
#036321:00130000
#036351:0023
#036381:0000000000000013
#0373b1:0023000000000000
#037321:0000000000000013
#038351:00230000000000000000000000000000
#0383b1:00130000
#038381:0023
#038351:0000000000000013
#039321:0023000000000000
#0393b1:00130000
#039381:0023
#039351:0000000000000013
#040321:0023000000000000
#0413b1:1333
#041381:00330000
#042381:0000002300000000
#041320:1333
#041350:00330000
#042350:0000002300000000
#046350:00130000230000000000000000000000
#047380:00130000230000000000000000000000
#047350:00000000000000000000001300000000
#047320:0000000000000033
#048350:00330000000000000000000000000000
#048330:00000033000000000000000000000000
#048320:00230000
#048380:00000000000000000000001300000000
#0483b0:0000000000000033
#049380:00330000000000000000000000000000
#0493b0:00230000
#049360:0000001200000000
#049340:0000000000220000
#049380:0000000000000012
#050380:00220000000000000000000000000000
#050340:00120000
#050360:0022
#051360:00122200
#052380:00122200
#053320:0000000000000013
#054340:33
#054350:00230000000000000000000000000000
#0543b0:00130000
#054380:0023
#055350:0000000000000013
#056320:0023000000000000
#0583a0:0000001400000000
#058380:0000000000240000
#058321:0000001400000000
#058341:0000000000240000
#058351:0000000000000013
#059321:00230000000000000000000000000000
#0583b0:0000000000000013
#059380:00230000000000000000000000000000
#059320:00130000
#059350:0023
#059350:0000000000000013
#060320:0023000000000000
#060380:00130000
#0603b0:0023
#061350:00130000
#061320:0023
#062380:0000000000000013
#0633b0:00230000000000000000000000000000
#062321:0000000000000013
#063351:00230000000000000000000000000000
#0633b1:00130000
#063381:0023
#063381:0000000000000013
#0643b1:0023000000000000
#064351:00130000
#064321:0023
#064381:0000000000000013
#0653b1:0023000000000000
#066321:1333
#066351:00330000
#067351:53
#067321:0023
#0663b0:1333
#066380:00330000
#067380:53
#0673b0:0023
#067320:0000000000000013
#068350:0023000000000000
#0683b0:00130000
#068380:0023
#069350:00130000
#069320:0023
#069380:0000000000000013
#0703b0:0023000000000000
#070380:0000000000000013
#0713b0:00330000000000000000000000000000
#071380:00230000
#071351:00130000
#071321:0023
#0713b1:0000000000000013
#072381:0023000000000000
#072321:00130000
#072351:0023
#073381:00130000
#0733b1:0023
#073321:0000000000130000
#073331:00000000000000000000003300000000
#073341:00000033
#073351:00000000000000000000000000330000
#073361:00000000000000000000000000003333
#074361:33
#074351:00330000000000000000000000000000
#074341:0033000000000000
#074331:00000033000000000000000000000000
#074321:00230000
