This file was generated by Ched 2.6.4.0.
#TITLE ""
#ARTIST ""
#DESIGNER ""
#DIFFICULTY 0
#PLAYLEVEL
#SONGID ""
#WAVE ""
#WAVEOFFSET 0
#JACKET ""
#REQUEST "ticks_per_beat 480"
#00002: 4
#BPM01: 185
#BPM02: 92.5
#00008: 01
#02908: 0000000000000001
#02608: 02
#TIL00: ""
#HISPEED 00
#MEASUREHS 00
#00818:1300000000000023
#0081a:0000130000230000
#0081b:0000002313000000
#00819:0023000000001300
#00813:0000230000130000
#00812:0000001323000000
#00814:0013000000002300
#00815:2300000000000023
#03316:0014000000000000
#03312:0000001300260013
#0331b:0000000000130013
#03315:00001616
#03318:0000002600000000
#0261b:1300000000121300
#02618:0000000000000013
#02619:000000130000000000000000120012000000000000000000
#02617:000012000000130000120012000000000000000000000000
#02612:000000000000000000130000000000000000000000000012
#02614:0013
#02616:0000000000131200
#0261c:000000000000000000000000000000000000000012120000
#02613:00120000
#02615:000000120012000000000000000000000000000000000000
#02610:41
#02715:1300001200001300
#02712:1213000000000013
#02718:000012120000000000000000000000130000000000000000
#02719:000000000000000000120012000000000000000000000000
#0271b:0013
#02717:0000000012000012
#02714:0000000000120000
#0271a:00000012
#0281b:0000130000000013
#02812:0000000000130013
#02818:000000130000000000130012000000000000000000000000
#02815:130000000000131200000000
#02816:001200001200000000000000
#02819:000000000012000000000000000000000000000000000000
#0281c:12
#02814:0012001200000000
#02817:0000120000120000
#0281a:0012
#00919:0000000000130000000000000000000000000000000000000000000000000000
#0091b:13
#00914:0000000000130000000000000000000000000000000000000000000000000000
#00912:13
#01318:00000000000013001300001300001300
#01315:00000000001300000013000013000013
#01312:1300130000130000
#0131b:00001300130000000000000000130000
#01317:13
#0201b:13
#02015:00001300001300000000000000000000
#02018:00130000130000000000000000000000
#02012:13000013000000001300130000000000
#02017:00000000000000000013001300000000
#02016:0000000000000013
#02117:1300000013130000
#02119:0013001300000000
#0211b:00130013
#02112:13000000000000000013000013000000
#02116:00130000
#0421a:0000000012120000
#04218:0000000000001212
#0421c:0000001200000000
#0441c:0012
#04412:00000012
#0441a:00120000000012000000000000001200
#04414:0000000000120000
#04418:1212120000000000
#0451c:12
#04512:0000121323002300
#04516:00120000000000000000130000001300
#0451b:0000000000000013
#04514:0012000000000000
#04515:0000002900000000
#04316:1212120000001212
#04314:00120000000000001200120000000000
#04312:0000001200000000
#0461b:00130000000013002300000023000000
#04617:0000000000130013
#04612:2300230000000013
#04615:0013000000000000
#04610:0000004100000000
#04715:0000001300002300
#04718:0013000000130000
#04712:00130000000000002300130000000000
#0471b:23000000230000000000001300001300
#04812:00130000000000000000001300001300
#04815:0013130000130000
#04818:23000013000013000000000023000000
#0481b:0000230023130000
#05718:0000000000000016
#05712:1300130000000026
#05716:0013280000000000
#0571b:0023000000000000
#05818:00260000160026000000000000000000
#05812:00160000260026000000000000001300
#05817:000000000000000000000000000000000000000000000000000000000000000000000000000000000000000000000000000000000000000000000000000000000000000000000000000000000000000000000000000000000000000000000000000000000000000000000000000000000000000000000000000000000000000000000000000000000000000000000000000000000000000000000000000000000000000000000000000000000000000000000000000000000000000000000000000000000000000000000000000000000000000000000000000000000000000000000000000000000000000000000000000000000000000000000000000000000000000000000000000000000000000000000000000000000000000000000000000000000000000000000000000000000000000000000000000000000000000000000000000000000000000000000000000000000000000000000000000000000000000000000000000000000000000000000000000000000000000000000000000000000000000000000000000000000000000000000000000000000000000000000000000000000000000000000000000000000000000000000000000000000000000000000000000000000000000000000000000000000000000000000000000000000000000000000000000000000000000000000000000000000000000000000000000000000000000000000000000000000000000000000000000000000000000000000000000000000000000000000000000000000000000000000000000000000000000000000000000000000000000000000000000000000000000000000000000000000000000000000000000000000000000000000000000000000000000000000000000000000000000000000000000000000000000000000000000000000000000000000000000000000000000000000000000000000000000000000000000000000000000000000000000000000000000000000000000000000000000000000000000000000000000000000000000000000000000000000000000000000000000000000000000000000000000000000000000000000000000000000000000000000000000000000000000000000000000000000000000000000000000000000000000000000000000000000000000000000000000000000000000000000000000000000000000000000000000000000000000000000000000000000000000000000000000000000000000000000000000000000000000000000000000000000000000000000000000000000000000000000000000000000012120000000000000000000000000000000000000000000000000000000000000000000000000000000000000000000000000000000000000000000000000000000000000000000000000000000000000000000000000000000000000000000000000000000000000000000000000000000000000000000000000000000000000000000000000000000000000000000000000000000000000000000000000000000000000000000000000000000000000000000000000000000000000000000000000000000000000000000000000000000000000000000000000000000000000000000000000000000000000000000000000000000000000000000000000000000000000000000000000000000000000000000000000000000000000000000000000000000000000000000000000000000000000000000000000000000000000000000000000000000000000000000000000000000000000000000000000000000000000000000000000000000000000000000000000000000000000000000000000000000000000000000000000000000000000000000000000000000000000000000000000000000000000000000000000000000000000000000000000000000000000000000000000000000000000000000000000000000000000000000000000000000000000000000000000000000000000000000000000000000000000000000000000000000000000000000000000000000000000000000000000000000000000000000000000000000000000000000000000000000000000000000000000000000000000000000000000000000000000000000000000000000000000000000000000000000000000000000000000000000000000000000000000000000000000000000000000000000000000000000000000000000000000000000000000000000000000000000000000000000000000000000000000000000000000000000000000000000000000000000000130000000000000000000000000000000000000000000000000000000000000000000000000000000000000000000000000000000000000000000000000000000000000000000000000000000000000000000000000000000000000000000000000000000000000000000000000000000000000000000000000000000000000000000000000000000000000000000000000000000000000000000000000000000000000000000000000000000000000000000000000000000000000000000000000000000000000000000000000000000000000000000000000000000000000000000000000000000000000000000000
#0581f:0000002100000000
#05317:0000000000130013
#05316:0012000000000000
#05319:0013
#0531b:0000001300000000
#05318:12
#05312:0000002300000000
#05313:0000000000230000
#05314:0000000000000023
#0541b:1300001300000013
#05418:00130000000000000000000000000000
#05417:0000130000130000
#05419:00000013
#05415:0023002300000000
#05414:0000000000230000
#05413:0000000000000023
#05512:0023000013000000
#05516:00000013
#05514:0000000000130013
#05517:13
#0551b:0000002300000000
#0551a:0000000000230000
#05519:0000000000000023
#05616:00131300
#05612:1313000000130000
#05618:0023002300000000
#05619:0000000000230000
#0561a:0000000000000023
#0021b:00000000130000000000001300000000
#00212:0000130013000013
#00215:00000000000013000013000013000000
#00218:00000000001300000000130000000000
#00217:0013000000000013
#00219:13
#00312:00000000130000000000001300000000
#0031b:0000130013000013
#00318:00000000000013000013000013000000
#00315:00000000001300000000130000000000
#00316:0013000000000013
#00314:13
#00416:0013
#0041b:00131300
#00415:0000001300000000
#00418:00000000001300000000000000000000
#00412:00130013
#00417:0013000000001300
#00419:1300000000130000
#00414:0000000000000013
#0341a:0000000000140000
#03416:00000000000000001300001400001300
#03412:00130000000013000000000014000000
#03417:0000001300000000
#0341b:00230000
#0401b:1300001300001300
#04017:00131300
#04019:0000000000130000
#04016:13000023
#04012:00132300
#04015:0013000000000000
#04014:0000000000230000
#0611b:00130000230000000000230000002300
#06112:0013002300000023
#06116:1300000000230000
#06117:0013000000002300
#06115:00262600
#06515:0013
#06512:0026002300001300
#06519:0000000000130013
#06514:0000000000230013
#06518:2526000023000000
#0651b:0000002300002300
#06513:25
#03917:0000001300130013
#03912:0013001300130013
#03916:00131313
#0391b:00230013
#06712:00001313
#06716:0000000000230013
#0671b:00130000000000000000000000000000
#06717:0000000000130000000000000000000000000000000000000000000000000000
#07012:1300132300001300
#07017:0000000000000000130000000000000000000000000000000000000000000013
#0701b:0023000013230013
#07016:0000000000000013
#07015:0000001600160000
#06817:13130013
#0681b:0013000000230013
#06812:00132300000000001300000000000000
#0731b:1300130000130000
#07316:0013
#07318:00000000000000000000001300001300
#07315:00000000000000000000000013000013
#07312:00000000000000000000000000130000
#07317:0023000000000000
#07414:0000000000000014
#07412:00000013000013000000000000000000
#0741b:1300000000130000
#07418:00130000160000000000000000002400
#07415:0013002600260000
#07518:00150000260000000000000000000000
#07512:00160000
#07513:00250000000000000000000000000000
#01714:0012
#01716:13000000000000000012000000000000
#01715:0000001300000000
#01712:0013130000000000
#01718:00000000001300000000000000000000
#0171b:13130000
#0181b:23000000130000000000001300000000
#01812:0000130013000013
#01817:0000000013000000000000001300000013000000000000000013000000000000
#01816:0000000000130000
#0191b:1313
#01912:0013001300000000
#01916:13131300
#03016:0014261400001400
#0301a:1400000014140000
#03012:0000140000000014
#03014:0000000000260000
#02912:130000000012000000000012000000000000130000130000
#02915:00001300000000000000130000130000
#02918:1200130013000026
#0291c:001200000000001200000000
#0291b:0000001300000000
#02916:0000001200000000
#02914:00120000
#0291a:0000000000120000
#03218:00001200000000120000120000000000
#0321a:0012
#03216:14000000120000000012000012000000
#03214:00000000000000000000001200000000
#03212:0000000000002c000000000000122c00
#02512:1300001300000013
#02516:00130000
#0251b:0013000000130000
#02518:0013
#02517:13
#02514:00000013
#02416:13000000131300000000000013000000
#0241b:1300131300001300
#02414:0000000000180018
#02412:00001300000000131300000000000000
#02417:0013000013000000
#02312:1300000013000013
#0231b:0013001300000000
#02317:1300130013000013
#02212:13000000130000000000001300000000
#0221b:1300130013000013
#02216:0000000013000000000000001300000013000000000000000013000000000000
#02217:0000000000130000
#03116:00000000000000000000120000120000
#03118:00000012
#03117:0013000000000000
#0311b:13
#03112:26
#0491b:00130000000000000000000000000000
#04912:0013230000000000
#0491c:0000001200000000
#0491f:0000001100000000
#04915:23
#01018:0013160000000000
#01012:1600230000000013
#01015:0000001300000000
#0101b:23
#01017:0023
#01112:00130013
#01114:0000001300000000
#01116:1300000013000013
#0111b:00000000001300001300000000001300
#01119:1300000000130000
#01117:00000013
#01217:13130013
#01219:0000001300130000
#0121b:0000000013000013
#01216:0000000013000013
#01212:13000013
#01214:00000000001300000000000000000000
#01213:00000000000000000013000000000000
#01412:23160000
#0141b:0000230000000013
#01418:1600001300000000
#01415:0013000000000000
#01416:0023
#01410:41
#0151b:00130013
#01519:0000001300000000
#01517:1300000013000013
#01512:00000000001300001300000000001300
#01514:1300000000130000
#01516:00000013
#01616:13130013
#01614:0000001300130000
#01612:0000000013000013
#01617:0000000013000013
#0161b:13000013
#01619:00000000001300000000000000000000
#0161a:00000000000000000013000000000000
#05114:0000000000120000
#05116:00000012
#05112:0000120012000012
#05118:1212120000000012
#0511c:0000001200000000
#0521a:0000000000120000
#05218:0012000000001200
#0521c:0000120012000012
#05216:1200120000000012
#05212:0000001200000000
#05016:0000001212000012
#0501a:00000012
#05018:0000000000120000
#0501c:0000000000000012
#05012:00120000
#0011b:2300000023000013
#00116:00000000000000000000002300001300
#00112:00000000230000000000002300000000
#00117:0023
#00115:26260000
#03512:0000230000140000
#03516:00000000000013000000001400000000
#0351a:00000014
#0351b:0013001300000000
#03517:0000130013000013
#03616:0000230000140000
#03618:00000000000000000000001400000000
#03614:00000014
#0361b:0000130013000013
#03612:0013001300000013
#03617:0000001300000000
#05915:13000000260000001600001300130000
#0591b:00130000000000000000130000000000
#05918:00000013
#05912:0013000000130013
#05917:0013000000000000
#05910:0000004100000000
#03715:13001616
#03718:2613000000260000
#0371b:0000001300000013
#03712:0026002600130013
#03710:0000004100000000
#06212:0013002600160000
#06218:0000001600260000
#0621b:0013000000000013
#06216:0000000014001413
#06215:16
#0381b:00130000000013000000000000000000
#03812:0000230000140000
#03816:00000000000013000000001400000000
#0381a:00000014
#03817:0000000013000013
#04116:00000000000000000000000000130000
#04112:0013
#04117:000000000000000000000000000000000000000000000000000000000000000000000000000000000000000000000000000000000000000000000000000000000000000000000000000000000000000000000000000000000000000000000000000000000000000000000000000000000000000000000000000000000000000000000000000000000000000000000000000000000000000000000000000000000000000000000000000000000000000000000000000000000000000000000000000000000000000000000000000000000000000000000000000000000000000000000000000000000000000000000000000000000000000000000000000000000000000000000000000000000000000000000000000000000000000000000000000000000000000000000000000000000000000000000000000000000000000000000000000000000000000000000000000000000000000000000000000000000000000000000000000000000000000000000000000000000000000000000000000000000000000000000000000000000000000000000000000000000000000000000000000000000000000000000000000000000000000000000000000000000000000000000000000000000000000000000000000000000000000000000000000000000000000000000000000000000000000000000000000000000000000000000000000000000000000000000000000000000000000000000000000000000000000000000000000000000000000000000000000000000000000000000000000000000000000000000000000000000000000000000000000000000000000000000000000000000000000000000000000000000000000000000000000000000000000000000000000000000000000000000000000000000000000000000000000000000000000000000000000000000000000000000000000000000000000000000000000000000000000000000000000000000000000000000000000000000000000000000000000000000000000000000000000000000000000000000000000000000000000000000000000000000000000000000000000000000000000000000000000000000000000000000000000000000000000000000000000000000000000000000000000000000000000000000000000000000000000000000000000000000000000000000000000000000000000000000000000000000000000000000000000000000000000000000000000000000000000000000000000000000000000000000000000000000000000000000000000000000000000000000000000000000000000000000000000000000000000000000000000000000000000000000000000000000000000000000000000000000000000000000000000000000000000000000000000000000000000000000000000000000000000000000000000000000000000000000000000000000000000000000000000000000000000000000000000000000000000000000000000000000000000000000000000000000000000000000000000000000000000000000000000000000000000000000000000000000000000000000000000000000000000000000000000000000000000000000000000000000000000000000000000000000000000000000000000000000000000000000000000000000000000000000000000000000000000000000000000000000000000000000000000000000000000000000000000000000000000000000000000000000000000000000000000000000000000000000000000000000000000000000000000000000000000000000000000000000000000000000000000000000000000000000000000000000000000000000000000000000000000000000000000000000000000000000000000000000000000000000000000000000000000000000000000000000000000000000000000000000000000000000000000000000000000000000000000000000000000000000000000000000000000000000000000000000000000000000000000000000000000000000000000000000000000000000000000000000000000000000000000000000000000000000000000000000000000000000000000000000000000000000000001300000000000000000000000000000000000000000000000000000000000000000000000000000000000000000000000000000000000000000000000000000000000000000000000000000000000000000000000000000000000000000000000000000000000000000000000000000000000000000000000000000000000000000000000000000000000000000000000000000000000000000000000000000000000000000000000000000000000000000000000000000000000000000000000000000000000000000000000000000000000000000000000000000000000000000000000000000000000000000000000000000000000000000000000000000000000000000000000000000000000000000000000000000000000000000000000000000000000000000000000000000000000000000000000000000000000000000000000000000000000000000000000000000000000000000000000000000000000000000000
#0411b:0013
#04115:26
#06917:1313
#06919:00130000000000000000000000000000
#06916:0013000000230013
#06912:00130013
#0691b:0023000000000000
#07112:00130000000000000000000000000000
#07116:0000000000130000000000000000000000000000000000000000000000000000
#0711b:00001313
#07117:0000000000230013
#06012:1300000000130013
#06016:0013000000001300
#06015:00261600
#0601b:0000000000000013
#06315:00261613
#06318:13000000000000000000001300130000
#06312:00130000000000000000130000000000
#0631b:0013000000130013
#06316:0013000000000000
#0641b:13
#06417:0013000000000000
#06416:00000000000000000000242424000000
#06418:0000002300000024
#06414:0000000000000024
#0641a:00242400
#06415:0000002300000000
#06412:00242400
#00519:0000001300000000
#00512:00131313
#00514:0013000000130013
#00517:00000000000000001300001300000000
#0051b:23130000
#00516:13
#00510:41
#00712:13001313
#0071b:00131313
#00714:0000001300000000
#00716:00130000
#00717:1300000000000012
#00719:0013000000000000
#00718:0000000000130000
#00715:00000000000000000000001300000000
#00614:0000001300000000
#00618:0000000013130000
#00617:00130000
#00619:0013000000000013
#00612:00130013
#00616:13
#0061b:13000013
#00615:00000000000000000013001300000000
#07216:13130013
#07212:0013000000230013
#0721b:00132300000000001300000000000000
#06618:21000000001500000000000000000000000000000000000000000000000000000000000000000000000000000000000000000000000000000000000000000000
#06613:00000000001500000000000000000000000000000000000000000000000000000000000000000000000000000000000000000000000000000000000000000000
#06612:0000130013230013
#06616:0000000000000000000000000000000000000000000000000000000000000013
#06617:2100000000000013
#06615:0000001600160000
#0661b:0000132300001300
#00959:0000000000630000000000000000000000000000000000000000000000000000
#0095b:23
#00954:0000000000530000000000000000000000000000000000000000000000000000
#00952:23000012
#0095c:00000012
#00456:0033
#00457:00000043
#03957:0000002300000053
#03956:00130000
#0395b:00630000
#0335b:0000000000000063
#03358:0000004600000000
#03352:0000000000360000
#05857:000000000000000000000000000000000000000000000000000000000000000000000000000000000000000000000000000000000000000000000000000000000000000000000000000000000000000000000000000000000000000000000000000000000000000000000000000000000000000000000000000000000000000000000000000000000000000000000000000000000000000000000000000000000000000000000000000000000000000000000000000000000000000000000000000000000000000000000000000000000000000000000000000000000000000000000000000000000000000000000000000000000000000000000000000000000000000000000000000000000000000000000000000000000000000000000000000000000000000000000000000000000000000000000000000000000000000000000000000000000000000000000000000000000000000000000000000000000000000000000000000000000000000000000000000000000000000000000000000000000000000000000000000000000000000000000000000000000000000000000000000000000000000000000000000000000000000000000000000000000000000000000000000000000000000000000000000000000000000000000000000000000000000000000000000000000000000000000000000000000000000000000000000000000000000000000000000000000000000000000000000000000000000000000000000000000000000000000000000000000000000000000000000000000000000000000000000000000000000000000000000000000000000000000000000000000000000000000000000000000000000000000000000000000000000000000000000000000000000000000000000000000000000000000000000000000000000000000000000000000000000000000000000000000000000000000000000000000000000000000000000000000000000000000000000000000000000000000000000000000000000000000000000000000000000000000000000000000000000000000000000000000000000000000000000000000000000000000000000000000000000000000000000000000000000000000000000000000000000000000000000000000000000000000000000000000000000000000000000000000000000000000000000000000000000000000000000000000000000000000000000000000000000000000000000000000000000000000000000000000000000000000000000000000000000000000000000000000000000000000022220000000000000000000000000000000000000000000000000000000000000000000000000000000000000000000000000000000000000000000000000000000000000000000000000000000000000000000000000000000000000000000000000000000000000000000000000000000000000000000000000000000000000000000000000000000000000000000000000000000000000000000000000000000000000000000000000000000000000000000000000000000000000000000000000000000000000000000000000000000000000000000000000000000000000000000000000000000000000000000000000000000000000000000000000000000000000000000000000000000000000000000000000000000000000000000000000000000000000000000000000000000000000000000000000000000000000000000000000000000000000000000000000000000000000000000000000000000000000000000000000000000000000000000000000000000000000000000000000000000000000000000000000000000000000000000000000000000000000000000000000000000000000000000000000000000000000000000000000000000000000000000000000000000000000000000000000000000000000000000000000000000000000000000000000000000000000000000000000000000000000000000000000000000000000000000000000000000000000000000000000000000000000000000000000000000000000000000000000000000000000000000000000000000000000000000000000000000000000000000000000000000000000000000000000000000000000000000000000000000000000000000000000000000000000000000000000000000000000000000000000000000000000000000000000000000000000000000000000000000000000000000000000000000000000000000000000000000000000000000000000000000000000000000000000000000000000000000000000000000000000000000000000000000000000000000000000000000000000000000000000000000000000000000000000000000000000000000000000000000000000000000000000000000000000000000000000000000000000000000000000000000000000000000000000000000000000000000000000000000000000000000000000000000000000000000000000000000000000000000000000000000000000000000000000000000000000000000000000000000000000000000000000000000000000000000000000000000000000000000000
#05852:0000005600360000
#05858:0000006600460000
#03457:0000002300000000
#03452:00530000000000000000000000000000
#0345b:00630000
#03456:00130000
#0195b:0063
#01956:0063
#01957:00000013
#01952:0000000000130000
#0185b:00000000000000000000006300000000
#01857:0000000000000000000000000000000000000000000000000023000000000000
#02057:00000000000000000000005300000000
#02352:0053
#02357:0053
#02356:0000000000130000
#0235b:0000000000130000
#02252:00000000000000000000005300000000
#02256:0000000000000000000000000000000000000000000000000023000000000000
#02952:13
#0295b:0000001300000000
#0495b:00630000000000000000000000000000
#01058:00460000
#01052:3600000000000053
#01056:00000000000000000000001300000000
#01156:23
#0115b:0000000000000063
#01257:23
#01256:0000000000000063
#01352:23
#02552:0000002300000023
#02556:00630000
#0255b:0023000000230000
#02558:0053
#02557:53
#02554:00000063
#03157:0023000000000000
#0315b:6300001300000000
#03152:0000001300000000
#02156:00230000
#02152:53
#01452:00360000
#0145b:0000000000000063
#01458:46
#01457:00000000000000000000001300000000
#01557:23
#01552:0000000000000053
#01656:23
#01657:0000000000000053
#0175b:23
#05457:00530000
#0545b:0000002300000063
#05652:0053000000000000
#05656:00230000
#05557:23
#0525c:0000000000000062
#05256:22620000
#05252:0000002200000000
#05358:22
#05152:0000000000000052
#05158:22520000
#0515c:0000002200000000
#0505c:0000000000000062
#05052:00520000
#05056:0000002200000000
#0015b:0000000000000043
#00156:0000000000000063
#00155:36460000
#03556:0000002300000000
#03557:00130000
#03552:00530000
#03755:33
#03758:0043000000460000
#03752:0000003600000053
#0385b:00630000000000000000000000000000
#03856:0000002300000000
#03852:00530000
#03857:00130000
#0405b:23
#04052:00230000
#04055:0063000000000000
#04058:0033000000000000
#04156:00000000000000000000000000230000
#04152:0053
#04157:000000000000000000000000000000000000000000000000000000000000000000000000000000000000000000000000000000000000000000000000000000000000000000000000000000000000000000000000000000000000000000000000000000000000000000000000000000000000000000000000000000000000000000000000000000000000000000000000000000000000000000000000000000000000000000000000000000000000000000000000000000000000000000000000000000000000000000000000000000000000000000000000000000000000000000000000000000000000000000000000000000000000000000000000000000000000000000000000000000000000000000000000000000000000000000000000000000000000000000000000000000000000000000000000000000000000000000000000000000000000000000000000000000000000000000000000000000000000000000000000000000000000000000000000000000000000000000000000000000000000000000000000000000000000000000000000000000000000000000000000000000000000000000000000000000000000000000000000000000000000000000000000000000000000000000000000000000000000000000000000000000000000000000000000000000000000000000000000000000000000000000000000000000000000000000000000000000000000000000000000000000000000000000000000000000000000000000000000000000000000000000000000000000000000000000000000000000000000000000000000000000000000000000000000000000000000000000000000000000000000000000000000000000000000000000000000000000000000000000000000000000000000000000000000000000000000000000000000000000000000000000000000000000000000000000000000000000000000000000000000000000000000000000000000000000000000000000000000000000000000000000000000000000000000000000000000000000000000000000000000000000000000000000000000000000000000000000000000000000000000000000000000000000000000000000000000000000000000000000000000000000000000000000000000000000000000000000000000000000000000000000000000000000000000000000000000000000000000000000000000000000000000000000000000000000000000000000000000000000000000000000000000000000000000000000000000000000000000000000000000000000000000000000000000000000000000000000000000000000000000000000000000000000000000000000000000000000000000000000000000000000000000000000000000000000000000000000000000000000000000000000000000000000000000000000000000000000000000000000000000000000000000000000000000000000000000000000000000000000000000000000000000000000000000000000000000000000000000000000000000000000000000000000000000000000000000000000000000000000000000000000000000000000000000000000000000000000000000000000000000000000000000000000000000000000000000000000000000000000000000000000000000000000000000000000000000000000000000000000000000000000000000000000000000000000000000000000000000000000000000000000000000000000000000000000000000000000000000000000000000000000000000000000000000000000000000000000000000000000000000000000000000000000000000000000000000000000000000000000000000000000000000000000000000000000000000000000000000000000000000000000000000000000000000000000000000000000000000000000000000000000000000000000000000000000000000000000000000000000000000000000000000000000000000000000000000000000000000000000000000000000000000000000000000000000000000000000000000000000000000000000000000000000000000000000000000000000000000000000000000002300000000000000000000000000000000000000000000000000000000000000000000000000000000000000000000000000000000000000000000000000000000000000000000000000000000000000000000000000000000000000000000000000000000000000000000000000000000000000000000000000000000000000000000000000000000000000000000000000000000000000000000000000000000000000000000000000000000000000000000000000000000000000000000000000000000000000000000000000000000000000000000000000000000000000000000000000000000000000000000000000000000000000000000000000000000000000000000000000000000000000000000000000000000000000000000000000000000000000000000000000000000000000000000000000000000000000000000000000000000000000000000000000000000000000000000000000000000000000000000
#0415b:0063
#03652:0000002300000000
#0365b:00130000
#03656:00630000
#0705b:0000000000430063
#07057:0000000000000000000000000000000000000000000000000000000000000023
#07052:2300003300000000
#07152:00530000000000000000000000000000
#07156:0000000000230000000000000000000000000000000000000000000000000000
#0715b:00430000000000000000000000000000
#00252:0000000000000033
#00257:0000000000000053
#0035b:0000000000000043
#00356:0000000000000063
#06956:0000000000000063
#0695b:0000000000000043
#06658:51000000002500000000000000000000000000000000000000000000000000000000000000000000000000000000000000000000000000000000000000000000
#06653:00000000002500000000000000000000000000000000000000000000000000000000000000000000000000000000000000000000000000000000000000000000
#06652:0000000000330053
#06656:0000000000000000000000000000000000000000000000000000000000000023
#06657:61
#0665b:0000004300000000
#0675b:00630000000000000000000000000000
#06757:0000000000230000000000000000000000000000000000000000000000000000
#06752:00330000000000000000000000000000
#00858:0000000000000053
#00855:0000000000000063
#04555:0000001900000000
#06558:0046000000000000
#06552:0036000000000000
#07558:00460000
#07553:00350000000000000000000000000000
#07455:0000004600360000
#07458:0000000000000044
#06152:0000000000000013
#0615b:0000000000000013
#06155:00160000
#06258:0000000000460000
#06252:0000003600000000
#06055:00160000
#05955:00160000
#06355:00160000
#001360:0000000000000013
#002320:0023000000000000
#002370:0000000000000013
#0033b0:0023000000000000
#003360:0000000000000013
#004320:0023000000000000
#008380:0000000000000013
#0093b0:53
#009390:0000000000530000000000000000000000000000000000000000000000000000
#009320:00000022
#008351:0000000000000013
#009321:53
#009341:0000000000530000000000000000000000000000000000000000000000000000
#0093c1:00000022
#010321:0013
#010361:00000000000000000053002300000000
#0103b0:00000000000000000000001300000000
#010370:0000000000005323
#010321:0000000000000013
#011361:53
#011321:0023000000000000
#0113b0:0013000000000000
#011370:00230000
#0113b0:0000000000000013
#012370:53
#0123b0:0023000000000000
#012361:0013000000000000
#012321:00230000
#012361:0000000000000013
#013321:53
#013361:0023000000000000
#0143b1:0013
#014371:00000000000000000053002300000000
#014320:00000000000000000000001300000000
#014360:0000000000005323
#0143b1:0000000000000013
#015371:53
#0153b1:0023000000000000
#015320:0013000000000000
#015360:00230000
#015320:0000000000000013
#016360:53
#016320:0023000000000000
#016371:0013000000000000
#0163b1:00230000
#016371:0000000000000013
#0173b1:53
#017371:0023000000000000
#017381:000000000000000000000000000000125252220000000000
#017391:000000000000000000000000000000000000000000000000000000000000005200520052000000000000000000000000
#017320:000000000000000000000000000000000000125252525252
#017330:000000000000000000000000000000000000000000000000000000000000000000000000005200520052005200520052
#018320:22
#0183b0:00000000000000000000001300002300
#018370:0000000000000000000000000000000000000000000000000053000000000000
#019370:00000013000000000000000000000000
#0193b0:0000532300000000
#0193b0:0013
#019370:00000023
#019361:0013
#019321:0000000000230000
#0203b0:0000001300000000
#020370:0023
#020370:00000000000000000000001300000000
#0203b0:0000000000000023
#021320:1323
#021360:00530000
#022320:00000000000000000000001300002300
#022360:0000000000000000000000000000000000000000000000000053000000000000
#023360:00000013000000000000000000000000
#023320:0000532300000000
#023320:0013
#023360:0000000000230000
#023371:0013
#0233b1:0000000000230000
#025371:13
#0253b1:0053000000000000
#025391:00230000
#025360:00130000
#025320:0000005300000000
#025350:0023
#025381:0013
#0253b1:0000000000530000
#025371:00000023
#025340:00000013
#025320:0000000000000053
#026360:23
#0313b0:1300332300000000
#031370:0053000000000000
#031321:0000132300000000
#0333b1:0000000000000013
#034371:00230000000000000000000000000000
#034320:00130000000000000000000000000000
#034360:00230000
#0343b1:00132300
#034371:0000005300000000
#0343b1:0000000000000013
#035371:23
#035320:13
#035360:0023000000000000
#035320:00132300
#035360:0000005300000000
#035320:0000000000000013
#036360:23
#0363b1:13
#036371:0023000000000000
#036361:00132300
#036321:0000005300000000
#037321:0000000000000013
#038361:00230000000000000000000000000000
#0383b0:00130000000000000000000000000000
#038370:00230000
#038321:00132300
#038361:0000005300000000
#038321:0000000000000013
#039361:23
#0393b0:13
#039370:0023000000000000
#0393b0:00132300
#039370:0000005300000000
#039370:0000000000000013
#0403b0:53
#040380:0023000000000000
#040351:0013000000000000
#040321:00530000
#040361:0000002300000000
#041351:1656000000000056260000000000000000000000000000000000000000000000
#041371:000000000000000000000000000000000000000000000000000000000000000000000000000000000000000000000000000000000000000000000000005200000000000000000000000000000000000000000000000000000000000000000000000000000000000000000000000000000000000000000000000000000000000000000000000000000000000000000000000000000000000000000000000000000000000000000000000000000000000000000000000000000000000000000000000000000000000000000000000000000000000000000000000000000000000000000000000000000000000000000000000000000000000000000000000000000000000000000000000000000000000000000000000000000000000000000000000000000000000000000000000000000000000000000000000000000000000000000000000000000000000000000000000000000000000000000000000000000000000000000000000000000000000000000000000000000000000000000000000000000000000000000000000000000000000000000000000000000000000000000052000000000000000000000000000000000000000000000000000000000000000000000000000000000000000000000000000000000000000000000000000000000000000000000000000000000000000000000000000000000000000000000000000000000000000000000000000000000000000000000000000000000000000000000000000000000000000000000000000000000000000000000000000000000000000000000000000000000000000000000000000000000000000000000000000000000000000000000000000000000000000000000000000000000000000000000000000000000000000000000000000000000000000000000000000000000000000000000000000000000000000000000000000000000000000000000000000000000000000000000000000000000000000000000000000000000000000000000000000000000000000000000000000000000000000000000000000000000000000000000000000000000000000000000000000000000000000000000000000000000000000000000000000000000000000000000000000000000000000000000000000000000000000000000000000000000000000000000000000000000000000000000000000000000000000000000000000000000000000000000000000000000000000000000000000000000000000000000000000000000000000000000000000000000000000000000000000000000000000000000000000000000000000000000000000000000000000000000000000000000000000000000000000000000000000000000000000000000000000000000000000000000000000000000000000000000000000000000000000000000000000000000000000000000000000000000000000000000000000000000000000000000000000000000000000000000000000000000000000000000000000000000000000000000000000000000000000000000000000000000000000000000000000000000000000000000000000000000000000000000000000000000000000000000000000000000000000000000000000000000000000000000000000000000000000000000000000000000000000000000000000000000000000000000000000000000000000000000000000000000000000000000000000000000000000000000000000000000000000000000000000000000000000000000000000000000000000000000000000000000000000000000000000000000000000000000000000000000000000000000000000000000000000000000000000000000000000000000000000000000000000000000000000000000000000000000000000000000000000000000000000000000000000000000000000000000000000000000000000000000000000000000000000000000000000000000000000000000000000000000000000000000000000000000000000000000000000000000000000000000000000000000000000000000000000000000000000000000000000000000000000000000000000000000000000000000000000000000000000000000000000000000000000000000000000000000000000000000000000000000000000000000000000000000000000000000000000000000000000000000000000000000000000000000000000000000000000000000000000000000000000000000000000000000000000000000000000000000000000000000000000000000000000000000000000000000000000000000000000000000000000000000000000000000000000000000000000000000000000000000000000000000000000000000000000000000000000000000000000000000000000000000000000000000000000000000000000000000000000000000000000000000000000000000000000000000000000000000000000000000000000000000000000000000000000000000000000000000000000000000000000000000000000000000000000000000000000000000000000000000000000000000000000000000000000000000000000000000000000000000000
#0413b1:0013
#041371:000000000000000000000000000000000000000000000000000000000000000000000000000000000000000000000000000000000000000000000000000000000000000000000000000000000000000000000000000000000000000000000000000000000000000000000000000000000000000000000000000000000000000000000000000000000000000000000000000000000000000000000000000000000000000000000000000000000000000000000000000000000000000000000000000000000000000000000000000000000000000000000000000000000000000000000000000000000000000000000000000000000000000000000000000000000000000000000000000000000000000000000000000000000000000000000000000000000000000000000000000000000000000000000000000000000000000000000000000000000000000000000000000000000000000000000000000000000000000000000000000000000000000000000000000000000000000000000000000000000000000000000000000000000000000000000000000000000000000000000000000000000000000000000000000000000000000000000000000000000000000000000000000000000000000000000000000000000000000000000000000000000000000000000000000000000000000000000000000000000000000000000000000000000000000000000000000000000000000000000000000000000000000000000000000000000000000000000000000000000000000000000000000000000000000000000000000000000000000000000000000000000000000000000000000000000000000000000000000000000000000000000000000000000000000000000000000000000000000000000000000000000000000000000000000000000000000000000000000000000000000000000000000000000000000000000000000000000000000000000000000000000000000000000000000000000000000000000000000000000000000000000000000000000000000000000000000000000000000000000000000000000000000000000000000000000000000000000000000000000000000000000000000000000000000000000000000000000000000000000000000000000000000000000000000000000000000000000000000000000000000000000000000000000000000000000000000000000000000000000000000000000000000000000000000000000000000000000000000000000000000000000000000000000000000000000000000000000000000000000000000000000000000000000000000000000000000000000000000000000000000000000000000000000000000000000000000000000000000000000000000000000000000000000000000000000000000000000000000000000000000000000000000000000000000000000000000000000000000000000000000000000000000000000000000000000000000000000000000000000000000000000000000000000000000000000000000000000000000000000000000000000000000000000000000000000000000000000000000000000000000000000000000000000000000000000000000000000000000000000000000000000000000000000000000000000000000000000000000000000000000000000000000000000000000000000000000000000000000000000000000000000000000000000000000000000000000000000000000000000000000000000000000000000000000000000000000000000000000000000000000000000000000000000000000000000000000000000000000000000000000000000000000000000000000000000000000000000000000000000000000000000000000000000000000000000000000000000000000000000000000000000000000000000000000000000000000000000000000000000000000000000000000000000000000000000000000000000000000000000000000000000000000000000000000000000000000000000000000000000000000000000000000000000000000000000000000000000000000000000000000000000000000000000000000000000000000000000000000000000000005300000000000000000000000000000000000000000000000000000000000000000000000000000000000000000000000000000000000000000000000000000000000000000000000000000000000000000000000000000000000000000000000000000000000000000000000000000000000000000000000000000000000000000000000000000000000000000000000000000000000000000000000000000000000000000000000000000000000000000000000000000000000000000000000000000000000000000000000000000000000000000000000000000000000000000000000000000000000000000000000000000000000000000000000000000000000000000000000000000000000000000000000000000000000000000000000000000000000000000000000000000000000000000000000000000000000000000000000000000000000000000000000000000000000000000000000000000000000000000000
#0423b1:0023000000000000
#041320:0013
#041360:00000000000000000000000000530000
#042320:0023000000000000
#042380:0000001222000000
#042360:0000000000122200
#042340:0000000000000012
#043340:22
#043320:0012220000000000
#043360:0000001222000000
#043380:0000000000122200
#0433a0:0000000000000012
#0443a0:22
#0443c0:0012220000000000
#044360:0000001222000000
#044380:0000000000122200
#044360:0000000000000012
#045360:22
#045380:0012220000000000
#0453b0:0000000000132300
#046380:0013230000000000
#046350:0000001323000000
#046320:0000000000132300
#047350:0013230000000000
#0473b0:0000001323000000
#047350:0000000000000013
#048350:23
#048320:0000001323000000
#048380:0000000000000013
#049380:23
#0493b0:00130000000000000000000000000000
#049370:00230000
#049370:0000001200000000
#049320:0000000000220000
#049371:0000000000120000
#0493c1:0000000000000022
#049320:0000000000000012
#050370:00220000000000000000000000000000
#0503c1:00120000000000000000000000000000
#050371:00220000
#050320:00122200
#050360:0000005200000000
#0503c0:0000000000000012
#051380:52
#0513c0:0022000000000000
#051380:00122200
#0513c0:0000005200000000
#051320:0000000000000012
#052360:52
#052320:0022000000000000
#052360:00122200
#052320:0000005200000000
#0523c0:0000000000000012
#053380:52
#0533c0:0022000000000000
#054370:00132300
#0543b0:0000005300000000
#0543b0:0000000000000013
#055370:53
#0553b0:0023000000000000
#055360:0000132300000000
#056320:0013002300000000
#056360:00530000
#056360:0000000000001323
#058320:0000001600260000
#058370:0052
#058381:0000001600260000
#058371:000000000000000000000000000000000000000000000000000000000000000000000000000000000000000000000000000000000000000000000000000000000000000000000000000000000000000000000000000000000000000000000000000000000000000000000000000000000000000000000000000000000000000000000000000000000000000000000000000000000000000000000000000000000000000000000000000000000000000000000000000000000000000000000000000000000000000000000000000000000000000000000000000000000000000000000000000000000000000000000000000000000000000000000000000000000000000000000000000000000000000000000000000000000000000000000000000000000000000000000000000000000000000000000000000000000000000000000000000000000000000000000000000000000000000000000000000000000000000000000000000000000000000000000000000000000000000000000000000000000000000000000000000000000000000000000000000000000000000000000000000000000000000000000000000000000000000000000000000000000000000000000000000000000000000000000000000000000000000000000000000000000000000000000000000000000000000000000000000000000000000000000000000000000000000000000000000000000000000000000000000000000000000000000000000000000000000000000000000000000000000000000000000000000000000000000000000000000000000000000000000000000000000000000000000000000000000000000000000000000000000000000000000000000000000000000000000000000000000000000000000000000000000000000000000000000000000000000000000000000000000000000000000000000000000000000000000000000000000000000000000000000000000000000000000000000000000000000000000000000000000000000000000000000000000000000000000000000000000000000000000000000000000000000000000000000000000000000000000000000000000000000000000000000000000000000000000000000000000000000000000000000000000000000000000000000000000000000000000000000000000000000000000000000000000000000000000000000000000000000000000000000000000000000000000000000000000000000000000000000000000000000000000000000000000000000000000000000000000000000052000000000000000000000000000000000000000000000000000000000000000000000000000000000000000000000000000000000000000000000000000000000000000000000000000000000000000000000000000000000000000000000000000000000000000000000000000000000000000000000000000000000000000000000000000000000000000000000000000000000000000000000000000000000000000000000000000000000000000000000000000000000000000000000000000000000000000000000000000000000000000000000000000000000000000000000000000000000000000000000000000000000000000000000000000000000000000000000000000000000000000000000000000000000000000000000000000000000000000000000000000000000000000000000000000000000000000000000000000000000000000000000000000000000000000000000000000000000000000000000000000000000000000000000000000000000000000000000000000000000000000000000000000000000000000000000000000000000000000000000000000000000000000000000000000000000000000000000000000000000000000000000000000000000000000000000000000000000000000000000000000000000000000000000000000000000000000000000000000000000000000000000000000000000000000000000000000000000000000000000000000000000000000000000000000000000000000000000000000000000000000000000000000000000000000000000000000000000000000000000000000000000000000000000000000000000000000000000000000000000000000000000000000000000000000000000000000000000000000000000000000000000000000000000000000000000000000000000000000000000000000000000000000000000000000000000000000000000000000000000000000000000000000000000000000000000000000000000000000000000000000000000000000000000000000000000000000000000000000000000000000000000000000000000000000000000000000000000000000000000000000000000000000000000000000000000000000000000000000000000000000000000000000000000000000000000000000000000000000000000000000000000000000000000000000000000000000000000000000000000000000000000000000000000000000000000000000000000000000000000000000000000000000000000000000000000000000000000000000000000000
#0593b1:00130000
#059351:0000002300000000
#059320:0000001323000000
#0593b0:0000000000000013
#060360:33
#0603b0:0023000000000000
#060320:00130000
#060380:0000002300000000
#0603b1:0000001323000000
#060371:0000000000130000
#0603b1:00000023
#0613b1:00130000
#061351:0000002300000000
#061320:0000001323000000
#061360:0000000000130000
#061320:00000023
#063320:00130000
#063380:0000002300000000
#0633b1:0000001323000000
#063321:0000000000000013
#064371:33
#064321:0023000000000000
#066381:11000000005500000000000000000000000000000000000000000000000000000000000000000000000000000000000000000000000000000000000000000000
#0663a1:0021000000000000
#066370:11
#066330:00000000005500000000000000000000000000000000000000000000000000000000000000000000000000000000000000000000000000000000000000000000
#066350:0021000000000000
#066320:0000000000000013
#066360:0000000000000000000000000000000000000000000000000000000000000053
#067320:00230000000000000000000000000000
#0673b1:00130000230000000000000000000000
#067371:0000000000530000000000000000000000000000000000000000000000000000
#067360:00130000
#067320:0000002300000000
#0673b1:0000001300000000
#067371:0023
#0673b1:0000000000130023
#067371:00000033
#068321:00130000
#068361:0000002300000000
#0683b0:0000001300000000
#068370:0023
#068360:0000000000130023
#068320:00000033
#069370:00130000
#0693b0:0000002300000000
#069361:0000001300000000
#069321:0023
#0693b1:0000000000130023
#069371:00000033
#069360:0000000000000013
#070320:53
#070360:0023000000000000
#0703b0:0000000000000013
#070370:0000000000000000000000000000000000000000000000000000000000000053
#0713b0:00230000000000000000000000000000
#071321:00130000230000000000000000000000
#071361:0000000000530000000000000000000000000000000000000000000000000000
#071370:00130000
#0713b0:0000002300000000
#071321:0000001300000000
#071361:0023
#071321:0000000000130023
#071361:00000033
#0723b1:00130000
#072371:0000002300000000
#072320:0000001300000000
#072360:0023
#072370:0000000000130023
#0723b0:00000033
#073360:13
#073350:0033000000000000000000000000000000000000000000000000000000000000
#073340:00330000000000000000000000000000
#073330:0000003300000000000000000000000000000000000000000000000000000000
#073320:0023000000000000
#073360:00130000
#073320:0000002300000000
#073371:0000001300000000
#0733b1:0023
