This file was generated by Ched 2.6.4.0.
#TITLE ""
#ARTIST ""
#DESIGNER ""
#DIFFICULTY 0
#PLAYLEVEL
#SONGID ""
#WAVE ""
#WAVEOFFSET 0
#JACKET ""
#REQUEST "ticks_per_beat 480"
#00002: 4
#BPM01: 185
#BPM02: 92.5
#00008: 01
#02908: 0000000000000001
#02608: 02
#TIL00: ""
#HISPEED 00
#MEASUREHS 00
#01012:00140000
#0101a:1414
#0131a:14000014
#01316:00140000
#01312:0014
#01918:1414
#01914:00140000
#02012:1414
#02018:00140014
#02114:1414
#0211a:00140014
#02314:1414
#02318:00140000
#0241a:1414
#02414:00140014
#02518:1414
#02512:00140014
#02714:0000001400000000
#0271a:0000000014000014
#02712:0000000000140000
#02716:00000014
#02812:1400000000140000
#02818:0014000000000000
#02814:00140000
#0281a:0000001400000000
#02816:0014
#0291a:14000014
#02914:0014000000140000
#02918:00141400
#02912:0000001400000014
#03012:0000000000140000
#03015:00140000
#03112:0000001400000000
#03115:14
#03116:0000000000000014
#0321a:0000000000000014
#03314:0000000000000014
#03312:0000002400000000
#0331a:0000000000240000
#03418:0014000000140000
#03412:0000001400000000
#03414:0000000000000014
#0351a:0014000000140000
#03514:0000001400000000
#03512:0000000000000014
#03618:0014000000140000
#03614:0000001400000000
#03612:0000000000000014
#03716:0014000000000000
#03718:0000000000000014
#0371a:0000002400000000
#03712:0000000000240000
#03710:0000004100000000
#03814:0014000000140000
#0381a:0000001400000000
#03818:0000000000000014
#03912:0014000000140000
#03918:0000001400000000
#0391a:0000000000000014
#04014:0014000000140000
#04018:0000001400000000
#0401a:0000000000000014
#04116:0014000000000000
#00112:2414
#0011a:00000014
#00118:00240000
#00214:1414
#0021a:00000014
#00218:00140000
#00312:14
#00314:0014
#00318:00000014
#0031a:00140000
#00414:14
#0041a:00140000
#00412:0014
#00416:00000014
#0051a:2414
#00512:00000014
#00514:00240000
#00510:41
#00618:1414
#00614:00140000
#00612:00000014
#0071a:14
#00712:00140000
#00718:0014
#00714:00000014
#00818:14
#00812:00140000
#0081a:0014
#00816:00000014
#01112:1414
#0111a:00140000
#01218:1414
#01214:00140014
#0141a:00140000
#01412:2414
#01410:41
#01712:14000014
#01716:00140000
#0171a:0014
#0151a:1414
#01512:00140000
#01614:1414
#01618:00140014
#0421a:0000001400000000
#04212:0000000000000014
#04318:0000001400000000
#04314:0000000000000014
#0441a:0000001400000000
#04412:0000000000000014
#04518:0000001400000000
#04514:0000000000140000
#0451a:0000000000000014
#04614:0000001400000000
#04618:0000000000140000
#04612:0000000000000014
#04610:0000004100000000
#0471a:0000001400000000
#04714:0000000000140000
#04718:0000000000000014
#04812:0000001400000000
#04818:0000000000140000
#04814:0000000000000014
#0531a:0000001400000000
#05314:0000000000000014
#0541a:0000001400000000
#05414:0000000000000014
#05518:0000001400000000
#05512:0000000000000014
#05618:0000001400000000
#05612:0000000000000014
#05818:0000000000000014
#0581a:0000002400000000
#05812:0000000000240000
#0581f:0000002100000000
#05914:0014000000000000
#0591a:0000001400000000
#05916:0000000000140000
#05912:0000000000000014
#05910:0000004100000000
#0601a:0014000000000014
#06012:0000001400000000
#06016:0000000000140000
#06112:0014000000000000
#06118:0000001400000000
#06114:0000000000140000
#0611a:0000000000000014
#06216:0014000000000000
#06214:0000000000000014
#06212:0000002400000000
#0621a:0000000000240000
#06318:0014000000000000
#06312:0000001400000000
#06316:0000000000140000
#0631a:0000000000000014
#06412:0014000000000014
#0641a:0000001400000000
#06416:0000000000140000
#0651a:0014000000000000
#06514:0000001400000000
#06518:0000000000140000
#06512:0000000000000014
#06616:0014000000000000
#0661a:0000001400000000
#06912:0000001400000000
#06916:0000000000140000
#0691a:0000000000000014
#06918:0014000000000000
#07012:0014000000140000
#0701a:0000001400000014
#06814:0000001400000014
#06818:0000000000140000
#0711a:0000000000140000
#07112:0000001400000014
#0731a:0000001400000000
#07316:0000000000140000
#07312:0000000000000014
#07314:0014000000000000
#0741a:0014000000000000
#07218:0000001400000014
#07214:0000000000140000
#06717:0014000000000000
#0491f:0000001100000000
#02610:41
#02952:0000000000000054
#03052:0000000000540000
#03055:00640000
#03152:0000005400000000
#03155:64
#03156:0000000000000024
#0325a:0000000000000014
#03252:0000001400000000
#0665a:0000006400000000
#06757:0024000000000000
#07552:00140000
#009320:14
#009340:00000024
#0183a0:14240000
#018320:00001424
#022320:14240000
#0223a0:00001424
#0263a0:14240000
#026380:0034000000000000
#026320:0000001400240000
#026340:0034
#0263a0:00000014
#026380:0000000000000034
#0273a0:34
#027380:0024000000000000
#029320:0000000000000014
#030350:00340000
#030320:0000000000340000
#031350:34
#031320:0000003400000000
#031360:0000000000000054
#032320:0000002400000000
#041320:0000001400000000
#042340:0024000000000000
#0493a0:0000001400000000
#049380:0000000000000024
#050320:0000001400000000
#050340:0000000000000024
#051380:0000001400000000
#0513a0:0000000000000024
#052340:0000001400000000
#052320:0000000000000024
#0663a0:0000001400000000
#067370:0054000000000000
#0673a0:0000000000000024
#074320:0000001400000034
#074340:0000000000340000
#075320:00240000
