This file was generated by Ched 2.7.0.0.
#TITLE ""
#ARTIST ""
#DESIGNER ""
#DIFFICULTY 0
#PLAYLEVEL
#SONGID ""
#WAVE ""
#WAVEOFFSET 0
#JACKET ""
#REQUEST "ticks_per_beat 480"
#00002: 4
#BPM01: 120
#00008: 01
#TIL00: ""
#VOLUME: ""
#HISPEED 00
#MEASUREHS 00
#00018:14
#00214:14
#00118:14
#00314:14
#0041a:14
#00410:41
#00512:14
#0061a:14
#00712:14
#00818:14
#00914:14
#01018:14
#01114:14
#0121a:14
#01210:41
#01312:14
#0141a:14
#01512:14
#01618:14
#0161f:11
#01714:14
#01818:14
#01914:14
#02418:2616
#0241f:21
#02512:1616
#02510:41
#04012:0016
#04018:26
#04118:16
#04112:0016
#04218:16
#04212:0016
#04412:16
#04418:0016
#04410:41
#02618:16
#02612:0016
#02812:1616
#02918:1616
#03012:16
#03018:0016
#03212:0016
#03218:26
#03612:16
#03618:0016
#03610:41
#04512:16
#04518:0016
#04612:16
#04618:0016
#05918:14
#0571a:14
#05814:14
#05612:14
#05210:41
#0203a0:14
#0213a0:24
#022320:14
#023320:24
#027380:1626
#031320:1626
#033380:1626
#034320:1626
#035380:1626
#037320:1626
#038380:1626
#039320:1626
#043380:1626
#047320:1636
#049320:26
#0503a0:14
#0513a0:24
#052320:14
#053320:24
#054380:14
#055380:24
#060320:14
#061320:24
#0623a0:14
#0633a0:3424
