This file was generated by Ched 2.7.0.0.
#TITLE ""
#ARTIST ""
#DESIGNER ""
#DIFFICULTY 0
#PLAYLEVEL
#SONGID ""
#WAVE ""
#WAVEOFFSET 0
#JACKET ""
#REQUEST "ticks_per_beat 480"
#00002: 4
#BPM01: 120
#00008: 01
#TIL00: ""
#VOLUME: ""
#HISPEED 00
#MEASUREHS 00
#0161f:11
#01618:0013
#01612:0013
#01615:00000013
#00418:1300000000000013
#0041b:0013
#00415:0013
#00410:41
#00315:00000013
#00312:13
#0031b:0013
#00318:13
#00212:13
#00218:13
#0021b:0013
#0011b:13
#00115:13
#00112:0013
#0001b:13
#00012:0013
#00015:13
#04612:0000001400000013
#04616:2400240000002314
#04617:0000001300000000
#0461a:00002424
#0461b:00230000
#0421b:0000000000000013
#04216:2400241300000014
#0421a:0000001400000000
#04217:00000023
#04212:00232424
#03912:00000013000000000000000000000000
#03916:00001323
#03917:13000013000000000000000000000000
#0391a:00000024
#03819:0000000000000013
#0381b:00000013
#03816:00001313
#03814:0000001300000000
#03812:00130000
#03817:13130000
#03719:0013000000000013
#0371b:00000013
#03716:00000013
#03714:0000001300000000
#03712:0013
#03717:13
#0351b:00000013000000000000000013000000
#03517:0013
#03516:13000013000000000000000000000000
#03512:00000013
#03515:0000000000000013
#03518:0000000000000013
#03414:0000000000000013
#03412:00000013
#03417:00001313
#03419:0000001300000000
#0341b:00130000
#03416:13130000
#03314:0013000000000013
#03312:00000013
#03317:00000013
#03319:0000001300000000
#0331b:0013
#03316:13
#0311b:0013000013002300
#03118:1300001300000013
#03115:00000013000000000000000000001300
#03112:00001323
#0301b:13130013
#03012:0000000013000013
#03015:00130013
#03018:0000001300000000
#02715:1300001300000000
#0271b:00001313
#02712:0013000013001300
#02718:00000013000000000000000000000000
#02612:13130013
#0261b:0000000013000013
#02618:00130013
#02615:0000001300000000
#05516:0000001400000000
#0551b:13130000
#05515:00000013000000000000000000000000
#05518:0013000000000000
#05512:13002424
#0551a:00002424
#01518:00130013
#01512:0013130000001300
#01515:1313
#0151b:1300001313000000
#0141b:0000000000000013
#01412:0013
#01418:0013
#0131b:0013130000001300
#01315:00130013
#01312:1300001313000000
#01318:1313
#01212:1300000000000013
#0121b:0013
#01215:0013
#01210:41
#02018:13120012
#02012:13
#0201a:0000000012120000
#02016:00000012000000000012000000001200
#02014:0000001200001200
#0191b:0013
#01915:0000000013000013
#01918:0000001300000000
#01912:13
#01815:1313
#0181b:0000000013000013
#01818:00000013
#01012:0000000013000013
#01015:00000013
#01018:1313
#0081b:0013
#00818:13000013
#00815:0013
#00715:00130013
#00712:1313
#0071b:1313
#00718:0013001300000000
#00612:0013
#00618:0013
#00615:1300000000000013
#00518:00130013
#0051b:1313
#00512:1313
#00515:0013001300000000
#01715:0013000013000000
#01718:00130000
#0171b:1300001300000000
#00918:0013000013000000
#00915:00130000
#00912:1300001300000000
#0111b:1300000013000013
#01115:0013
#01118:0000001300001300
#0431a:0014
#04312:00001424
#04317:0000001300002300
#0431b:0013000000000000
#04316:24000014000000000000000000000000
#04712:0013000014000014
#0471a:00000000000000001400001400000000
#04716:24000014000013000000140000000014
#04718:00000000000000000000000000140000
#04714:00000014
#04512:2300000013000013
#04516:2400230000002314
#0451a:00140024
#04514:0013001300000000
#04419:0000000000130013
#04414:0000000000130013
#04416:00000014000013001400000014000000
#04412:0013000023000000
#0441b:00000023
#04410:41
#0411b:2300000013000013
#04116:2400000000000014
#04112:00140024
#04119:0013001300000000
#04117:00230023
#02216:00120012
#02214:0000000012120000
#02218:00000012000000000012000000001200
#0221a:0000001200001200
#02212:12
#02314:12
#02316:00120000
#0231a:00000012000000000000000000000000
#02318:0000001200000000
#0231c:12
#02312:00002323
#0231b:00002323
#0211a:12
#02118:00121200
#02114:00000012000000000000000000000000
#02116:0000001200000000
#02112:1212
#0211c:00000012
#05219:0013001300130013
#0521b:00130013
#05217:0013
#05214:0013001300130013
#05216:00130013
#05212:2313
#05210:41
#06312:00000012
#0631a:00000012000012000000000000000000
#0621c:00120000
#06214:00000012
#06116:00000000000000000000001200001200
#0611a:0012120000000000
#06018:00120000
#06014:00000000000000000000001200001200
#04919:00130013
#04918:0013000000000013
#0491a:0000001300130000
#0491b:0013
#04913:0014001400140014
#04914:00140014
#04912:2414
#03615:00000013000000000000000000000000
#0361b:2300001300001300
#03618:0013000000000000
#03614:0000000000000013
#03616:00000013
#03619:0000000000130000
#03617:0013
#03612:2313
#03610:41
#03218:00000013000000000000000000000000
#03212:0000001300001300
#03215:0013000000000000
#03219:0000000000000013
#03217:00000013
#03214:0000000000130000
#03216:0013
#0321b:0013
#05914:00000013
#05919:00000013000013000000000000000000
#0581b:00130000
#05816:00000013
#05716:00000000000000000000001300001300
#05719:0013130000000000
#05617:13130000
#05614:00000000000000000000001300001300
#05416:0000001400000014
#05415:00001300000000000000001300000000
#05418:00000013000000000000130000000000
#05412:0013
#0541b:1313
#05315:0013001300000000
#05312:00132300
#05318:0000000000130013
#0531b:23000013
#05314:0000000000130013
#05316:00000013
#05319:0013001300000000
#05317:00130000
#05015:0013000000000013
#05014:0000001300130000
#05012:00130013
#05016:0013
#05019:0014001400140014
#05018:00140014
#0501a:2414
#05118:00130014
#05119:0000000000140014
#05114:00140000
#05113:0014001400000000
#05112:2400000000130013
#05115:00000013
#0511b:0013001300000000
#0511a:0024
#04819:0014001400140014
#04818:00140014
#0481a:2414
#04814:00130013
#04815:0013000000000013
#04813:0000001300130000
#04812:2413
#04017:0000001300000000
#0401b:0013000023000000
#04016:00000014000000001400000014000000
#04014:0000000000130013
#04019:0000000000130013
#04012:00000023
#02915:00000013
#02912:0000000013000013
#02918:00000013
#02914:0000001300000000
#02916:00130000
#0291b:0013
#02919:0013000000000000
#02917:13
#02818:2300001300000000
#02812:00000013000000001300000000000000
#0281b:0013000013001300
#02814:0000000000130013
#02816:00000013
#02815:23
#02518:00000013
#0251b:0000000013000013
#02515:00000013
#02519:0000001300000000
#02517:00130000
#02512:0013
#02514:0013000000000000
#02516:13
#02510:41
#02415:0000001300000000
#0241b:00000013000000001300000000000000
#02412:0013000013001300
#02419:0000000000130013
#02417:00000013
#0241f:21
#0475a:1414
#04756:14000054000000000000000000000000
#04752:0014
#04352:14001454
#04356:14000064000000000000000000000000
#04357:00000053
#0435a:0014
#0395b:0013
#03952:13000053000000000000000000000000
#0395a:00000064
#03956:00001363
#03957:13000053000000000000000000000000
#0385b:0013
#03852:13
#03856:00001363
#03857:13530000
#03552:00001353
#0355b:13000063000000000000000063000000
#03557:0013
#03556:13000063000000000000000000000000
#03555:0000000000000023
#03558:0000000000000023
#03452:0013
#0345b:13
#03457:00001353
#03456:13630000
#03155:13000063000000000000000000002300
#0315b:00001363
#03152:00001353
#03158:0000000000000023
#02758:13000053000000000000000000000000
#0275b:00001363
#02752:00001353
#0165b:13
#01655:13000063
#01658:0013
#01458:1313
#01452:13
#01958:13
#0195b:0013
#01952:13
#04656:1400640014000024
#0465a:14001464
#04652:0000002400000000
#04256:1400540014000024
#04252:14001454
#0425a:0000002400000000
#01858:13000053
#01855:0013
#0185b:0000000000000023
#01155:1313
#01158:00000053
#0115b:0000000000000023
#01258:13
#01255:0013
#01055:13000063
#01052:0000000000000023
#01058:0013
#04456:14000054000000000000000000000000
#0445b:13
#04056:14000064000000000000000000000000
#04052:13
#03757:0013
#03756:00000063
#03752:0013
#03356:0013
#03357:00000053
#0335b:0013
#0305b:00631300
#03055:13000063
#03052:0000000000000023
#03058:0000002300000000
#0325b:13
#03252:13
#03258:00000063000000000000000000000000
#02652:00531300
#02658:13000053
#0265b:0000000000000023
#02655:0000002300000000
#02458:13
#02455:13
#0245b:00000063000000000000000000000000
#0455a:00240064
#04556:5400000000000024
#04552:0013
#04152:00240054
#04156:6400000000000024
#0415b:0013
#05252:2323
#05254:0053005300530053
#05256:00230023
#05352:0023
#0535b:23
#05354:0000000000530053
#05356:00000023
#05359:0063006300000000
#05357:00230000
#0505a:2424
#05059:0064006400640064
#05058:00240024
#0515a:0024
#05152:24
#05158:00000024
#05159:0000000000640064
#05154:00240000
#05153:0054005400000000
#0485a:2424
#04852:14
#04859:0064006400640064
#04858:00240024
#04952:2424
#04953:0054005400540054
#04954:00240024
#0365b:13
#03652:13
#03655:00000053000000000000000000000000
#02858:13
#02855:13
#02852:00000053000000000000000000000000
#0235b:00000063
#02352:00000053
#00458:13
#00455:0013
#00355:00000063
#0035b:0013
#00358:13
#00258:13
#0025b:0013
#00155:13
#00152:0013
#00052:0013
#00055:13
#0555b:00130000
#05552:13
#01558:00000053
#01552:00000053
#01555:0013
#0155b:13
#0135b:00000063
#01355:00000063
#01352:13
#01358:0013
#02052:13
#00755:00000063
#00752:1313
#0075b:0063
#00858:13000053
#00855:0013
#00658:0013
#00655:13
#00558:00000053
#0055b:1313
#00552:0053
#01755:0013
#0175b:13
#00958:0013
#00952:13
#0215c:00000062
#02152:0052
#02955:00000063
#02952:0000000013000023
#0295b:0013
#02558:00000053
#0255b:0000000013000023
#02552:0013
#003350:00000013
#004320:23
#005320:0013
#005350:00000023
#005381:00000013
#0063b1:23
#0073b1:0013
#007381:00000023
#007350:00000013
#008320:23
#008380:00000013
#0093b0:23
#009320:0000000000132300
#0093b1:0000000000001323
#009350:0000000000000013
#010350:23
#010350:00000013
#010320:0000000000000053
#011350:23
#011380:00000013
#0113b0:0000000000000053
#012380:23
#0133b0:00000013
#014380:23
#013351:00000013
#014321:23
#015381:00000013
#0163b1:23
#015320:00000013
#016350:23
#016350:00000013
#017320:23
#0173b0:0000000000132300
#017321:0000000000001323
#017380:0000000000000013
#018380:23
#018380:00000013
#0183b0:0000000000000053
#019380:23
#021320:0012
#021360:00000022
#0213c1:00000012
#022381:22
#0233b1:00000013
#024381:23
#023320:00000013
#024350:23
#0243b0:00000013000000000000000000000000
#024380:0000002300000000
#0253b0:1323000000000000
#025320:0000132300000000
#025380:00000013
#0253b0:0000000000000053
#026380:23
#026320:00132300
#026350:0000005300000000
#026380:00000013
#0263b0:0000000000000053
#027380:23
#027380:00000013000000000000000000000000
#0273b0:0000002300000000
#0273b0:00000013
#028380:23
#027321:00000013
#028351:23
#028321:00000013000000000000000000000000
#028351:0000002300000000
#029321:1323000000000000
#0293b1:0000132300000000
#029351:00000013
#029321:0000000000000053
#030351:23
#0303b1:00132300
#030381:0000005300000000
#030351:00000013
#030321:0000000000000053
#031351:23
#031351:00000013000000000000000000000000
#031321:0000002300000000
#0313b1:00000013
#031381:0000000000000053
#0323b1:23
#031320:00000013
#031350:0000000000000053
#032320:23
#032380:00000013000000000000000000000000
#0323b0:0000002300000000
#0333b0:13
#033370:00230000
#033321:00130000
#033361:0023
#033371:00000013
#0343b1:23
#034361:00130000
#034321:0023
#034371:00000013
#0353b1:23
#0353b1:00001333000000000000000000000000
#035371:0000002300000000
#035360:00000013000000000000000000000000
#035320:0000003323000000
#035320:00000013
#035350:0000000000000053
#036320:23
#0353b1:00000013
#035381:0000000000000053
#0363b1:23
#036351:00000013000000000000000000000000
#036321:0000002300000000
#037321:13
#037361:00230000
#0373b0:00130000
#037370:0023
#037360:00000013
#038320:23
#038370:00130000
#0383b0:0023
#038360:00000013
#039320:23
#039320:00001333000000000000000000000000
#039360:0000002300000000
#039371:00000013000000000000000000000000
#0393b1:0000003323000000
#0393a1:00000014
#040361:24
#039360:00000013
#040320:23
#040360:00000014000000000000000000000000
#040320:0000002400000000
#041360:1424
#041320:00540000
#041320:00000014
#041360:0000000000000054
#042320:24
#042360:00142400
#0423a0:0000005400000000
#042320:00000014
#042360:0000000000000054
#043320:24
#043360:00000014000000000000000000000000
#043320:0000002400000000
#043320:00000014
#044360:24
#043371:00000013
#0443b1:23
#044361:00000014000000000000000000000000
#0443a1:0000002400000000
#045361:1424
#0453a1:00540000
#0453a1:00000014
#045361:0000000000000054
#0463a1:24
#046361:00142400
#046321:0000005400000000
#0463a1:00000014
#046361:0000000000000054
#0473a1:24
#047361:00000014000000000000000000000000
#0473a1:0000002400000000
#0483a1:1454
#048391:0054005400540054
#048381:00540054
#0493a1:24
#049320:1454
#049330:0054005400540054
#049340:00540054
#050320:24
#0503a1:1454
#050391:0054005400540054
#050381:00540054
#0513a1:24
#051320:1424
#051330:0054005400000000
#051340:00540000
#0513a1:0014
#051391:0000000000540054
#051381:00000054
#0523a1:24
#052320:1353
#052340:0053005300530053
#052360:00530053
#053320:23
#0533b1:1323
#053391:0053005300000000
#053371:00530000
#053320:0013
#053340:0000000000530053
#053360:00000053
#054320:23
#054320:0000132300000000
#0543b0:0000000000001323
#055320:0000132300000000
#056320:1323
#056391:0013
#057391:23
#057340:1323
#0573b1:0013
#0583b1:23
#058360:1323
#058391:0013
#059391:23
#059340:1323
#059371:0013
#060371:23
#060320:1222
#060381:0012
#061381:22
#061340:1222
#0613a1:0012
#0623a1:22
#062360:1222
#0623c1:0012
#0633c1:22
#063340:1222
#0633a1:00001222
