This file was generated by Ched 2.7.0.0.
#TITLE ""
#ARTIST ""
#DESIGNER ""
#DIFFICULTY 0
#PLAYLEVEL
#SONGID ""
#WAVE ""
#WAVEOFFSET 0
#JACKET ""
#REQUEST "ticks_per_beat 480"
#00002: 4
#BPM01: 120
#00008: 01
#TIL00: ""
#VOLUME: ""
#HISPEED 00
#MEASUREHS 00
#0241b:0013
#02412:00001333000000000000000000001300
#02414:0000000000130000
#02419:00000013
#0241f:21
#02517:13
#02514:0013000000000000
#0251b:0013
#02519:00130000
#02516:0000001300000000
#02512:00000013
#02510:41
#0321b:0013
#03215:00001333000000000000000013000000
#03218:0000000000130000
#03212:0000000000000013
#04012:0013000000130000
#04015:0000000023000013
#04018:00000013000000000000000023000000
#04118:0013001300000013
#0411b:23001323
#04112:2300000013000013
#04115:00230023
#05418:0013001300001300
#05415:0000130000130013
#0541b:0013
#05412:0013
#05718:0013000000000000
#05715:00130000
#00415:0013
#00418:0000000000000013
#0041b:0013
#00410:41
#00815:0013
#00818:00000013
#0081b:0013
#00912:0000001300000013
#00918:00131300
#00915:0013000000130000
#0091b:00000013
#01215:0013
#0121b:0013
#01212:0000000000000013
#01210:41
#0141b:0000000013000013
#01415:0013
#00512:1313
#0051b:0013000000000000
#00518:0000001300000000
#00515:00130000
#00618:0013
#00612:0013
#00615:0000000000000013
#01818:0013
#01812:0013
#01815:13000013
#00018:13
#00019:0013
#00012:13
#00013:0013
#0011b:0013
#0011a:13
#00114:13
#00115:0013
#01315:0013000000001300
#0131b:00130013
#01318:1313
#01312:0000001300000000
#05512:00130000
#0551b:13
#05518:0024
#05514:00000024
#00215:13
#00214:0013
#0021b:13
#0021a:0013
#00312:0013
#00313:13
#00319:13
#00318:0013
#0071b:1313
#00712:0013000000000000
#00715:0000001300000000
#00718:00130000
#01018:13000013
#01015:0013
#0101b:0013
#01115:0000001300001300
#01118:0013
#01518:0013000000001300
#01512:00130013
#01515:1313
#0151b:0000001300000000
#01618:0013
#01615:00000013
#01612:0013
#0161f:11
#0171b:0000001300000013
#01715:00131300
#01718:0013000000130000
#01712:00000013
#02012:13130000
#0201b:1300001300000000
#02015:00001313
#02018:0000000000130013
#0211b:13
#02112:13
#02118:00131300
#02115:0000001300001300
#02312:1323
#0231b:1323
#02318:00130023
#02315:0000001300000000
#0221b:13130000
#02212:1300001300000000
#02218:00001313
#02215:0000000000130013
#0261b:00130000
#02615:00000013
#02718:00001333000000000000000000000000
#02715:00000013
#02812:2313
#0281b:00001333000000000000000000001300
#02819:0000000000130000
#02814:00000013
#02916:13
#02919:0013000000000000
#02912:0013
#02914:00130000
#02917:0000001300000000
#0291b:00000013
#03012:00130000
#03018:00000013
#03115:00001333000000000000000000000000
#0311b:00000023
#03315:0013000000001300
#03318:1313
#0331b:00130000
#03312:0000001300000000
#03418:00130000
#03412:00000013
#0351b:00001333000000000000000000000000
#03512:00000013
#03718:0013000000001300
#03715:1313
#03712:00130000
#0371b:0000001300000000
#03815:00130000
#0381b:00000013
#03912:00001333000000000000000000000000
#03918:0000000000000013
#0391b:00000023
#03618:00001333000000000000000013000000
#03612:0013
#03615:2300000000130000
#0361b:0000000000000013
#03610:41
#0441b:0013000000130000
#04418:0000000023000013
#04415:00000013000000000000000023000000
#04410:41
#04515:0013001300000013
#04512:23001323
#0451b:2300000013000013
#04518:00230023
#04315:0013000000000013
#04318:00000013000000000000000000000000
#04312:00000023
#04212:0000001300002300
#04218:0000001300002300
#0421b:0000230000000013
#04215:0000230000000013
#04718:0013000000000000
#04713:0000000000130013
#04714:00000013
#04712:0013
#04715:00000023000000000000000000000000
#0461b:0000001300002300
#04615:0000001300002300
#04612:0000230000000013
#04618:0000230000000013
#0481a:0013001300130013
#04819:00130013
#0481b:2313
#04913:0013001300130013
#04914:00130013
#04912:2313
#0501a:0013001300130013
#0501b:00130013
#05019:2313
#05113:0013001300000000
#05112:00130000
#0511a:0000000000130013
#0511b:00000013
#05114:23
#05119:0023
#05213:0014001400140014
#05212:00140014
#05214:2414
#05210:41
#05319:0014001400000000
#05318:00140000
#05313:0000000000140014
#05314:00000014
#0531a:24
#05312:0024
#06115:0013000000000000
#06118:00130000
#01918:0000001300000013
#01915:0013
#0255b:0013
#02552:00000053
#0315b:00000063
#03155:0063000000000000
#03152:0013
#03258:13
#03255:0063000000000000
#0395b:00000063
#03952:0053000000000000
#03955:0013
#03958:0000000000000023
#0405b:13
#04058:00000053000000000000000000000000
#0415b:00001363
#04152:0000000013000023
#04158:0000000000000023
#04155:00000063
#0485b:2323
#0485a:0063006300630063
#04859:00230023
#00858:00000053
#01355:00000063
#0135b:00000063
#05552:00130000
#0555b:13
#01058:00000053
#01155:00000063
#01558:00000053
#01552:00000053
#01655:00000063
#01855:00000063
#02358:00000053
#0245b:13
#02452:0053000000000000
#0265b:00630000
#02655:00000063
#02758:0053000000000000
#0275b:0013
#02755:00000063
#02952:0013
#0295b:00000063
#03052:00530000
#03058:00000053
#03355:00000063
#03358:0013
#03458:00530000
#03452:00000053
#0355b:0063000000000000
#03558:0013
#03552:00000053
#0285b:0063000000000000
#02852:13
#03758:00000053
#03755:0013
#03855:00630000
#0385b:00000063
#03658:0053000000000000
#03655:13
#04552:00001353
#0455b:0000000013000023
#04555:0000000000000023
#04558:00000053
#04355:0000000000000023
#04352:00000053
#04358:00000053000000000000000000000000
#0435b:0013
#04455:00000063000000000000000000000000
#04452:13
#04252:0000002300005300
#04258:0000002300005300
#0425b:0000630000000023
#04255:0000630000000023
#0465b:0000002300006300
#04655:0000002300006300
#04652:0000530000000023
#04658:0000530000000023
#04753:0000000000530053
#04754:00000023
#04755:00000063000000000000000000000000
#04752:0023
#04953:0053005300530053
#04954:00230023
#04952:2323
#0505a:0053005300530053
#0505b:00230023
#05059:2323
#05153:0063006300000000
#05152:00230000
#05154:23
#0515a:0000000000530053
#0515b:00000023
#05159:0023
#05253:0064006400640064
#05252:00240024
#05254:2424
#05359:0064006400000000
#05358:00240000
#0535a:24
#05353:0000000000540054
#05354:00000024
#05352:0024
#003380:00000013
#004380:23
#003321:00000013
#004321:23
#005351:00000013
#006351:23
#0053b0:00000013
#0063b0:23
#007380:00000013
#008380:23
#007321:00000013
#008321:23
#008381:00000013
#0093b1:23
#010381:00000013
#0113b1:23
#011351:00000013
#012321:23
#013351:00000013
#014321:23
#0133b0:00000013
#014380:23
#015380:00000013
#0163b0:23
#015321:00000013
#016351:23
#016351:00000013
#017321:23
#018351:00000013
#019321:23
#023381:00000013
#0243b1:23
#024321:00001333000000000000000000000000
#024351:0000002300000000
#025321:00000013
#026351:23
#0263b1:00130000
#026381:0023
#026351:00000013
#027321:23
#027381:00001333000000000000000000000000
#0273b1:0000003323000000
#027351:00000013
#028321:23
#0283b1:00001333000000000000000000000000
#028381:0000002300000000
#0293b1:00000013
#030381:23
#030321:00130000
#030351:0023
#030381:00000013
#0313b1:23
#031351:00001333000000000000000000000000
#031321:0000003323000000
#0313b1:00000013
#032381:23
#032351:00001333000000000000000000000000
#032321:0000002300000000
#033351:00000013
#034321:23
#034381:00130000
#0343b1:0023
#034321:00000013
#035351:23
#0353b1:00001333000000000000000000000000
#035381:0000003323000000
#035321:00000013
#036351:23
#036381:00001333000000000000000000000000
#0363b1:0000002300000000
#037381:00000013
#0383b1:23
#038351:00130000
#038321:0023
#0383b1:00000013
#039381:23
#039321:00001333000000000000000000000000
#039351:0000003323000000
#0393b1:00000013
#039381:0000000000000053
#0403b1:23
#040381:00000013000000000000000000000000
#0403b1:0000002300000000
#041351:00000013
#041321:0000000000000053
#042351:23
#0413b0:00000013
#041380:0000000000000053
#0423b0:23
#042350:00132300
#042320:0000005300000000
#0423b1:00132300
#042381:0000005300000000
#042381:00000013
#0423b1:0000000000000053
#043381:23
#042320:00000013
#042350:0000000000000053
#043320:23
#043380:00000013000000000000000000000000
#0433b0:0000003323000000
#043320:00000013
#043350:0000000000000053
#044320:23
#044350:00000013000000000000000000000000
#044320:0000002300000000
#045380:00000013
#0453b0:0000000000000053
#046380:23
#045321:00000013
#045351:0000000000000053
#046321:23
#046381:00132300
#0463b1:0000005300000000
#046320:00132300
#046350:0000005300000000
#046350:00000013
#046320:0000000000000053
#047350:23
#0463b1:00000013
#046381:0000000000000053
#0473b1:23
#047351:00000013000000000000000000000000
#047321:0000003333000000
#047331:0000000000530053
#047341:00000053
#048321:23
#0483b0:1353
#0483a0:0053005300530053
#048390:00530053
#0493b0:23
#049321:1353
#049331:0053005300530053
#049341:00530053
#050321:23
#050390:1353
#0503a0:0053005300530053
#0503b0:00530053
#051390:23
#051341:1323
#051331:0053005300000000
#051321:00530000
#051390:0013
#0513a0:0000000000530053
#0513b0:00000053
#052390:23
#052341:1454
#052331:0054005400540054
#052321:00540054
#053341:24
#0533a0:1424
#053390:0054005400000000
#053380:00540000
#053321:0014
#053331:0000000000540054
#053341:00000054
#054321:24
#0563b1:13230000
#056321:0000000013000023
#056351:00000000000000000000003300000000
#057381:0000000013000023
#0573b1:00000000000000000000003300000000
#058351:13230000
#058381:00001323
#059351:1300002300000000
#059321:00000033000000000000000000000000
#059381:00001323
#060321:13230000
#0603b1:0000000013000023
#060381:00000000000000000000003300000000
#061351:0000000013000023
#061321:00000000000000000000003300000000
#062381:13230000
#062351:00001323
#063381:1300002300000000
#0633b1:00000033000000000000000000000000
#063351:00001323
