This file was generated by Ched 2.7.0.0.
#TITLE ""
#ARTIST ""
#DESIGNER ""
#DIFFICULTY 0
#PLAYLEVEL
#SONGID ""
#WAVE ""
#WAVEOFFSET 0
#JACKET ""
#REQUEST "ticks_per_beat 480"
#00002: 4
#BPM01: 120
#00008: 01
#TIL00: ""
#VOLUME: ""
#HISPEED 00
#MEASUREHS 00
#0241b:0000000000000013
#02416:0000001300130000
#02417:00000013000000000000000000000000
#02412:00001313000000000000000000000000
#0241f:21
#02516:1313131300001300
#02512:0000001300130000
#02519:00000000000000000000000000130000
#02514:0000000000000013
#02517:00000000000000000000000000000013
#0251b:00000013000000001300130000000000
#02510:41
#02616:0013000000130000
#0261b:1300001313000013
#02612:1313130000131300
#02617:0000001300000013
#02316:0000001200000012
#0231c:0000001200002200
#0231a:00001200001200000000000000000000
#02318:12000012000000000000000000001200
#02312:14142c22
#0271b:0000000000130000
#02718:00000000000000000000001300001300
#02715:00000000000000000000000013000013
#02712:00000000000000001300000000130000
#02716:0013000000000000
#02714:00000000001300000000000000000000
#03312:00001300000013000000130000130000
#0331b:00000013000000000000000000001300
#03316:00000000130000000000000000000013
#03317:0000001300131300
#03318:13
#03217:00001313000013001300130000000000
#03212:2c000013000000000000130000001300
#0321b:00000013
#03216:0000000000000000001300000000000000000000000000001300000013000000
#03515:00000000000000000000130000130000
#03518:00000000000000000000001300001300
#03512:00000000001300001300000013000000
#0351b:00000013000000000000000000000013
#03517:1300001300000000
#03516:0013000000000000
#04016:00000014001400002400000014001400
#04012:2c001414000014000000140024000000
#0401a:0014001414000000
#0411a:0014001400142400
#04116:24000014000000000000000000001414
#04112:14000000240014000000140000140000
#04312:24001414000014000000140028000000
#0431a:00001400001400000000000000140000
#04316:00000014000014001400001400001418
#0471a:24001414000014000000140000000000
#04712:00001400001400000000000000140018
#04716:00000014000014001400001418001400
#00514:0012001200000000
#00512:00120000
#0051c:12001212
#00518:00120000
#00516:12001212
#00912:0012000000120000
#00914:00120012
#00918:1200001200000000
#00916:0000000012000012
#0091a:00120012
#0091c:0012
#04812:0014
#04817:00001200000000120000120000000012
#0481b:00000000000012000000001200000000
#04815:00000000001200000000000012000000
#04819:00000000120000000000000000120000
#04813:00000012000000000000000000001200
#0481a:24
#05412:16001200001200120000000000000000
#0541c:00000012000012000000000000000000
#05414:00000000180000000000001200001200
#05416:00000014
#0541a:00000000000000000000120000120000
#05418:00000000000000001400000000000012
#05512:14142c2c
#05516:00120012000012000000000000000000
#05518:00001200001200000000000000000000
#0551a:14140000
#06018:1212
#0601c:0000120000000012
#0601a:00000000000000000000001200000000
#0611c:0012000012000000
#06118:0000120000000012
#0611a:00000000000000000000001200000000
#06216:1212
#06212:00120012
#01912:1200000000000012
#01918:0000000000000012
#0191c:0000001200000000
#01916:0000001200000000
#01914:0012
#0191a:0012
#0081c:00000012
#00816:12000012
#00812:0012
#00818:0012
#05618:13
#0561b:0000130000000013
#05617:0013
#05619:00000000000000000000001300000000
#0571b:0013000013000000
#05717:0000130000000013
#05719:00000000000000000000001300000000
#05815:1313
#05812:00130013
#05912:13000013
#05914:00000013000000000000000000000000
#05916:0000001313000000
#06312:12000012
#06314:00000012000000000000000000000000
#06316:0000001212000000
#00318:12000012
#00316:0012
#00312:12
#0031c:0012
#0001c:12
#00018:0012
#00012:0012
#00016:12
#00118:0012
#0011c:12
#00116:12000012
#00112:0012
#00212:12
#00216:0012
#0021c:0012
#00218:12
#00416:12
#00412:0012
#00418:0000000012000012
#00410:41
#00618:12
#0061c:0012
#00616:0000000012000012
#0071a:0012001200000000
#0071c:00120000
#00712:12001212
#00716:00120000
#00718:12001212
#01216:0012
#0121c:0000000012000012
#01212:12
#01210:41
#01314:1200001200000000
#0131c:00120012
#01316:00120012
#01318:0012000012000000
#0131a:12
#01312:0012
#01418:0012
#01412:1200000012000012
#0151a:1200001200000000
#01512:00120012
#01518:00120012
#01516:0012000012000000
#01514:12
#0151c:0012
#0161c:1212
#01612:00000012
#01618:00000012
#01616:0012
#0161f:11
#0171c:0012000000120000
#0171a:00120012
#01716:1200001200000000
#01718:0000000012000012
#01714:00120012
#01712:0012
#01816:12000012
#0181c:12000012
#01812:0012
#01818:0000000012000012
#02014:12000000000000000000001200000000
#02012:00000000001212000012000000120000
#02016:00001212000000000000140000001400
#02018:0000001200000000
#0201a:14141414
#02118:00000000000012000000120000000012
#02116:12000012000000000000000000001200
#02114:00001200001200000012000000120000
#02112:00000000000012000000001200000000
#0211a:14141414
#0221a:12000000000000000000001200000000
#0221c:00000000001212000012000000120000
#02216:0000001200140014
#02218:00001212000000000000000000000000
#02212:14141414
#02812:2600000000000013
#02817:0000001300130000
#02816:00000013000000000000000000000000
#0281b:00001313000000000000000000000000
#02818:26
#02917:1313131300001300
#02912:00000013000000001300130000000000
#02914:00000000000000000000000000130000
#02919:0000000000000013
#02916:00000000000000000000000000000013
#0291b:0000001300130000
#03017:0013000000130000
#03012:1300001313000013
#0301b:1313130000131300
#03016:0000001300000013
#03117:0013000000000000
#03119:00000000001300000000000000000000
#0311b:00000000000000001300000000130000
#03112:0000000000130000
#03115:00000000000000000000001300001300
#03118:00000000000000000000000013000013
#03412:1300001300001300
#03414:0013000000130000
#03416:1300130000000013
#0341b:0000000013000013
#03417:0000001300000000
#0371b:00001300000013000000130000130000
#03712:00000013000000000000000000001300
#03715:13
#03717:00000000130000000000000000000013
#03716:0000001300131300
#03616:00001313000013001300130000000000
#0361b:00000013000000000000130000001300
#03612:2c000013
#03617:0000000000000000001300000000000000000000000000001300000013000000
#03610:41
#0391b:00000000001300001300000013000000
#03916:1300001300000000
#03912:00000013000000000000000000000013
#03917:0013000000000000
#03918:00000000000000000000130000130000
#03915:00000000000000000000001300001300
#0381b:1300001300001300
#03819:0013000000130000
#03817:1300130000000013
#03812:0000000013000013
#03816:0000001300000000
#05318:00000012000000120000000012001200
#0531a:24001200000000001400000000120000
#05316:00140000120012000014001200000012
#05314:00000000001200000000120000000000
#05312:1424
#05018:00000012000012000000000000120000
#0501c:0012000000000000
#0501a:24000000120000001400000000000012
#05016:00000000001200000000001200001200
#05014:00000000000000120000000012000000
#05012:1400000014120000
#04916:00000000000012000000000000000012
#04918:00000000000000120000000000001200
#04914:00000000120000000000000000120000
#0491a:00000000001200001400000012000000
#0491c:00000012000000000000120000000000
#04912:24001200000000000000001200000000
#05114:00000012000000000000000000001200
#05116:14001200001200001400000012000012
#05118:00000000120000120000120000120000
#0511a:00000000000012002400001200000000
#05112:24
#05216:14000012000012001400000012000012
#05214:00001200000000000000000000120000
#05218:00000000120000120000001200001200
#0521a:00140000001200001400120000000000
#05212:24000000000000000014000000000000
#05210:41
#0421a:2414001400140014
#04216:0014241424141414
#04212:24140024
#04512:0014001400142400
#0451a:14000000240014000000140000140000
#04516:24000014000000000000000000001414
#01114:0012
#0111a:0012
#01118:0000001200000012
#01116:00000012
#0111c:12000012
#01112:0000001200000000
#01016:0000000012000012
#01018:12000012
#01012:12000012
#0101c:0012
#04416:00000014001400002400000014001400
#0441a:00001414000014000000140024000000
#04412:2c14001414000000
#04410:41
#04612:2414001400140014
#04616:0014241424141414
#0461a:24140024
#02556:53634300
#0255b:0043
#02552:0000002300000000
#02656:0023000000230000
#0265b:5353
#02657:0000002300000023
#02652:33633363
#02356:0000000000000022
#02352:00000052
#02358:0000000000000022
#0235c:00000062
#03252:1c000063000000000000230000002300
#03257:0000006363000000
#03256:0000000000000000002300000000000000000000000000006300000000000000
#03557:6300006300000000
#0355b:00000063000000001300000000000000
#03552:3313
#04056:00000054000000000000000054000000
#04052:4c
#0405a:0064
#04152:2400002434000000
#0415a:0000002444000000
#0425a:4400000000240024
#04252:54543400
#04256:0024002454005400
#04356:3400005414000000
#04352:00000054000000000000000000000000
#0435a:0014
#04756:4400006414000000
#0475a:00000064000000000000000000000000
#04752:0014
#0485a:44
#00358:00000052
#00356:0012
#00352:12
#0005c:12
#00058:0012
#00158:0012
#0015c:12
#0045c:12
#00452:0012
#00252:12
#00256:0012
#0055c:12
#00556:00001262
#00652:12
#0065c:0012
#00752:12
#00758:00001252
#0085c:12
#00852:0012
#00856:00000062
#00958:12
#00956:0012
#0125c:0012
#01252:12
#01354:12
#01358:0012
#0135c:00000062
#01452:0012
#01458:12
#0155a:12
#01556:0012
#01552:00000052
#01656:12
#01658:00000052
#0165c:0012
#01856:12
#01858:0000000012000022
#0185c:00000062
#01756:12
#01758:0012
#01952:12
#01954:0012
#02456:0000005300000000
#02457:00000053000000000000000000000000
#02452:36
#02458:46
#02752:3313
#02757:0013
#02957:63533300
#0295b:0000002300000000
#02952:0033
#03057:0023000000230000
#03052:6363
#0305b:43534353
#03056:0000002300000023
#0315b:4313
#03156:0013
#03452:3300002300005300
#03456:5300630043000023
#0345b:0063
#02857:0000006300000000
#02856:00000063000000000000000000000000
#02858:46
#02852:36
#03358:53
#03356:00634300
#03352:0000002300000000
#03357:0000002300000000
#0335b:0043
#0365b:00000053000000000000230000002300
#03656:0000005353000000
#03657:0000000000000000002300000000000000000000000000005300000000000000
#03652:1c
#03956:5300005300000000
#03952:00000053000000001300000000000000
#0395b:4313
#0385b:4300002300006300
#03857:6300530033000023
#03852:0053
#03755:63
#03757:00533300
#0375b:0000002300000000
#03756:0000002300000000
#03752:0033
#0555a:44
#05552:00340000
#05052:54
#0505a:0064
#05156:5464
#05352:54
#0535a:0064
#05356:00240000000000000024000000000000
#05256:5464
#05252:00000000000000000024000000000000
#0525a:00240000000000000000000000000000
#04452:3c54
#04456:00000064000000000000000064000000
#0115a:0012
#01158:0000000000000022
#0115c:12000062
#01056:0000000012000022
#01052:00000052
#01058:12
#04552:0000002434000000
#0455a:2400002444000000
#04656:0024002464006400
#04652:3400000000240024
#0465a:64644400
#003380:00000012
#0043c0:22
#005360:00000012
#006320:22
#007380:00000012
#0083c0:22
#008360:00000012
#009320:22
#010320:00000012
#010360:0000000000000052
#011320:22
#0113c0:00000012
#011380:0000000000000052
#0123c0:22
#0133c0:00000012
#014380:22
#015320:00000012
#016360:22
#016380:00000012
#0173c0:22
#0183c0:00000012
#018380:0000000000000052
#0193c0:22
#023320:00000012
#023360:0000000000000052
#024320:26
#0233c1:00000012
#023381:0000000000000052
#024381:26
#024371:00000013000000000000000000000000
#0243b1:0000002300000000
#024360:0000001300000000
#024320:0023
#024361:00000000000000001300005323000000
#0243b1:00000000000000000053330000000000
#024320:00000000000000000000000013000053
#024360:00000000000000000000000000533300
#025320:23
#025361:13
#0253b1:0023000000000000
#025361:00132300
#025321:0000003300000000
#0263b1:13230000
#026361:0033000000000000
#026320:00132300
#026370:0000003300000000
#0263b1:00001323
#026361:0000000000330000
#026320:00000013
#026370:0000000000000033
#027320:23
#0273b1:1323000000000000
#027391:00000013002300000000000000000000
#027371:0000001323000000
#028361:00000013000000000000000000000000
#028321:0000002300000000
#028370:0000001300000000
#0283b0:0023
#028371:00000000000000001300005323000000
#028321:00000000000000000053330000000000
#0283b0:00000000000000000000000013000053
#028370:00000000000000000000000000533300
#0293b0:23
#029371:13
#029321:0023000000000000
#029371:00132300
#0293b1:0000003300000000
#030321:13230000
#030371:0033000000000000
#0303b0:00132300
#030360:0000003300000000
#030321:00001323
#030371:0000000000330000
#0303b0:00000013
#030360:0000000000000033
#0313b0:23
#031321:1323000000000000
#031341:00000013002300000000000000000000
#031361:0000001323000000
#032321:00000013000023000000000000000000
#032361:0000000000000000005300000000000000000000000000000000000000000000
#032370:0000001300000000
#0323b0:0023
#032371:0013
#032321:0000000000330033
#032361:00000033
#033351:23
#033380:13
#0333b0:0023000000000000
#033360:00132300
#033320:0000003300000000
#033371:0000001300000000
#0333b1:0023
#034361:13
#0343b1:00230000
#034360:00132300
#034320:0000005300000000
#0343b1:0013
#034361:00000023
#034320:00000013
#034360:0000000000000053
#035320:23
#035371:13
#0353b1:0023000000000000
#0353b1:00000013000000000000000000000000
#035371:00000000002300000000000000000000
#035371:0000001300000000
#0353b1:0023
#0363b1:00000013000023000000000000000000
#036371:0000000000000000005300000000000000000000000000000000000000000000
#036360:0000001300000000
#036320:0023
#036361:0013
#0363b1:0000000000330033
#036371:00000033
#037381:23
#037350:13
#037320:0023000000000000
#037370:00132300
#0373b0:0000003300000000
#037361:0000001300000000
#037321:0023
#038371:13
#038321:00230000
#038370:00132300
#0383b0:0000005300000000
#038321:0013
#038371:00000023
#0383b0:00000013
#038370:0000000000000053
#0393b0:23
#039361:13
#039321:0023000000000000
#039321:00000013000000000000000000000000
#039361:00000000002300000000000000000000
#039361:0000001300000000
#039321:0023
#040361:00000014000000000000000000000000
#0403a1:00000000002400000000000000000000
#0403a1:0014
#040361:0000000000240000
#040361:00000014
#0403a1:0000000000000024
#041321:14
#041361:0024000000000000
#0413a1:0000145400000000
#041321:0024
#041320:0000001400000000
#0413a0:0024
#042320:14342400
#042360:0034003400000000
#042361:00001434
#0423a1:0000000000340034
#043361:24
#043321:00000014000000000000000000000000
#043361:00000000002400000000000000000000
#043361:0000001400000000
#0433a1:0024
#044361:00000014000000000000000000000000
#044321:00000000002400000000000000000000
#044321:0014
#044361:0000000000240000
#044361:00000014
#044321:0000000000000024
#0453a1:14
#045361:0024000000000000
#045321:0000145400000000
#0453a1:0024
#0453a0:0000001400000000
#045320:0024
#0463a0:14342400
#046360:0034003400000000
#046361:00001434
#046321:0000000000340034
#047361:24
#0473a1:00000014000000000000000000000000
#047361:00000000002400000000000000000000
#047361:0000001400000000
#047321:0024
#048321:1424000000000000
#0483a1:0000000014240000
#049361:1424000000000000
#049361:0000000014240000
#050321:14
#050361:0024000000000000
#0503a1:0014
#050361:0000000000240000
#051361:14
#0513a1:0024000000000000
#051361:0014
#051321:0000000000240000
#052361:1424000000000000
#0523a1:00540000000000000000000000000000
#052361:0000000014240000
#052321:00000000000000000054000000000000
#053321:1424000000000000
#053361:00540000000000000000000000000000
#0533a1:0000000014240000
#053361:00000000000000000054000000000000
#054381:1626000000000000
#054341:0000000014240000
#056351:13
#056321:00230000
#056321:0013
#056351:00000023
#057351:13
#057321:00230000
#057321:0013
#057351:00000023
#058381:13
#0583b1:00230000
#0583b1:0013
#058381:00000023
#059381:13
#0593b1:00230000
#0593b1:0013
#059381:00000023
#060361:12
#060321:00220000
#060321:0012
#060361:00000022
#061361:12
#061321:00220000
#061321:0012
#061361:00000022
#062381:12
#0623c1:00220000
#0623c1:0012
#062381:00000022
#063381:12
#0633c1:00220000
#0633c1:0012
#063381:00000022
