This file was generated by Ched 2.7.0.0.
#TITLE ""
#ARTIST ""
#DESIGNER ""
#DIFFICULTY 0
#PLAYLEVEL
#SONGID ""
#WAVE ""
#WAVEOFFSET 0
#JACKET ""
#REQUEST "ticks_per_beat 480"
#00002: 4
#BPM01: 120
#00008: 01
#TIL00: ""
#VOLUME: ""
#HISPEED 00
#MEASUREHS 00
#02414:00140014
#0241a:2414
#0241f:21
#0091a:0014
#00912:14
#00916:00140014
#02718:14
#0271a:00340000
#00018:1414
#00114:1414
#0021a:1414
#00312:1414
#0111a:14
#01116:0014
#02812:1414
#02818:00140014
#04012:00140000
#04016:0014
#0401a:00000014
#04018:26
#04114:14141400
#04118:0014001400000000
#0411a:00000014
#04212:14
#04218:00140000
#04214:0014
#0421a:00000014
#04312:14
#04316:00140000
#0431a:0014
#05414:0014
#05418:14
#02512:00140014
#02518:1414
#02510:41
#05019:00140014
#0501a:14
#05018:0014
#05213:00140014
#05212:14
#05214:0014
#05210:41
#05313:00140000
#05312:14
#00512:14
#00518:00140000
#00514:0014
#0051a:00000014
#00718:14
#00712:00140000
#0071a:0014
#00714:00000014
#01712:0014
#0171a:14
#01716:00140014
#0131a:14
#01314:00140000
#01318:0014
#01312:00000014
#01514:14
#0151a:00140000
#01512:0014
#01518:00000014
#01912:14
#01916:0014
#03114:14
#03112:00340000
#0291a:00140014
#02914:1414
#03214:00140000
#03218:0014
#03212:00000014
#0321a:24
#03612:14
#03618:00140000
#03614:0014
#0361a:00000014
#03610:41
#03312:00000014
#0331a:14
#03314:00140000
#03318:0014
#0351a:14
#03518:00340000
#0371a:00000014
#03712:14
#03718:00140000
#03714:0014
#03912:14
#03914:00340000
#0441a:00140000
#04416:0014
#04412:24000014
#04410:41
#04518:14141400
#04514:0014001400000000
#04512:00000014
#0461a:14
#04614:00140000
#04618:0014
#04612:00000014
#0471a:14
#04716:00140000
#04712:0014
#05113:00000014
#05114:0014
#04816:0014
#05512:00140000
#0551a:14
#05514:00000024
#05518:0024
#0561a:14
#0601a:14
#06018:00140000
#05712:14
#06112:14
#06114:00140000
#0621a:00140000
#06218:14
#06312:00140000
#06314:14
#05914:14
#05818:14
#0161f:11
#00410:41
#01210:41
#0245a:14
#02758:54
#02852:14
#04058:16
#04452:14
#05059:00640054
#0505a:24
#05058:0024
#05253:00540064
#05252:24
#05254:0024
#05353:00540000
#05352:24
#03154:64
#03652:14
#0325a:14
#0355a:64
#03952:54
#05153:00000064
#05154:0024
#04752:0054
#04856:0024
#0565a:64
#0605a:64
#06058:00240000
#05752:54
#06152:54
#06154:00240000
#0625a:00240000
#06258:54
#06352:00240000
#06354:64
#05954:64
#05858:54
#0043a0:1424
#006320:1424
#0083a0:1424
#010320:1424
#012320:1424
#0143a0:1424
#016320:1424
#0183a0:1424
#0203a0:14
#020380:0024
#021320:14
#021340:0024
#022380:14
#0223a0:0024
#023340:14
#023320:0024
#0263a0:14240000
#026320:00001424
#027380:14
#0273a0:00342400
#030320:14240000
#0303a0:00001424
#031340:14
#031320:00342400
#0343a0:14
#034380:00240000
#034340:0014
#034320:00000024
#0353a0:14
#035380:00342400
#038320:14
#038340:00240000
#038380:0014
#0383a0:00000024
#039320:14
#039340:00342400
#047320:0014
#048360:0054
#049320:0024
#0503a0:14
#050390:00540054
#050380:0054
#0513a0:24
#051340:0014
#051330:00000054
#052320:54
#052330:00540054
#052340:0054
#053320:54
#053330:00540000
#053340:0024
#0563a0:14
#056380:0024
#057320:14
#057340:0024
#058380:14
#0583a0:0024
#059340:14
#059320:0024
#0603a0:1424
#060380:00540000
#061320:1424
#061340:00540000
#062380:1424
#0623a0:00540000
#063340:1424
#063320:00540000
