This file was generated by Ched 2.7.0.0.
#TITLE ""
#ARTIST ""
#DESIGNER ""
#DIFFICULTY 0
#PLAYLEVEL
#SONGID ""
#WAVE ""
#WAVEOFFSET 0
#JACKET ""
#REQUEST "ticks_per_beat 480"
#00002: 4
#BPM01: 145
#00008: 01
#TIL00: ""
#HISPEED 00
#MEASUREHS 00
#00218:14
#00314:14
#04712:14
#0041a:14
#00512:14
#00618:14
#00714:14
#0081a:14
#00912:14
#0181a:14
#01810:41
#01912:14
#0201a:14
#02112:14
#02218:14
#02314:14
#02418:14
#02712:0016
#02718:26
#02710:41
#02912:1616
#03518:14
#03612:14
#03914:14
#03910:41
#0401a:14
#0431a:14
#04414:14
#04818:14
#05118:14
#05218:14
#05312:14
#05412:14
#0551a:14
#05510:41
#0561a:14
#05714:14
#05814:14
#03018:1616
#03112:16
#03118:0016
#03318:16
#03312:0016
#03412:0016
#03418:16
#06718:2616
#0671f:21
#06818:16
#06812:0016
#06810:41
#06918:16
#06912:0016
#07112:1616
#07212:16
#07218:0016
#07312:16
#07318:0016
#0751a:14
#07612:14
#07912:14
#0801a:14
#0591f:11
#01010:41
#010380:14
#011380:24
#012340:14
#013340:24
#014380:14
#015380:24
#016340:14
#017340:24
#025340:14
#026340:24
#028380:1626
#032320:1626
#037380:14
#038380:24
#041340:14
#042340:24
#0453a0:14
#0463a0:24
#049320:14
#050320:24
#059380:14
#0603a0:34
#0613a0:34
#062380:24
#063340:14
#064320:34
#065320:34
#066340:24
#070380:1626
#074320:1626
#077380:14
#078380:24
#081340:14
#082340:34003424
